Opened 5 months ago

Closed 5 months ago

Last modified 5 months ago

#6961 closed defect (duplicate)

Can't grab AMVC MEDIATYPE_Video from [DualStream]_3D.m2ts-file

Reported by: max79 Owned by:
Priority: normal Component: undetermined
Version: unspecified Keywords:
Cc: Blocked By:
Blocking: Reproduced by developer: no
Analyzed by developer: no

Description

Summary of the bug:
[DualStream?]_3D example("Trailer 3D_MVC.m2ts") have:

MEDIATYPE_Video {43564D41-0000-0010-8000-00AA00389B71} AMVC

but ffmpeg can't grab it.
You can download example from here:
http://ul.to/8f9mskio
How to reproduce:
ffmpeg version 3.3.3 Copyright (c) 2000-2017 the FFmpeg developers

built with gcc 7.1.0 (GCC)
configuration: --enable-gpl --enable-version3 --enable-cuda --enable-cuvid --enable-d3d11va --enable-dxva2 --enable-libmfx --enable-nvenc --enable-avisynth --enable-bzlib --enable-fontconfig --enable-frei0r --enable-gnutls --enable-iconv --enable-libass --enable-libbluray --enable-libbs2b --enable-libcaca --enable-libfreetype --enable-libgme --enable-libgsm --enable-libilbc --enable-libmodplug --enable-libmp3lame --enable-libopencore-amrnb --enable-libopencore-amrwb --enable-libopenh264 --enable-libopenjpeg --enable-libopus --enable-librtmp --enable-libsnappy --enable-libsoxr --enable-libspeex --enable-libtheora --enable-libtwolame --enable-libvidstab --enable-libvo-amrwbenc --enable-libvorbis --enable-libvpx --enable-libwavpack --enable-libwebp --enable-libx264 --enable-libx265 --enable-libxavs --enable-libxvid --enable-libzimg --enable-lzma --enable-zlib
libavutil 55. 58.100 / 55. 58.100
libavcodec 57. 89.100 / 57. 89.100
libavformat 57. 71.100 / 57. 71.100
libavdevice 57. 6.100 / 57. 6.100
libavfilter 6. 82.100 / 6. 82.100
libswscale 4. 6.100 / 4. 6.100
libswresample 2. 7.100 / 2. 7.100
libpostproc 54. 5.100 / 54. 5.100

[h264 @ 000000000026dea0] sps_id 1 out of range

Last message repeated 3 times

Input #0, mpegts, from 'http://am4-r1f4-stor04.uploaded.net/dl/697a021f-0d33-4ede-aadf-8d8cea9d2a14':

Duration: 00:01:29.76, start: 600.000000, bitrate: 39674 kb/s
Program 1

Stream #0:0[0x1011]: Video: h264 (High) ([27][0][0][0] / 0x001B), yuv420p(progressive), 1920x1080 [SAR 1:1 DAR 16:9], 23.98 fps, 23.98 tbr, 90k tbn, 47.95 tbc
Stream #0:1[0x1100](fre): Audio: ac3 (AC-3 / 0x332D4341), 48000 Hz, 5.1(side), fltp, 640 kb/s

At least one output file must be specified

Change History (2)

comment:1 Changed 5 months ago by cehoyos

  • Resolution set to duplicate
  • Status changed from new to closed

Looks like a duplicate of ticket #6422.

comment:2 Changed 5 months ago by max79

Last edited 5 months ago by max79 (previous) (diff)
Note: See TracTickets for help on using tickets.