Changes between Version 1 and Version 2 of Ticket #6825, comment 4


Ignore:
Timestamp:
Nov 10, 2017, 5:11:47 AM (3 years ago)
Author:
tmm1
Comment:

Legend:

Unmodified
Added
Removed
Modified
  • Ticket #6825, comment 4

    v1 v2  
    1717{{{
    1818$ ffmpeg -i init.mp4
    19    Stream #0:1(und): Audio: ac3 (ac-3 / 0x332D6361), 48000 Hz, stereo, fltp (default)
     19  Stream #0:1(und): Audio: ac3 (ac-3 / 0x332D6361), 48000 Hz, stereo, fltp (default)
    2020
    2121$ ffmpeg -i init-stream1.m4s
    22     Stream #0:0(und): Audio: ac3 (ac-3 / 0x332D6361), 48000 Hz, 5.1(side), fltp (default)
     22  Stream #0:0(und): Audio: ac3 (ac-3 / 0x332D6361), 48000 Hz, 5.1(side), fltp (default)
    2323}}}