Opened 5 weeks ago

Closed 5 weeks ago

#6661 closed defect (invalid)

Missing streams when cutting M2TS file

Reported by: xamarin Owned by:
Priority: normal Component: undetermined
Version: unspecified Keywords:
Cc: Blocked By:
Blocking: Reproduced by developer: no
Analyzed by developer: no

Description

Summary of the bug:
When cutting a M2TS file to get a portion of it, the portion is missing all subtitle tracks and all audio except one.
The original file has 6 audio and 5 subtitles.

How to reproduce:

% ffmpeg.exe -i 00001.m2ts -vcodec copy -acodec copy -ss 00:09:23 -to 00:10:00 outputFile.m2ts
ffmpeg-20170910-8e17cd2-win64-static
ffmpeg version N-87257-g8e17cd2 Copyright (c) 2000-2017 the FFmpeg developers
  built with gcc 7.1.0 (GCC)
  configuration: --enable-gpl --enable-version3 --enable-cuda --enable-cuvid --enable-d3d11va --enable-dxva2 --enable-libmfx --enable-nvenc --enable-avisynth --enable-bzlib --enable-fontconfig --enable-frei0r --enable-gnutls --enable-iconv --enable-libass --enable-libbluray --enable-libbs2b --enable-libcaca --enable-libfreetype --enable-libgme --enable-libgsm --enable-libilbc --enable-libmodplug --enable-libmp3lame --enable-libopencore-amrnb --enable-libopencore-amrwb --enable-libopenh264 --enable-libopenjpeg --enable-libopus --enable-librtmp --enable-libsnappy --enable-libsoxr --enable-libspeex --enable-libtheora --enable-libtwolame --enable-libvidstab --enable-libvo-amrwbenc --enable-libvorbis --enable-libvpx --enable-libwavpack --enable-libwebp --enable-libx264 --enable-libx265 --enable-libxavs --enable-libxvid --enable-libzimg --enable-lzma --enable-zlib
  libavutil      55. 74.100 / 55. 74.100
  libavcodec     57.105.100 / 57.105.100
  libavformat    57. 82.100 / 57. 82.100
  libavdevice    57.  8.100 / 57.  8.100
  libavfilter     6.105.100 /  6.105.100
  libswscale      4.  7.103 /  4.  7.103
  libswresample   2.  8.100 /  2.  8.100
  libpostproc    54.  6.100 / 54.  6.100
[mpegts @ 00000000025d24a0] start time for stream 7 is not set in estimate_timings_from_pts
[mpegts @ 00000000025d24a0] start time for stream 8 is not set in estimate_timings_from_pts
[mpegts @ 00000000025d24a0] start time for stream 9 is not set in estimate_timings_from_pts
[mpegts @ 00000000025d24a0] start time for stream 10 is not set in estimate_timings_from_pts
[mpegts @ 00000000025d24a0] start time for stream 11 is not set in estimate_timings_from_pts
[mpegts @ 00000000025d24a0] Could not find codec parameters for stream 7 (Subtitle: hdmv_pgs_subtitle ([144][0][0][0] / 0x0090)): unspecified size
Consider increasing the value for the 'analyzeduration' and 'probesize' options
[mpegts @ 00000000025d24a0] Could not find codec parameters for stream 8 (Subtitle: hdmv_pgs_subtitle ([144][0][0][0] / 0x0090)): unspecified size
Consider increasing the value for the 'analyzeduration' and 'probesize' options
[mpegts @ 00000000025d24a0] Could not find codec parameters for stream 9 (Subtitle: hdmv_pgs_subtitle ([144][0][0][0] / 0x0090)): unspecified size
Consider increasing the value for the 'analyzeduration' and 'probesize' options
[mpegts @ 00000000025d24a0] Could not find codec parameters for stream 10 (Subtitle: hdmv_pgs_subtitle ([144][0][0][0] / 0x0090)): unspecified size
Consider increasing the value for the 'analyzeduration' and 'probesize' options
[mpegts @ 00000000025d24a0] Could not find codec parameters for stream 11 (Subtitle: hdmv_pgs_subtitle ([144][0][0][0] / 0x0090)): unspecified size
Consider increasing the value for the 'analyzeduration' and 'probesize' options
Input #0, mpegts, from '.\00001.m2ts':
  Duration: 01:44:54.31, start: 11.642667, bitrate: 72514 kb/s
  Program 1 
    Stream #0:0[0x1011]: Video: hevc (Main 10) (HDMV / 0x564D4448), yuv420p10le(tv, bt2020nc/bt2020/smpte2084), 3840x2160 [SAR 1:1 DAR 16:9], 23.98 fps, 23.98 tbr, 90k tbn, 23.98 tbc
    Stream #0:1[0x1100]: Audio: truehd (AC-3 / 0x332D4341), 48000 Hz, 7.1, s32 (24 bit)
    Stream #0:2[0x1100]: Audio: ac3 (AC-3 / 0x332D4341), 48000 Hz, 5.1(side), fltp, 640 kb/s
    Stream #0:3[0x1101]: Audio: ac3 (AC-3 / 0x332D4341), 48000 Hz, 5.1(side), fltp, 640 kb/s
    Stream #0:4[0x1102]: Audio: dts (DTS-HD MA) ([134][0][0][0] / 0x0086), 48000 Hz, 5.1(side), s16p
    Stream #0:5[0x1103]: Audio: ac3 (AC-3 / 0x332D4341), 48000 Hz, stereo, fltp, 192 kb/s
    Stream #0:6[0x1104]: Audio: ac3 (AC-3 / 0x332D4341), 48000 Hz, 5.1(side), fltp, 640 kb/s
    Stream #0:7[0x12a0]: Subtitle: hdmv_pgs_subtitle ([144][0][0][0] / 0x0090)
    Stream #0:8[0x12a1]: Subtitle: hdmv_pgs_subtitle ([144][0][0][0] / 0x0090)
    Stream #0:9[0x12a2]: Subtitle: hdmv_pgs_subtitle ([144][0][0][0] / 0x0090)
    Stream #0:10[0x12a3]: Subtitle: hdmv_pgs_subtitle ([144][0][0][0] / 0x0090)
    Stream #0:11[0x12a4]: Subtitle: hdmv_pgs_subtitle ([144][0][0][0] / 0x0090)
Output #0, mpegts, to 'outputFile.m2ts':
  Metadata:
    encoder         : Lavf57.82.100
    Stream #0:0: Video: hevc (Main 10) (HDMV / 0x564D4448), yuv420p10le(tv, bt2020nc/bt2020/smpte2084), 3840x2160 [SAR 1:1 DAR 16:9], q=2-31, 23.98 fps, 23.98 tbr, 90k tbn, 90k tbc
    Stream #0:1: Audio: truehd (AC-3 / 0x332D4341), 48000 Hz, 7.1, s32 (24 bit)
Stream mapping:
  Stream #0:0 -> #0:0 (copy)
  Stream #0:1 -> #0:1 (copy)
Press [q] to stop, [?] for help
frame=    0 fps=0.0 q=-1.0 size=       0kB time=00:00:00.00 bitrate=N/A speed=   0x    
frame=    0 fps=0.0 q=-1.0 size=       0kB time=00:00:00.00 bitrate=N/A speed=   0x    
frame=    0 fps=0.0 q=-1.0 size=       0kB time=00:00:00.00 bitrate=N/A speed=   0x    
frame=    0 fps=0.0 q=-1.0 size=       0kB time=00:00:00.00 bitrate=N/A speed=   0x    
frame=    0 fps=0.0 q=-1.0 size=       0kB time=00:00:00.00 bitrate=N/A speed=   0x    
frame=    0 fps=0.0 q=-1.0 size=       0kB time=00:00:00.00 bitrate=N/A speed=   0x    
frame=    0 fps=0.0 q=-1.0 size=       0kB time=00:00:00.00 bitrate=N/A speed=   0x    
frame=    0 fps=0.0 q=-1.0 size=       0kB time=00:00:00.00 bitrate=N/A speed=   0x    
frame=    0 fps=0.0 q=-1.0 size=       0kB time=00:00:00.00 bitrate=N/A speed=   0x    
frame=    0 fps=0.0 q=-1.0 size=       0kB time=00:00:00.00 bitrate=N/A speed=   0x    
frame=    0 fps=0.0 q=-1.0 size=       0kB time=00:00:00.00 bitrate=N/A speed=   0x    
frame=    0 fps=0.0 q=-1.0 size=       0kB time=00:00:00.00 bitrate=N/A speed=   0x    
frame=    0 fps=0.0 q=-1.0 size=       0kB time=00:00:00.00 bitrate=N/A speed=   0x    
frame=    0 fps=0.0 q=-1.0 size=       0kB time=00:00:00.00 bitrate=N/A speed=   0x    
frame=    0 fps=0.0 q=-1.0 size=       0kB time=00:00:00.00 bitrate=N/A speed=   0x    
frame=    0 fps=0.0 q=-1.0 size=       0kB time=00:00:00.00 bitrate=N/A speed=   0x    
frame=    0 fps=0.0 q=-1.0 size=       0kB time=00:00:00.00 bitrate=N/A speed=   0x    
frame=    0 fps=0.0 q=-1.0 size=       0kB time=00:00:00.00 bitrate=N/A speed=   0x    
frame=    0 fps=0.0 q=-1.0 size=       0kB time=00:00:00.00 bitrate=N/A speed=   0x    
frame=    0 fps=0.0 q=-1.0 size=       0kB time=00:00:00.00 bitrate=N/A speed=   0x    
frame=    0 fps=0.0 q=-1.0 size=       0kB time=00:00:00.00 bitrate=N/A speed=   0x    
frame=    0 fps=0.0 q=-1.0 size=       0kB time=00:00:00.00 bitrate=N/A speed=   0x    
frame=    0 fps=0.0 q=-1.0 size=       0kB time=00:00:00.00 bitrate=N/A speed=   0x    
frame=    0 fps=0.0 q=-1.0 size=       0kB time=00:00:00.00 bitrate=N/A speed=   0x    
frame=    0 fps=0.0 q=-1.0 size=       0kB time=00:00:00.00 bitrate=N/A speed=   0x    
frame=    0 fps=0.0 q=-1.0 size=       0kB time=00:00:00.00 bitrate=N/A speed=   0x    
frame=    0 fps=0.0 q=-1.0 size=       0kB time=00:00:00.00 bitrate=N/A speed=   0x    
frame=    0 fps=0.0 q=-1.0 size=       0kB time=00:00:00.00 bitrate=N/A speed=   0x    
frame=    0 fps=0.0 q=-1.0 size=       0kB time=00:00:00.00 bitrate=N/A speed=   0x    
frame=    0 fps=0.0 q=-1.0 size=       0kB time=00:00:00.00 bitrate=N/A speed=   0x    
frame=    0 fps=0.0 q=-1.0 size=       0kB time=00:00:00.00 bitrate=N/A speed=   0x    
frame=    0 fps=0.0 q=-1.0 size=       0kB time=00:00:00.00 bitrate=N/A speed=   0x    
frame=    0 fps=0.0 q=-1.0 size=       0kB time=00:00:00.00 bitrate=N/A speed=   0x    
frame=    0 fps=0.0 q=-1.0 size=       0kB time=00:00:00.00 bitrate=N/A speed=   0x    
frame=    0 fps=0.0 q=-1.0 size=       0kB time=00:00:00.00 bitrate=N/A speed=   0x    
frame=    0 fps=0.0 q=-1.0 size=       0kB time=00:00:00.00 bitrate=N/A speed=   0x    
frame=    0 fps=0.0 q=-1.0 size=       0kB time=00:00:00.00 bitrate=N/A speed=   0x    
frame=    0 fps=0.0 q=-1.0 size=       0kB time=00:00:00.00 bitrate=N/A speed=   0x    
frame=    0 fps=0.0 q=-1.0 size=       0kB time=00:00:00.00 bitrate=N/A speed=   0x    
frame=    0 fps=0.0 q=-1.0 size=       0kB time=00:00:00.00 bitrate=N/A speed=   0x    
frame=    0 fps=0.0 q=-1.0 size=       0kB time=00:00:00.00 bitrate=N/A speed=   0x    
frame=    0 fps=0.0 q=-1.0 size=       0kB time=00:00:00.00 bitrate=N/A speed=   0x    
frame=    0 fps=0.0 q=-1.0 size=       0kB time=00:00:00.00 bitrate=N/A speed=   0x    
frame=    0 fps=0.0 q=-1.0 size=       0kB time=00:00:00.00 bitrate=N/A speed=   0x    
frame=    0 fps=0.0 q=-1.0 size=       0kB time=00:00:00.00 bitrate=N/A speed=   0x    
frame=    0 fps=0.0 q=-1.0 size=       0kB time=00:00:00.00 bitrate=N/A speed=   0x    
frame=    0 fps=0.0 q=-1.0 size=       0kB time=00:00:00.00 bitrate=N/A speed=   0x    
frame=    0 fps=0.0 q=-1.0 size=       0kB time=00:00:00.00 bitrate=N/A speed=   0x    
frame=    0 fps=0.0 q=-1.0 size=       0kB time=00:00:00.00 bitrate=N/A speed=   0x    
frame=    0 fps=0.0 q=-1.0 size=       0kB time=00:00:00.00 bitrate=N/A speed=   0x    
frame=    0 fps=0.0 q=-1.0 size=       0kB time=00:00:00.00 bitrate=N/A speed=   0x    
frame=    0 fps=0.0 q=-1.0 size=       0kB time=00:00:00.00 bitrate=N/A speed=   0x    
frame=    0 fps=0.0 q=-1.0 size=       0kB time=00:00:00.00 bitrate=N/A speed=   0x    
frame=    0 fps=0.0 q=-1.0 size=       0kB time=00:00:00.00 bitrate=N/A speed=   0x    
frame=    0 fps=0.0 q=-1.0 size=       0kB time=00:00:00.00 bitrate=N/A speed=   0x    
frame=    0 fps=0.0 q=-1.0 size=       0kB time=00:00:00.00 bitrate=N/A speed=   0x    
frame=    0 fps=0.0 q=-1.0 size=       0kB time=00:00:00.00 bitrate=N/A speed=   0x    
frame=    0 fps=0.0 q=-1.0 size=       0kB time=00:00:00.00 bitrate=N/A speed=   0x    
frame=    0 fps=0.0 q=-1.0 size=       0kB time=00:00:00.00 bitrate=N/A speed=   0x    
frame=    0 fps=0.0 q=-1.0 size=       0kB time=00:00:00.00 bitrate=N/A speed=   0x    
frame=    0 fps=0.0 q=-1.0 size=       0kB time=00:00:00.00 bitrate=N/A speed=   0x    
frame=    0 fps=0.0 q=-1.0 size=       0kB time=00:00:00.00 bitrate=N/A speed=   0x    
frame=    0 fps=0.0 q=-1.0 size=       0kB time=00:00:00.00 bitrate=N/A speed=   0x    
frame=    0 fps=0.0 q=-1.0 size=       0kB time=00:00:00.00 bitrate=N/A speed=   0x    
frame=    0 fps=0.0 q=-1.0 size=       0kB time=00:00:00.00 bitrate=N/A speed=   0x    
frame=    8 fps=0.2 q=-1.0 size=     256kB time=00:00:01.02 bitrate=2051.4kbits/s speed=0.0308x    
frame=  132 fps=3.9 q=-1.0 size=   55040kB time=00:00:06.19 bitrate=72792.7kbits/s speed=0.184x    
frame=  258 fps=7.6 q=-1.0 size=  109312kB time=00:00:11.44 bitrate=78212.4kbits/s speed=0.335x    
frame=  412 fps= 12 q=-1.0 size=  171776kB time=00:00:17.87 bitrate=78735.0kbits/s speed=0.516x    
frame=  550 fps= 16 q=-1.0 size=  225792kB time=00:00:23.62 bitrate=78283.0kbits/s speed=0.672x    
frame=  681 fps= 19 q=-1.0 size=  289536kB time=00:00:29.09 bitrate=81530.2kbits/s speed=0.816x    
frame=  801 fps= 22 q=-1.0 size=  349184kB time=00:00:34.09 bitrate=83893.4kbits/s speed=0.943x    
frame=  870 fps= 24 q=-1.0 Lsize=  374472kB time=00:00:36.99 bitrate=82912.1kbits/s speed=1.02x    
video:316065kB audio:23108kB subtitle:0kB other streams:0kB global headers:1kB muxing overhead: 10.407356%

Change History (6)

comment:1 Changed 5 weeks ago by llogan

  • Resolution set to invalid
  • Status changed from new to closed

This is not a bug. The default stream selection behavior is to select one stream per stream type. See:
https://ffmpeg.org/ffmpeg.html#Stream-selection

If you want to override this behavior use the -map option, such as -map 0 to map all streams from input 0 (the first and only input in your case).

comment:2 Changed 5 weeks ago by xamarin

  • Resolution invalid deleted
  • Status changed from closed to reopened

Ok tried and fails.

 .\ffmpeg.exe -i .\00001.m2ts -vcodec copy  -acodec copy -map 0 -ss 00:09:23 -to 00:10:00 outputFile.m2ts

.\ffmpeg.exe : ffmpeg version N-87257-g8e17cd2 Copyright (c) 2000-2017 the FFmpeg developers
At line:1 char:1
+ .\ffmpeg.exe -i .\00001.m2ts -vcodec copy  -acodec copy -map 0 -ss 00 ...
+ ~~~~~~~~~~~~~~~~~~~~~~~~~~~~~~~~~~~~~~~~~~~~~~~~~~~~~~~~~~~~~~~~~~~~~
    + CategoryInfo          : NotSpecified: (ffmpeg version ...mpeg developers:String) [], RemoteException
    + FullyQualifiedErrorId : NativeCommandError
 
  built with gcc 7.1.0 (GCC)
  configuration: --enable-gpl --enable-version3 --enable-cuda --enable-cuvid --enable-d3d11va --enable-dxva2 --enable-libmfx --enable-nvenc --enable-avisynth --enable-bzlib --enable-fontconfig --enable-frei0r --enable-gnutls --enable-iconv --enable-libass 
--enable-libbluray --enable-libbs2b --enable-libcaca --enable-libfreetype --enable-libgme --enable-libgsm --enable-libilbc --enable-libmodplug --enable-libmp3lame --enable-libopencore-amrnb --enable-libopencore-amrwb --enable-libopenh264 --enable-libopenjpeg 
--enable-libopus --enable-librtmp --enable-libsnappy --enable-libsoxr --enable-libspeex --enable-libtheora --enable-libtwolame --enable-libvidstab --enable-libvo-amrwbenc --enable-libvorbis --enable-libvpx --enable-libwavpack --enable-libwebp --enable-libx264 
--enable-libx265 --enable-libxavs --enable-libxvid --enable-libzimg --enable-lzma --enable-zlib
  libavutil      55. 74.100 / 55. 74.100
  libavcodec     57.105.100 / 57.105.100
  libavformat    57. 82.100 / 57. 82.100
  libavdevice    57.  8.100 / 57.  8.100

  libavfilter     6.105.100 /  6.105.100
  libswscale      4.  7.103 /  4.  7.103
  libswresample   2.  8.100 /  2.  8.100
  libpostproc    54.  6.100 / 54.  6.100

[mpegts @ 00000000026324a0] 
start time for stream 7 is not set in estimate_timings_from_pts
[mpegts @ 00000000026324a0] start time for stream 8 is not set in estimate_timings_from_pts
[mpegts @ 00000000026324a0] start time for stream 9 is not set in estimate_timings_from_pts
[mpegts @ 00000000026324a0] start time for stream 10 is not set in estimate_timings_from_pts
[mpegts @ 00000000026324a0] start time for stream 11 is not set in estimate_timings_from_pts

[mpegts @ 00000000026324a0] 
Could not find codec parameters for stream 7 (Subtitle: hdmv_pgs_subtitle ([144][0][0][0] / 0x0090)): unspecified size
Consider increasing the value for the 'analyzeduration' and 'probesize' options
[mpegts @ 00000000026324a0] Could not find codec parameters for stream 8 (Subtitle: hdmv_pgs_subtitle ([144][0][0][0] / 0x0090)): unspecified size
Consider increasing the value for the 'analyzeduration' and 'probesize' options
[mpegts @ 00000000026324a0] Could not find codec parameters for stream 9 (Subtitle: hdmv_pgs_subtitle ([144][0][0][0] / 0x0090)): unspecified size
Consider increasing the value for the 'analyzeduration' and 'probesize' options
[mpegts @ 00000000026324a0] Could not find codec parameters for stream 10 (Subtitle: hdmv_pgs_subtitle ([144][0][0][0] / 0x0090)): unspecified size
Consider increasing the value for the 'analyzeduration' and 'probesize' options
[mpegts @ 00000000026324a0] Could not find codec parameters for stream 11 (Subtitle: hdmv_pgs_subtitle ([144][0][0][0] / 0x0090)): unspecified size
Consider increasing the value for the 'analyzeduration' and 'probesize' options

Input #0, mpegts, from '.\00001.m2ts':

  Duration: 01:44:54.31, start: 11.642667, bitrate: 72514 kb/s
  Program 1 


    Stream #0:
0[0x1011]: Video: hevc (Main 10) (HDMV / 0x564D4448), yuv420p10le(tv, bt2020nc/bt2020/smpte2084), 3840x2160 [SAR 1:1 DAR 16:9], 
23.98 fps,
 23.98 tbr, 90k tbn, 23.98 tbc

    Stream #0:
1[0x1100]: Audio: truehd (AC-3 / 0x332D4341), 48000 Hz, 7.1, s32 (24 bit)

    Stream #0:
2[0x1100]: Audio: ac3 (AC-3 / 0x332D4341), 48000 Hz, 5.1(side), fltp, 640 kb/s
    Stream #0:3[0x1101]: Audio: ac3 (AC-3 / 0x332D4341), 48000 Hz, 5.1(side), fltp, 640 kb/s
    Stream #0:4[0x1102]: Audio: dts (DTS-HD MA) ([134][0][0][0] / 0x0086), 48000 Hz, 5.1(side), s16p

    Stream #0:5[0x1103]: Audio: ac3 (AC-3 / 0x332D4341), 48000 Hz, stereo, fltp, 192 kb/s


    Stream #0:
6[0x1104]: Audio: ac3 (AC-3 / 0x332D4341), 48000 Hz, 5.1(side), fltp, 640 kb/s

    Stream #0:
7[0x12a0]: Subtitle: hdmv_pgs_subtitle ([144][0][0][0] / 0x0090)

    Stream #0:8[0x12a1]: Subtitle: hdmv_pgs_subtitle ([144][0][0][0] / 0x0090)


    Stream #0:
9[0x12a2]: Subtitle: hdmv_pgs_subtitle ([144][0][0][0] / 0x0090)

    Stream #0:10
[0x12a3]: Subtitle: hdmv_pgs_subtitle ([144][0][0][0] / 0x0090)
    Stream #0:11[0x12a4]: Subtitle: hdmv_pgs_subtitle ([144][0][0][0] / 0x0090)

Automatic encoder selection failed for output stream #0:7. Default encoder for format mpegts (codec none) is probably disabled. Please choose an encoder manually.

Error selecting an encoder for stream 0:7

comment:3 Changed 5 weeks ago by cehoyos

  • Resolution set to invalid
  • Status changed from reopened to closed

Missing -scodec copy or -sn or -codec copy.
Please post all usage questions on the user mailing list.

comment:4 Changed 5 weeks ago by xamarin

Ok did it and now the process finishes, but the resulting file has unreadable subtitles, at least they are not shown on either VLC or SMPlayer.

Original file:

.\ffmpeg.exe : ffmpeg version N-87257-g8e17cd2 Copyright (c) 2000-2017 the FFmpeg developers
At line:1 char:1
+ .\ffmpeg.exe -i .\00001.m2ts
+ ~~~~~~~~~~~~~~~~~~~~~~~~~~~~~~~~~~~~~~~~~~~~~
    + CategoryInfo          : NotSpecified: (ffmpeg version ...mpeg developers:String) [], RemoteException
    + FullyQualifiedErrorId : NativeCommandError
 
  built with gcc 7.1.0 (GCC)

  configuration: --enable-gpl --enable-version3 --enable-cuda --enable-cuvid --enable-d3d11va --enable-dxva2 --enable-libmfx --enable-nvenc --enable-avisynth --enable-bzlib --enable-fontconfig --enable-frei0r --enable-gnutls --enable-iconv --enable-libass 
--enable-libbluray --enable-libbs2b --enable-libcaca --enable-libfreetype --enable-libgme --enable-libgsm --enable-libilbc --enable-libmodplug --enable-libmp3lame --enable-libopencore-amrnb --enable-libopencore-amrwb --enable-libopenh264 --enable-libopenjpeg 
--enable-libopus --enable-librtmp --enable-libsnappy --enable-libsoxr --enable-libspeex --enable-libtheora --enable-libtwolame --enable-libvidstab --enable-libvo-amrwbenc --enable-libvorbis --enable-libvpx --enable-libwavpack --enable-libwebp --enable-libx264 
--enable-libx265 --enable-libxavs --enable-libxvid --enable-libzimg --enable-lzma --enable-zlib

  libavutil      55. 74.100 / 55. 74.100

  libavcodec     57.105.100 / 57.105.100
  libavformat    57. 82.100 / 57. 82.100
  libavdevice    57.  8.100 / 57.  8.100
  libavfilter     6.105.100 /  6.105.100

  libswscale      4.  7.103 /  4.  7.103


  libswresample   2.  8.100 /  2.  8.100
  libpostproc    54.  6.100 / 54.  6.100

[mpegts @ 00000000007267c0] 
start time for stream 7 is not set in estimate_timings_from_pts
[mpegts @ 00000000007267c0] start time for stream 8 is not set in estimate_timings_from_pts
[mpegts @ 00000000007267c0] start time for stream 9 is not set in estimate_timings_from_pts
[mpegts @ 00000000007267c0] start time for stream 10 is not set in estimate_timings_from_pts
[mpegts @ 00000000007267c0] start time for stream 11 is not set in estimate_timings_from_pts

[mpegts @ 00000000007267c0] 
Could not find codec parameters for stream 7 (Subtitle: hdmv_pgs_subtitle ([144][0][0][0] / 0x0090)): unspecified size
Consider increasing the value for the 'analyzeduration' and 'probesize' options
[mpegts @ 00000000007267c0] Could not find codec parameters for stream 8 (Subtitle: hdmv_pgs_subtitle ([144][0][0][0] / 0x0090)): unspecified size
Consider increasing the value for the 'analyzeduration' and 'probesize' options
[mpegts @ 00000000007267c0] Could not find codec parameters for stream 9 (Subtitle: hdmv_pgs_subtitle ([144][0][0][0] / 0x0090)): unspecified size
Consider increasing the value for the 'analyzeduration' and 'probesize' options
[mpegts @ 00000000007267c0] Could not find codec parameters for stream 10 (Subtitle: hdmv_pgs_subtitle ([144][0][0][0] / 0x0090)): unspecified size
Consider increasing the value for the 'analyzeduration' and 'probesize' options
[mpegts @ 00000000007267c0] Could not find codec parameters for stream 11 (Subtitle: hdmv_pgs_subtitle ([144][0][0][0] / 0x0090)): unspecified size
Consider increasing the value for the 'analyzeduration' and 'probesize' options
Input #0, mpegts, from '.\00001.m2ts':
  Duration: 01:44:54.31, start: 11.642667, bitrate: 72514 kb/s
  Program 1 
    Stream #0:0[0x1011]: Video: hevc (Main 10) (HDMV / 0x564D4448), yuv420p10le(tv, bt2020nc/bt2020/smpte2084), 3840x2160 [SAR 1:1 DAR 16:9], 23.98 fps, 23.98 tbr, 90k tbn, 23.98 tbc
    Stream #0:1[0x1100]: Audio: truehd (AC-3 / 0x332D4341), 48000 Hz, 7.1, s32 (24 bit)
    Stream #0:2[0x1100]: Audio: ac3 (AC-3 / 0x332D4341), 48000 Hz, 5.1(side), fltp, 640 kb/s
    Stream #0:3[0x1101]: Audio: ac3 (AC-3 / 0x332D4341), 48000 Hz, 5.1(side), fltp, 640 kb/s
    Stream #0:4[0x1102]: Audio: dts (DTS-HD MA) ([134][0][0][0] / 0x0086), 48000 Hz, 5.1(side), s16p
    Stream #0:5[0x1103]: Audio: ac3 (AC-3 / 0x332D4341), 48000 Hz, stereo, fltp, 192 kb/s
    Stream #0:6[0x1104]: Audio: ac3 (AC-3 / 0x332D4341), 48000 Hz, 5.1(side), fltp, 640 kb/s
    Stream #0:7[0x12a0]: Subtitle: hdmv_pgs_subtitle ([144][0][0][0] / 0x0090)
    Stream #0:8[0x12a1]: Subtitle: hdmv_pgs_subtitle ([144][0][0][0] / 0x0090)
    Stream #0:9[0x12a2]: Subtitle: hdmv_pgs_subtitle ([144][0][0][0] / 0x0090)
    Stream #0:10[0x12a3]: Subtitle: hdmv_pgs_subtitle ([144][0][0][0] / 0x0090)
    Stream #0:11[0x12a4]: Subtitle: hdmv_pgs_subtitle ([144][0][0][0] / 0x0090)
At least one output file must be specified

Cut file:

.\ffmpeg.exe : ffmpeg version N-87257-g8e17cd2 Copyright (c) 2000-2017 the FFmpeg developers
At line:1 char:1
+ .\ffmpeg.exe -i .\outputFile.m2ts
+ ~~~~~~~~~~~~~~~~~~~~~~~~~~~~~~~~~~~~~~~~~~~~~~~~
    + CategoryInfo          : NotSpecified: (ffmpeg version ...mpeg developers:String) [], RemoteException
    + FullyQualifiedErrorId : NativeCommandError
 
  built with gcc 7.1.0 (GCC)
  configuration: --enable-gpl --enable-version3 --enable-cuda --enable-cuvid --enable-d3d11va --enable-dxva2 --enable-libmfx --enable-nvenc --enable-avisynth --enable-bzlib --enable-fontconfig --enable-frei0r --enable-gnutls --enable-iconv --enable-libass 
--enable-libbluray --enable-libbs2b --enable-libcaca --enable-libfreetype --enable-libgme --enable-libgsm --enable-libilbc --enable-libmodplug --enable-libmp3lame --enable-libopencore-amrnb --enable-libopencore-amrwb --enable-libopenh264 --enable-libopenjpeg 
--enable-libopus --enable-librtmp --enable-libsnappy --enable-libsoxr --enable-libspeex --enable-libtheora --enable-libtwolame --enable-libvidstab --enable-libvo-amrwbenc --enable-libvorbis --enable-libvpx --enable-libwavpack --enable-libwebp --enable-libx264 
--enable-libx265 --enable-libxavs --enable-libxvid --enable-libzimg --enable-lzma --enable-zlib
  libavutil      55. 74.100 / 55. 74.100

  libavcodec     57.105.100 / 57.105.100
  libavformat    57. 82.100 / 57. 82.100
  libavdevice    57.  8.100 / 57.  8.100
  libavfilter     6.105.100 /  6.105.100
  libswscale      4.  7.103 /  4.  7.103
  libswresample   2.  8.100 /  2.  8.100
  libpostproc    54.  6.100 / 54.  6.100

[mpegts @ 0000000000ff67c0] 
start time for stream 7 is not set in estimate_timings_from_pts
[mpegts @ 0000000000ff67c0] start time for stream 8 is not set in estimate_timings_from_pts
[mpegts @ 0000000000ff67c0] start time for stream 9 is not set in estimate_timings_from_pts
[mpegts @ 0000000000ff67c0] start time for stream 10 is not set in estimate_timings_from_pts
[mpegts @ 0000000000ff67c0] start time for stream 11 is not set in estimate_timings_from_pts

Input #0, mpegts, from '.\outputFile.m2ts':

  Duration: 00:00:50.02, start: 1.400000, bitrate: 42499 kb/s
  Program 1 
    Metadata:
      service_name    : Service01
      service_provider: FFmpeg

    Stream #0:
0[0x100]: Video: hevc (Main 10) ([36][0][0][0] / 0x0024), yuv420p10le(tv, bt2020nc/bt2020/smpte2084), 3840x2160 [SAR 1:1 DAR 16:9]
, 
23.98 fps,
 23.98 tbr, 
90k tbn,
 23.98 tbc


    Stream #0:
1[0x101]
: Audio: truehd ([131][0][0][0] / 0x0083), 48000 Hz, 7.1, s32 (24 bit)


    Stream #0:
2[0x102]
: Audio: ac3 ([129][0][0][0] / 0x0081), 48000 Hz, 5.1(side), fltp, 640 kb/
s

    Stream #0:
3[0x103]: Audio: ac3 ([129][0][0][0] / 0x0081), 48000 Hz, 5.1(side), fltp, 640 kb/s

    Stream #0:
4[0x104]: Audio: dts (DTS-HD MA) ([130][0][0][0] / 0x0082), 48000 Hz, 5.1(side), s16p

    Stream #0:
5[0x105]: Audio: ac3 ([129][0][0][0] / 0x0081), 48000 Hz, stereo, fltp, 192 kb/s

    Stream #0:
6[0x106]: Audio: ac3 ([129][0][0][0] / 0x0081), 48000 Hz, 5.1(side), fltp, 640 kb/s

    Stream #0:
7[0x107]: Data: bin_data ([6][0][0][0] / 0x0006)


    Stream #0:
8[0x108]: Data: bin_data ([6][0][0][0] / 0x0006)


    Stream #0:
9[0x109]: Data: bin_data ([6][0][0][0] / 0x0006)


    Stream #0:10
[0x10a]: Data: bin_data ([6][0][0][0] / 0x0006)

    Stream #0:11
[0x10b]: Data: bin_data ([6][0][0][0] / 0x0006)

At least one output file must be specified

comment:5 Changed 5 weeks ago by xamarin

  • Resolution invalid deleted
  • Status changed from closed to reopened

comment:6 Changed 5 weeks ago by cehoyos

  • Resolution set to invalid
  • Status changed from reopened to closed
Note: See TracTickets for help on using tickets.