Opened 4 months ago

#6624 new defect

HLS-TVstream stoped after few minutes(every time after clip changing)

Reported by: max79 Owned by:
Priority: normal Component: undetermined
Version: unspecified Keywords:
Cc: Blocked By:
Blocking: Reproduced by developer: no
Analyzed by developer: no

Description

Why this HLS-TVstream stoped after few minutes(every time after clip changing)?:
http://www.djing.com/tv/live.m3u8

Summary of the bug:
ffmpeg version 3.3.2 Copyright (c) 2000-2017 the FFmpeg developers

built with gcc 7.1.0 (GCC)
configuration: --enable-gpl --enable-version3 --enable-cuda --enable-cuvid --e

nable-d3d11va --enable-dxva2 --enable-libmfx --enable-nvenc --enable-avisynth --
enable-bzlib --enable-fontconfig --enable-frei0r --enable-gnutls --enable-iconv
--enable-libass --enable-libbluray --enable-libbs2b --enable-libcaca --enable-li
bfreetype --enable-libgme --enable-libgsm --enable-libilbc --enable-libmodplug -
-enable-libmp3lame --enable-libopencore-amrnb --enable-libopencore-amrwb --enabl
e-libopenh264 --enable-libopenjpeg --enable-libopus --enable-librtmp --enable-li
bsnappy --enable-libsoxr --enable-libspeex --enable-libtheora --enable-libtwolam
e --enable-libvidstab --enable-libvo-amrwbenc --enable-libvorbis --enable-libvpx

--enable-libwavpack --enable-libwebp --enable-libx264 --enable-libx265 --enable

-libxavs --enable-libxvid --enable-libzimg --enable-lzma --enable-zlib

libavutil 55. 58.100 / 55. 58.100
libavcodec 57. 89.100 / 57. 89.100
libavformat 57. 71.100 / 57. 71.100
libavdevice 57. 6.100 / 57. 6.100
libavfilter 6. 82.100 / 6. 82.100
libswscale 4. 6.100 / 4. 6.100
libswresample 2. 7.100 / 2. 7.100
libpostproc 54. 5.100 / 54. 5.100

[hls,applehttp @ 00000000005a2780] Opening 'http://www.djing.com/tv/27687-05.m3u
8' for reading
[hls,applehttp @ 00000000005a2780] Opening 'http://www.djing.com/tv/27687-03.m3u
8' for reading
[hls,applehttp @ 00000000005a2780] Opening 'http://www.djing.com/tv/27687-01.m3u
8' for reading
[hls,applehttp @ 00000000005a2780] Opening 'http://www.djing.com/tv/27687-02.m3u
8' for reading
[hls,applehttp @ 00000000005a2780] Opening 'http://www.djing.com/tv/27687-04.m3u
8' for reading
[hls,applehttp @ 00000000005a2780] Opening 'https://paris1.djing.com/tv/204286-P
att/05-5.ts' for reading
[hls,applehttp @ 00000000005a2780] Opening 'https://paris1.djing.com/tv/204286-P
att/03-5.ts' for reading
[hls,applehttp @ 00000000005a2780] Opening 'https://paris1.djing.com/tv/204286-P
att/01-5.ts' for reading
[hls,applehttp @ 00000000005a2780] Opening 'https://paris1.djing.com/tv/204286-P
att/02-5.ts' for reading
[hls,applehttp @ 00000000005a2780] Failed to open segment of playlist 3
[hls,applehttp @ 00000000005a2780] Opening 'https://paris1.djing.com/tv/204286-P
att/02-6.ts' for reading
[hls,applehttp @ 00000000005a2780] Opening 'https://paris1.djing.com/tv/204286-P
att/04-5.ts' for reading
[hls,applehttp @ 00000000005a2780] Failed to open segment of playlist 4
[hls,applehttp @ 00000000005a2780] Opening 'http://www.djing.com/tv/27687-04.m3u
8' for reading
[hls,applehttp @ 00000000005a2780] Opening 'https://paris1.djing.com/tv/204286-P
att/04-6.ts' for reading
[hls,applehttp @ 00000000005a2780] Failed to open segment of playlist 4
[hls,applehttp @ 00000000005a2780] Opening 'http://www.djing.com/tv/27687-04.m3u
8' for reading
[hls,applehttp @ 00000000005a2780] Opening 'https://paris1.djing.com/tv/204286-P
att/04-7.ts' for reading
[hls,applehttp @ 00000000005a2780] Failed to open segment of playlist 4
[hls,applehttp @ 00000000005a2780] Opening 'http://www.djing.com/tv/27687-04.m3u
8' for reading
[hls,applehttp @ 00000000005a2780] Opening 'https://paris1.djing.com/tv/204286-P
att/04-8.ts' for reading
[hls,applehttp @ 00000000005a2780] Could not find codec parameters for stream 6
(Audio: aac ([15][0][0][0] / 0x000F), 0 channels, fltp): unspecified sample rate

Consider increasing the value for the 'analyzeduration' and 'probesize' options
[hls,applehttp @ 00000000005a2780] Could not find codec parameters for stream 7
(Video: h264 ([27][0][0][0] / 0x001B), none): unspecified size
Consider increasing the value for the 'analyzeduration' and 'probesize' options
[hls,applehttp @ 00000000005a2780] Could not find codec parameters for stream 8
(Audio: aac ([15][0][0][0] / 0x000F), 0 channels, fltp): unspecified sample rate

Consider increasing the value for the 'analyzeduration' and 'probesize' options
[hls,applehttp @ 00000000005a2780] Could not find codec parameters for stream 9
(Video: h264 ([27][0][0][0] / 0x001B), none): unspecified size
Consider increasing the value for the 'analyzeduration' and 'probesize' options
Input #0, hls,applehttp, from 'http://www.djing.com/tv/live.m3u8':

Duration: N/A, start: 40.449378, bitrate: N/A
Program 0

Metadata:

variant_bitrate : 2750000

Stream #0:0: Audio: aac (HE-AAC) ([15][0][0][0] / 0x000F), 44100 Hz, stereo,

fltp

Metadata:

variant_bitrate : 2750000

Stream #0:1: Video: h264 (Main) ([27][0][0][0] / 0x001B), yuv420p, 1280x720,

25 fps, 25 tbr, 90k tbn, 50 tbc

Metadata:

variant_bitrate : 2750000

Program 1

Metadata:

variant_bitrate : 800000

Stream #0:2: Audio: aac (HE-AAC) ([15][0][0][0] / 0x000F), 44100 Hz, stereo,

fltp

Metadata:

variant_bitrate : 800000

Stream #0:3: Video: h264 (Constrained Baseline) ([27][0][0][0] / 0x001B), yu

v420p, 640x360, 25 fps, 25 tbr, 90k tbn, 50 tbc

Metadata:

variant_bitrate : 800000

Program 2

Metadata:

variant_bitrate : 270000

Stream #0:4: Audio: aac (HE-AAC) ([15][0][0][0] / 0x000F), 44100 Hz, stereo,

fltp

Metadata:

variant_bitrate : 270000

Stream #0:5: Video: h264 (Constrained Baseline) ([27][0][0][0] / 0x001B), yu

v420p, 320x180, 25 fps, 25 tbr, 90k tbn, 50 tbc

Metadata:

variant_bitrate : 270000

Program 3

Metadata:

variant_bitrate : 560000

Stream #0:6: Audio: aac ([15][0][0][0] / 0x000F), 0 channels, fltp
Metadata:

variant_bitrate : 560000

Stream #0:7: Video: h264 ([27][0][0][0] / 0x001B), none, 90k tbr, 90k tbn, 1

80k tbc

Metadata:

variant_bitrate : 560000

Program 4

Metadata:

variant_bitrate : 1800000

Stream #0:8: Audio: aac ([15][0][0][0] / 0x000F), 0 channels, fltp
Metadata:

variant_bitrate : 1800000

Stream #0:9: Video: h264 ([27][0][0][0] / 0x001B), none, 90k tbr, 90k tbn, 1

80k tbc

Metadata:

variant_bitrate : 1800000

At least one output file must be specified

Change History (0)

Note: See TracTickets for help on using tickets.