Opened 5 months ago

Closed 4 months ago

#6565 closed defect (needs_more_info)

Fail DVB teletext subtitles

Reported by: Eduard Owned by:
Priority: normal Component: avformat
Version: git-master Keywords: mpegts dvb_teletext
Cc: Blocked By:
Blocking: Reproduced by developer: no
Analyzed by developer: no

Description

Summary of the bug:

When trying broadcast prerecorded mpeg-ts file with dvb teletext subtitles there is an error "Conversion failed!"

ffmpeg started on 2017-08-03 at 14:20:22
Report written to "ffmpeg-20170803-142022.log"
Command line:
ffmpeg.exe -report -re -i tvc_udp.ts -c:v copy -c:a copy -c:s copy -streamid 0:4501 -streamid 1:4504 -streamid 2:4502 -flush_packets 0 -f mpegts -metadata "service_provider=Home.net" -metadata "service_name=TV Centr" "udp://224.0.0.1:1234?pkt_size=1316"
ffmpeg version N-86920-g1193301 Copyright (c) 2000-2017 the FFmpeg developers

built with gcc 7.1.0 (GCC)
configuration: --enable-gpl --enable-version3 --enable-cuda --enable-cuvid --enable-d3d11va --enable-dxva2 --enable-libmfx --enable-nvenc --enable-avisynth --enable-bzlib --enable-fontconfig --enable-frei0r --enable-gnutls --enable-iconv --enable-libass --enable-libbluray --enable-libbs2b --enable-libcaca --enable-libfreetype --enable-libgme --enable-libgsm --enable-libilbc --enable-libmodplug --enable-libmp3lame --enable-libopencore-amrnb --enable-libopencore-amrwb --enable-libopenh264 --enable-libopenjpeg --enable-libopus --enable-librtmp --enable-libsnappy --enable-libsoxr --enable-libspeex --enable-libtheora --enable-libtwolame --enable-libvidstab --enable-libvo-amrwbenc --enable-libvorbis --enable-libvpx --enable-libwavpack --enable-libwebp --enable-libx264 --enable-libx265 --enable-libxavs --enable-libxvid --enable-libzimg --enable-lzma --enable-zlib
libavutil 55. 69.100 / 55. 69.100
libavcodec 57.102.100 / 57.102.100
libavformat 57. 76.100 / 57. 76.100
libavdevice 57. 7.100 / 57. 7.100
libavfilter 6. 95.100 / 6. 95.100
libswscale 4. 7.101 / 4. 7.101
libswresample 2. 8.100 / 2. 8.100
libpostproc 54. 6.100 / 54. 6.100

Splitting the commandline.
Reading option '-report' ... matched as option 'report' (generate a report) with argument '1'.
Reading option '-re' ... matched as option 're' (read input at native frame rate) with argument '1'.
Reading option '-i' ... matched as input url with argument 'tvc_udp.ts'.
Reading option '-c:v' ... matched as option 'c' (codec name) with argument 'copy'.
Reading option '-c:a' ... matched as option 'c' (codec name) with argument 'copy'.
Reading option '-c:s' ... matched as option 'c' (codec name) with argument 'copy'.
Reading option '-streamid' ... matched as option 'streamid' (set the value of an outfile streamid) with argument '0:4501'.
Reading option '-streamid' ... matched as option 'streamid' (set the value of an outfile streamid) with argument '1:4504'.
Reading option '-streamid' ... matched as option 'streamid' (set the value of an outfile streamid) with argument '2:4502'.
Reading option '-flush_packets' ... matched as AVOption 'flush_packets' with argument '0'.
Reading option '-f' ... matched as option 'f' (force format) with argument 'mpegts'.
Reading option '-metadata' ... matched as option 'metadata' (add metadata) with argument 'service_provider=Home.net'.
Reading option '-metadata' ... matched as option 'metadata' (add metadata) with argument 'service_name=TV Centr'.
Reading option 'udp://224.0.0.1:1234?pkt_size=1316' ... matched as output url.
Finished splitting the commandline.
Parsing a group of options: global .
Applying option report (generate a report) with argument 1.
Successfully parsed a group of options.
Parsing a group of options: input url tvc_udp.ts.
Applying option re (read input at native frame rate) with argument 1.
Successfully parsed a group of options.
Opening an input file: tvc_udp.ts.
[NULL @ 0000000002633700] Opening 'tvc_udp.ts' for reading
[file @ 0000000002633e00] Setting default whitelist 'file,crypto'
[mpegts @ 0000000002633700] Format mpegts probed with size=2048 and score=50
[mpegts @ 0000000002633700] stream=0 stream_type=2 pid=1195 prog_reg_desc=
[mpegts @ 0000000002633700] stream=1 stream_type=3 pid=1198 prog_reg_desc=
[mpegts @ 0000000002633700] stream=2 stream_type=6 pid=1196 prog_reg_desc=
[mpegts @ 0000000002633700] Before avformat_find_stream_info() pos: 0 bytes read:32768 seeks:0 nb_streams:3
[mpegts @ 0000000002633700] parser not found for codec dvb_teletext, packets or times may be invalid.
[mpegts @ 0000000002633700] parser not found for codec dvb_teletext, packets or times may be invalid.
[mpegts @ 0000000002633700] Non-increasing DTS in stream 2: packet 44 with DTS 284400, packet 45 with DTS 237654
[mpegts @ 0000000002633700] Non-increasing DTS in stream 2: packet 45 with DTS 237654, packet 46 with DTS 237654
[mpegts @ 0000000002633700] Non-increasing DTS in stream 2: packet 47 with DTS 244854, packet 48 with DTS 244854
[mpegts @ 0000000002633700] Non-increasing DTS in stream 2: packet 49 with DTS 252054, packet 50 with DTS 252054
[mpegts @ 0000000002633700] Non-increasing DTS in stream 2: packet 51 with DTS 259254, packet 52 with DTS 259254
[mpegts @ 0000000002633700] Non-increasing DTS in stream 2: packet 53 with DTS 266454, packet 54 with DTS 266454
[mpegts @ 0000000002633700] Non-increasing DTS in stream 2: packet 55 with DTS 273654, packet 56 with DTS 273654
[mpegts @ 0000000002633700] Non-increasing DTS in stream 2: packet 57 with DTS 280854, packet 58 with DTS 280854
[mpegts @ 0000000002633700] Non-increasing DTS in stream 2: packet 59 with DTS 288054, packet 60 with DTS 288054
[mpegts @ 0000000002633700] Non-increasing DTS in stream 2: packet 61 with DTS 295254, packet 62 with DTS 295254
[mpegts @ 0000000002633700] Non-increasing DTS in stream 2: packet 63 with DTS 302454, packet 64 with DTS 302454
[mpegts @ 0000000002633700] Non-increasing DTS in stream 2: packet 65 with DTS 309654, packet 66 with DTS 309654
[mpegts @ 0000000002633700] Non-increasing DTS in stream 2: packet 67 with DTS 316854, packet 68 with DTS 316854
[mpegts @ 0000000002633700] Non-increasing DTS in stream 2: packet 69 with DTS 324054, packet 70 with DTS 324054
[mpegts @ 0000000002633700] Non-increasing DTS in stream 2: packet 71 with DTS 331254, packet 72 with DTS 331254
[mpegts @ 0000000002633700] Non-increasing DTS in stream 2: packet 73 with DTS 338454, packet 74 with DTS 338454
[mpegts @ 0000000002633700] Non-increasing DTS in stream 2: packet 75 with DTS 345654, packet 76 with DTS 345654
[mpegts @ 0000000002633700] Non-increasing DTS in stream 2: packet 77 with DTS 352854, packet 78 with DTS 352854
[mpegts @ 0000000002633700] Non-increasing DTS in stream 2: packet 79 with DTS 360054, packet 80 with DTS 360054
[mpegts @ 0000000002633700] Non-increasing DTS in stream 2: packet 81 with DTS 367254, packet 82 with DTS 367254
[mpegts @ 0000000002633700] Non-increasing DTS in stream 2: packet 83 with DTS 374454, packet 84 with DTS 374454
[mpegts @ 0000000002633700] Non-increasing DTS in stream 2: packet 85 with DTS 381654, packet 86 with DTS 381654
[mpegts @ 0000000002633700] Non-increasing DTS in stream 2: packet 87 with DTS 388854, packet 88 with DTS 388854
[mpegts @ 0000000002633700] Non-increasing DTS in stream 2: packet 89 with DTS 396054, packet 90 with DTS 396054
[mpegts @ 0000000002633700] Non-increasing DTS in stream 2: packet 91 with DTS 403254, packet 92 with DTS 403254
[mpegts @ 0000000002633700] Non-increasing DTS in stream 2: packet 93 with DTS 410454, packet 94 with DTS 410454
[mpegts @ 0000000002633700] Non-increasing DTS in stream 2: packet 95 with DTS 417654, packet 96 with DTS 417654
[mpegts @ 0000000002633700] Non-increasing DTS in stream 2: packet 97 with DTS 424854, packet 98 with DTS 424854
[mpegts @ 0000000002633700] Non-increasing DTS in stream 2: packet 99 with DTS 432054, packet 100 with DTS 432054
[mpegts @ 0000000002633700] Non-increasing DTS in stream 2: packet 101 with DTS 439254, packet 102 with DTS 439254
[mpegts @ 0000000002633700] Non-increasing DTS in stream 2: packet 103 with DTS 446454, packet 104 with DTS 446454
[mpegts @ 0000000002633700] Non-increasing DTS in stream 2: packet 105 with DTS 453654, packet 106 with DTS 453654
[mpegts @ 0000000002633700] Non-increasing DTS in stream 2: packet 107 with DTS 460854, packet 108 with DTS 460854
[mpegts @ 0000000002633700] Non-increasing DTS in stream 2: packet 109 with DTS 468054, packet 110 with DTS 468054
[mpegts @ 0000000002633700] Non-increasing DTS in stream 2: packet 111 with DTS 475254, packet 112 with DTS 475254
[mpegts @ 0000000002633700] Non-increasing DTS in stream 2: packet 113 with DTS 482454, packet 114 with DTS 482454
[mpegts @ 0000000002633700] Non-increasing DTS in stream 2: packet 115 with DTS 489654, packet 116 with DTS 489654
[mpegts @ 0000000002633700] Non-increasing DTS in stream 2: packet 117 with DTS 496854, packet 118 with DTS 496854
[mpegts @ 0000000002633700] Non-increasing DTS in stream 2: packet 119 with DTS 504054, packet 120 with DTS 504054
[mpegts @ 0000000002633700] Non-increasing DTS in stream 2: packet 121 with DTS 511254, packet 122 with DTS 511254
[mpegts @ 0000000002633700] Non-increasing DTS in stream 2: packet 123 with DTS 518454, packet 124 with DTS 518454
[mpegts @ 0000000002633700] Non-increasing DTS in stream 2: packet 125 with DTS 525654, packet 126 with DTS 525654
[mpegts @ 0000000002633700] Non-increasing DTS in stream 2: packet 127 with DTS 532854, packet 128 with DTS 532854
[mpegts @ 0000000002633700] Non-increasing DTS in stream 2: packet 129 with DTS 540054, packet 130 with DTS 540054
[mpegts @ 0000000002633700] Non-increasing DTS in stream 2: packet 131 with DTS 547254, packet 132 with DTS 547254
[mpegts @ 0000000002633700] max_analyze_duration 5000000 reached at 5016000 microseconds st:1
[mpegts @ 0000000002633700] After avformat_find_stream_info() pos: 0 bytes read:2674832 seeks:2 frames:430
Input #0, mpegts, from 'tvc_udp.ts':

Duration: 00:03:02.24, start: 1.400000, bitrate: 5919 kb/s
Program 1

Metadata:

service_name : TV Centr
service_provider: Home.net

Stream #0:0[0x1195], 86, 1/90000: Video: mpeg2video (Main) ([2][0][0][0] / 0x0002), yuv420p(tv, progressive), 720x576 [SAR 64:45 DAR 16:9], 25 fps, 25 tbr, 90k tbn, 50 tbc
Stream #0:1[0x1198](rus), 211, 1/90000: Audio: mp2 ([3][0][0][0] / 0x0003), 48000 Hz, stereo, s16p, 192 kb/s
Stream #0:2[0x1196](rus), 133, 1/90000: Subtitle: dvb_teletext ([6][0][0][0] / 0x0006)

Successfully opened the file.
Parsing a group of options: output url udp://224.0.0.1:1234?pkt_size=1316.
Applying option c:v (codec name) with argument copy.
Applying option c:a (codec name) with argument copy.
Applying option c:s (codec name) with argument copy.
Applying option streamid (set the value of an outfile streamid) with argument 0:4501.
Applying option streamid (set the value of an outfile streamid) with argument 1:4504.
Applying option streamid (set the value of an outfile streamid) with argument 2:4502.
Applying option f (force format) with argument mpegts.
Applying option metadata (add metadata) with argument service_provider=Home.net.
Applying option metadata (add metadata) with argument service_name=TV Centr.
Successfully parsed a group of options.
Opening an output file: udp://224.0.0.1:1234?pkt_size=1316.
[udp @ 0000000002663280] No default whitelist set
Successfully opened the file.
[mpegts @ 000000000019e880] muxrate VBR, pcr every 9000 pkts, sdt every 200, pat/pmt every 40 pkts
Output #0, mpegts, to 'udp://224.0.0.1:1234?pkt_size=1316':

Metadata:

service_provider: Home.net
service_name : TV Centr
encoder : Lavf57.76.100
Stream #0:0, 0, 1/90000: Video: mpeg2video (Main) ([2][0][0][0] / 0x0002), yuv420p(tv, progressive), 720x576 [SAR 64:45 DAR 16:9], q=2-31, 25 fps, 25 tbr, 90k tbn, 90k tbc
Stream #0:1(rus), 0, 1/90000: Audio: mp2 ([3][0][0][0] / 0x0003), 48000 Hz, stereo, s16p, 192 kb/s
Stream #0:2(rus), 0, 1/90000: Subtitle: dvb_teletext ([6][0][0][0] / 0x0006)

Stream mapping:

Stream #0:0 -> #0:0 (copy)
Stream #0:1 -> #0:1 (copy)
Stream #0:2 -> #0:2 (copy)

Press [q] to stop, ? for help
cur_dts is invalid (this is harmless if it occurs once at the start per stream)
cur_dts is invalid (this is harmless if it occurs once at the start per stream)
cur_dts is invalid (this is harmless if it occurs once at the start per stream)
cur_dts is invalid (this is harmless if it occurs once at the start per stream)
cur_dts is invalid (this is harmless if it occurs once at the start per stream)
cur_dts is invalid (this is harmless if it occurs once at the start per stream)
cur_dts is invalid (this is harmless if it occurs once at the start per stream)
cur_dts is invalid (this is harmless if it occurs once at the start per stream)
cur_dts is invalid (this is harmless if it occurs once at the start per stream)
cur_dts is invalid (this is harmless if it occurs once at the start per stream)
cur_dts is invalid (this is harmless if it occurs once at the start per stream)
cur_dts is invalid (this is harmless if it occurs once at the start per stream)
cur_dts is invalid (this is harmless if it occurs once at the start per stream)
cur_dts is invalid (this is harmless if it occurs once at the start per stream)
cur_dts is invalid (this is harmless if it occurs once at the start per stream)
cur_dts is invalid (this is harmless if it occurs once at the start per stream)
cur_dts is invalid (this is harmless if it occurs once at the start per stream)
cur_dts is invalid (this is harmless if it occurs once at the start per stream)
cur_dts is invalid (this is harmless if it occurs once at the start per stream)
cur_dts is invalid (this is harmless if it occurs once at the start per stream)
cur_dts is invalid (this is harmless if it occurs once at the start per stream)
cur_dts is invalid (this is harmless if it occurs once at the start per stream)
cur_dts is invalid (this is harmless if it occurs once at the start per stream)
cur_dts is invalid (this is harmless if it occurs once at the start per stream)
cur_dts is invalid (this is harmless if it occurs once at the start per stream)
cur_dts is invalid (this is harmless if it occurs once at the start per stream)
cur_dts is invalid (this is harmless if it occurs once at the start per stream)
cur_dts is invalid (this is harmless if it occurs once at the start per stream)
cur_dts is invalid (this is harmless if it occurs once at the start per stream)
cur_dts is invalid (this is harmless if it occurs once at the start per stream)
cur_dts is invalid (this is harmless if it occurs once at the start per stream)
cur_dts is invalid (this is harmless if it occurs once at the start per stream)
cur_dts is invalid (this is harmless if it occurs once at the start per stream)
cur_dts is invalid (this is harmless if it occurs once at the start per stream)
cur_dts is invalid (this is harmless if it occurs once at the start per stream)
cur_dts is invalid (this is harmless if it occurs once at the start per stream)
cur_dts is invalid (this is harmless if it occurs once at the start per stream)
cur_dts is invalid (this is harmless if it occurs once at the start per stream)
cur_dts is invalid (this is harmless if it occurs once at the start per stream)
cur_dts is invalid (this is harmless if it occurs once at the start per stream)
cur_dts is invalid (this is harmless if it occurs once at the start per stream)
cur_dts is invalid (this is harmless if it occurs once at the start per stream)
cur_dts is invalid (this is harmless if it occurs once at the start per stream)
cur_dts is invalid (this is harmless if it occurs once at the start per stream)
cur_dts is invalid (this is harmless if it occurs once at the start per stream)
cur_dts is invalid (this is harmless if it occurs once at the start per stream)
cur_dts is invalid (this is harmless if it occurs once at the start per stream)
cur_dts is invalid (this is harmless if it occurs once at the start per stream)
cur_dts is invalid (this is harmless if it occurs once at the start per stream)
cur_dts is invalid (this is harmless if it occurs once at the start per stream)
cur_dts is invalid (this is harmless if it occurs once at the start per stream)
cur_dts is invalid (this is harmless if it occurs once at the start per stream)
cur_dts is invalid (this is harmless if it occurs once at the start per stream)
cur_dts is invalid (this is harmless if it occurs once at the start per stream)
cur_dts is invalid (this is harmless if it occurs once at the start per stream)
cur_dts is invalid (this is harmless if it occurs once at the start per stream)
cur_dts is invalid (this is harmless if it occurs once at the start per stream)
cur_dts is invalid (this is harmless if it occurs once at the start per stream)
cur_dts is invalid (this is harmless if it occurs once at the start per stream)
cur_dts is invalid (this is harmless if it occurs once at the start per stream)
cur_dts is invalid (this is harmless if it occurs once at the start per stream)
cur_dts is invalid (this is harmless if it occurs once at the start per stream)
cur_dts is invalid (this is harmless if it occurs once at the start per stream)
cur_dts is invalid (this is harmless if it occurs once at the start per stream)
cur_dts is invalid (this is harmless if it occurs once at the start per stream)
cur_dts is invalid (this is harmless if it occurs once at the start per stream)
cur_dts is invalid (this is harmless if it occurs once at the start per stream)
cur_dts is invalid (this is harmless if it occurs once at the start per stream)
cur_dts is invalid (this is harmless if it occurs once at the start per stream)
cur_dts is invalid (this is harmless if it occurs once at the start per stream)
cur_dts is invalid (this is harmless if it occurs once at the start per stream)
cur_dts is invalid (this is harmless if it occurs once at the start per stream)
cur_dts is invalid (this is harmless if it occurs once at the start per stream)
cur_dts is invalid (this is harmless if it occurs once at the start per stream)
cur_dts is invalid (this is harmless if it occurs once at the start per stream)
cur_dts is invalid (this is harmless if it occurs once at the start per stream)
cur_dts is invalid (this is harmless if it occurs once at the start per stream)
cur_dts is invalid (this is harmless if it occurs once at the start per stream)
cur_dts is invalid (this is harmless if it occurs once at the start per stream)
cur_dts is invalid (this is harmless if it occurs once at the start per stream)
cur_dts is invalid (this is harmless if it occurs once at the start per stream)
cur_dts is invalid (this is harmless if it occurs once at the start per stream)
cur_dts is invalid (this is harmless if it occurs once at the start per stream)
cur_dts is invalid (this is harmless if it occurs once at the start per stream)
cur_dts is invalid (this is harmless if it occurs once at the start per stream)
cur_dts is invalid (this is harmless if it occurs once at the start per stream)
cur_dts is invalid (this is harmless if it occurs once at the start per stream)
cur_dts is invalid (this is harmless if it occurs once at the start per stream)
cur_dts is invalid (this is harmless if it occurs once at the start per stream)
cur_dts is invalid (this is harmless if it occurs once at the start per stream)
cur_dts is invalid (this is harmless if it occurs once at the start per stream)
cur_dts is invalid (this is harmless if it occurs once at the start per stream)
cur_dts is invalid (this is harmless if it occurs once at the start per stream)
cur_dts is invalid (this is harmless if it occurs once at the start per stream)
cur_dts is invalid (this is harmless if it occurs once at the start per stream)
cur_dts is invalid (this is harmless if it occurs once at the start per stream)
cur_dts is invalid (this is harmless if it occurs once at the start per stream)
cur_dts is invalid (this is harmless if it occurs once at the start per stream)
cur_dts is invalid (this is harmless if it occurs once at the start per stream)
cur_dts is invalid (this is harmless if it occurs once at the start per stream)
cur_dts is invalid (this is harmless if it occurs once at the start per stream)
cur_dts is invalid (this is harmless if it occurs once at the start per stream)
cur_dts is invalid (this is harmless if it occurs once at the start per stream)
cur_dts is invalid (this is harmless if it occurs once at the start per stream)
cur_dts is invalid (this is harmless if it occurs once at the start per stream)
cur_dts is invalid (this is harmless if it occurs once at the start per stream)
cur_dts is invalid (this is harmless if it occurs once at the start per stream)
cur_dts is invalid (this is harmless if it occurs once at the start per stream)
cur_dts is invalid (this is harmless if it occurs once at the start per stream)
cur_dts is invalid (this is harmless if it occurs once at the start per stream)
cur_dts is invalid (this is harmless if it occurs once at the start per stream)
cur_dts is invalid (this is harmless if it occurs once at the start per stream)
cur_dts is invalid (this is harmless if it occurs once at the start per stream)
cur_dts is invalid (this is harmless if it occurs once at the start per stream)
cur_dts is invalid (this is harmless if it occurs once at the start per stream)
cur_dts is invalid (this is harmless if it occurs once at the start per stream)
cur_dts is invalid (this is harmless if it occurs once at the start per stream)
cur_dts is invalid (this is harmless if it occurs once at the start per stream)
cur_dts is invalid (this is harmless if it occurs once at the start per stream)
cur_dts is invalid (this is harmless if it occurs once at the start per stream)
cur_dts is invalid (this is harmless if it occurs once at the start per stream)
cur_dts is invalid (this is harmless if it occurs once at the start per stream)
cur_dts is invalid (this is harmless if it occurs once at the start per stream)
cur_dts is invalid (this is harmless if it occurs once at the start per stream)
cur_dts is invalid (this is harmless if it occurs once at the start per stream)
cur_dts is invalid (this is harmless if it occurs once at the start per stream)
cur_dts is invalid (this is harmless if it occurs once at the start per stream)
cur_dts is invalid (this is harmless if it occurs once at the start per stream)
cur_dts is invalid (this is harmless if it occurs once at the start per stream)
cur_dts is invalid (this is harmless if it occurs once at the start per stream)
cur_dts is invalid (this is harmless if it occurs once at the start per stream)
cur_dts is invalid (this is harmless if it occurs once at the start per stream)
cur_dts is invalid (this is harmless if it occurs once at the start per stream)
cur_dts is invalid (this is harmless if it occurs once at the start per stream)
cur_dts is invalid (this is harmless if it occurs once at the start per stream)
cur_dts is invalid (this is harmless if it occurs once at the start per stream)
cur_dts is invalid (this is harmless if it occurs once at the start per stream)
cur_dts is invalid (this is harmless if it occurs once at the start per stream)
cur_dts is invalid (this is harmless if it occurs once at the start per stream)
cur_dts is invalid (this is harmless if it occurs once at the start per stream)
cur_dts is invalid (this is harmless if it occurs once at the start per stream)
cur_dts is invalid (this is harmless if it occurs once at the start per stream)
cur_dts is invalid (this is harmless if it occurs once at the start per stream)
cur_dts is invalid (this is harmless if it occurs once at the start per stream)
cur_dts is invalid (this is harmless if it occurs once at the start per stream)
cur_dts is invalid (this is harmless if it occurs once at the start per stream)
cur_dts is invalid (this is harmless if it occurs once at the start per stream)
cur_dts is invalid (this is harmless if it occurs once at the start per stream)
cur_dts is invalid (this is harmless if it occurs once at the start per stream)
cur_dts is invalid (this is harmless if it occurs once at the start per stream)
cur_dts is invalid (this is harmless if it occurs once at the start per stream)
cur_dts is invalid (this is harmless if it occurs once at the start per stream)
cur_dts is invalid (this is harmless if it occurs once at the start per stream)
cur_dts is invalid (this is harmless if it occurs once at the start per stream)
cur_dts is invalid (this is harmless if it occurs once at the start per stream)
cur_dts is invalid (this is harmless if it occurs once at the start per stream)
cur_dts is invalid (this is harmless if it occurs once at the start per stream)
cur_dts is invalid (this is harmless if it occurs once at the start per stream)
cur_dts is invalid (this is harmless if it occurs once at the start per stream)
cur_dts is invalid (this is harmless if it occurs once at the start per stream)
cur_dts is invalid (this is harmless if it occurs once at the start per stream)
cur_dts is invalid (this is harmless if it occurs once at the start per stream)
cur_dts is invalid (this is harmless if it occurs once at the start per stream)
cur_dts is invalid (this is harmless if it occurs once at the start per stream)
cur_dts is invalid (this is harmless if it occurs once at the start per stream)
cur_dts is invalid (this is harmless if it occurs once at the start per stream)
cur_dts is invalid (this is harmless if it occurs once at the start per stream)
cur_dts is invalid (this is harmless if it occurs once at the start per stream)
cur_dts is invalid (this is harmless if it occurs once at the start per stream)
cur_dts is invalid (this is harmless if it occurs once at the start per stream)
cur_dts is invalid (this is harmless if it occurs once at the start per stream)
cur_dts is invalid (this is harmless if it occurs once at the start per stream)
cur_dts is invalid (this is harmless if it occurs once at the start per stream)
cur_dts is invalid (this is harmless if it occurs once at the start per stream)
cur_dts is invalid (this is harmless if it occurs once at the start per stream)
cur_dts is invalid (this is harmless if it occurs once at the start per stream)
cur_dts is invalid (this is harmless if it occurs once at the start per stream)
frame= 0 fps=0.0 q=-1.0 size= 0kB time=00:00:00.52 bitrate= 0.0kbits/s speed=1.04x
cur_dts is invalid (this is harmless if it occurs once at the start per stream)
cur_dts is invalid (this is harmless if it occurs once at the start per stream)
cur_dts is invalid (this is harmless if it occurs once at the start per stream)
cur_dts is invalid (this is harmless if it occurs once at the start per stream)
cur_dts is invalid (this is harmless if it occurs once at the start per stream)
cur_dts is invalid (this is harmless if it occurs once at the start per stream)
cur_dts is invalid (this is harmless if it occurs once at the start per stream)
cur_dts is invalid (this is harmless if it occurs once at the start per stream)
cur_dts is invalid (this is harmless if it occurs once at the start per stream)
cur_dts is invalid (this is harmless if it occurs once at the start per stream)
cur_dts is invalid (this is harmless if it occurs once at the start per stream)
cur_dts is invalid (this is harmless if it occurs once at the start per stream)
cur_dts is invalid (this is harmless if it occurs once at the start per stream)
cur_dts is invalid (this is harmless if it occurs once at the start per stream)
cur_dts is invalid (this is harmless if it occurs once at the start per stream)
cur_dts is invalid (this is harmless if it occurs once at the start per stream)
cur_dts is invalid (this is harmless if it occurs once at the start per stream)
cur_dts is invalid (this is harmless if it occurs once at the start per stream)
cur_dts is invalid (this is harmless if it occurs once at the start per stream)
cur_dts is invalid (this is harmless if it occurs once at the start per stream)
cur_dts is invalid (this is harmless if it occurs once at the start per stream)
cur_dts is invalid (this is harmless if it occurs once at the start per stream)
cur_dts is invalid (this is harmless if it occurs once at the start per stream)
cur_dts is invalid (this is harmless if it occurs once at the start per stream)
cur_dts is invalid (this is harmless if it occurs once at the start per stream)
cur_dts is invalid (this is harmless if it occurs once at the start per stream)
cur_dts is invalid (this is harmless if it occurs once at the start per stream)
cur_dts is invalid (this is harmless if it occurs once at the start per stream)
cur_dts is invalid (this is harmless if it occurs once at the start per stream)
cur_dts is invalid (this is harmless if it occurs once at the start per stream)
cur_dts is invalid (this is harmless if it occurs once at the start per stream)
cur_dts is invalid (this is harmless if it occurs once at the start per stream)
cur_dts is invalid (this is harmless if it occurs once at the start per stream)
cur_dts is invalid (this is harmless if it occurs once at the start per stream)
cur_dts is invalid (this is harmless if it occurs once at the start per stream)
cur_dts is invalid (this is harmless if it occurs once at the start per stream)
cur_dts is invalid (this is harmless if it occurs once at the start per stream)
cur_dts is invalid (this is harmless if it occurs once at the start per stream)
cur_dts is invalid (this is harmless if it occurs once at the start per stream)
cur_dts is invalid (this is harmless if it occurs once at the start per stream)
cur_dts is invalid (this is harmless if it occurs once at the start per stream)
cur_dts is invalid (this is harmless if it occurs once at the start per stream)
cur_dts is invalid (this is harmless if it occurs once at the start per stream)
cur_dts is invalid (this is harmless if it occurs once at the start per stream)
cur_dts is invalid (this is harmless if it occurs once at the start per stream)
cur_dts is invalid (this is harmless if it occurs once at the start per stream)
cur_dts is invalid (this is harmless if it occurs once at the start per stream)
cur_dts is invalid (this is harmless if it occurs once at the start per stream)
cur_dts is invalid (this is harmless if it occurs once at the start per stream)
cur_dts is invalid (this is harmless if it occurs once at the start per stream)
cur_dts is invalid (this is harmless if it occurs once at the start per stream)
cur_dts is invalid (this is harmless if it occurs once at the start per stream)
cur_dts is invalid (this is harmless if it occurs once at the start per stream)
cur_dts is invalid (this is harmless if it occurs once at the start per stream)
cur_dts is invalid (this is harmless if it occurs once at the start per stream)
cur_dts is invalid (this is harmless if it occurs once at the start per stream)
cur_dts is invalid (this is harmless if it occurs once at the start per stream)
cur_dts is invalid (this is harmless if it occurs once at the start per stream)
cur_dts is invalid (this is harmless if it occurs once at the start per stream)
cur_dts is invalid (this is harmless if it occurs once at the start per stream)
cur_dts is invalid (this is harmless if it occurs once at the start per stream)
cur_dts is invalid (this is harmless if it occurs once at the start per stream)
cur_dts is invalid (this is harmless if it occurs once at the start per stream)
cur_dts is invalid (this is harmless if it occurs once at the start per stream)
cur_dts is invalid (this is harmless if it occurs once at the start per stream)
cur_dts is invalid (this is harmless if it occurs once at the start per stream)
cur_dts is invalid (this is harmless if it occurs once at the start per stream)
cur_dts is invalid (this is harmless if it occurs once at the start per stream)
cur_dts is invalid (this is harmless if it occurs once at the start per stream)
cur_dts is invalid (this is harmless if it occurs once at the start per stream)
cur_dts is invalid (this is harmless if it occurs once at the start per stream)
cur_dts is invalid (this is harmless if it occurs once at the start per stream)
cur_dts is invalid (this is harmless if it occurs once at the start per stream)
cur_dts is invalid (this is harmless if it occurs once at the start per stream)
cur_dts is invalid (this is harmless if it occurs once at the start per stream)
cur_dts is invalid (this is harmless if it occurs once at the start per stream)
cur_dts is invalid (this is harmless if it occurs once at the start per stream)
cur_dts is invalid (this is harmless if it occurs once at the start per stream)
cur_dts is invalid (this is harmless if it occurs once at the start per stream)
cur_dts is invalid (this is harmless if it occurs once at the start per stream)
cur_dts is invalid (this is harmless if it occurs once at the start per stream)
cur_dts is invalid (this is harmless if it occurs once at the start per stream)
cur_dts is invalid (this is harmless if it occurs once at the start per stream)
cur_dts is invalid (this is harmless if it occurs once at the start per stream)
cur_dts is invalid (this is harmless if it occurs once at the start per stream)
cur_dts is invalid (this is harmless if it occurs once at the start per stream)
cur_dts is invalid (this is harmless if it occurs once at the start per stream)
cur_dts is invalid (this is harmless if it occurs once at the start per stream)
cur_dts is invalid (this is harmless if it occurs once at the start per stream)
cur_dts is invalid (this is harmless if it occurs once at the start per stream)
cur_dts is invalid (this is harmless if it occurs once at the start per stream)
cur_dts is invalid (this is harmless if it occurs once at the start per stream)
cur_dts is invalid (this is harmless if it occurs once at the start per stream)
cur_dts is invalid (this is harmless if it occurs once at the start per stream)
cur_dts is invalid (this is harmless if it occurs once at the start per stream)
cur_dts is invalid (this is harmless if it occurs once at the start per stream)
cur_dts is invalid (this is harmless if it occurs once at the start per stream)
cur_dts is invalid (this is harmless if it occurs once at the start per stream)
cur_dts is invalid (this is harmless if it occurs once at the start per stream)
cur_dts is invalid (this is harmless if it occurs once at the start per stream)
cur_dts is invalid (this is harmless if it occurs once at the start per stream)
cur_dts is invalid (this is harmless if it occurs once at the start per stream)
cur_dts is invalid (this is harmless if it occurs once at the start per stream)
cur_dts is invalid (this is harmless if it occurs once at the start per stream)
cur_dts is invalid (this is harmless if it occurs once at the start per stream)
cur_dts is invalid (this is harmless if it occurs once at the start per stream)
cur_dts is invalid (this is harmless if it occurs once at the start per stream)
cur_dts is invalid (this is harmless if it occurs once at the start per stream)
cur_dts is invalid (this is harmless if it occurs once at the start per stream)
cur_dts is invalid (this is harmless if it occurs once at the start per stream)
cur_dts is invalid (this is harmless if it occurs once at the start per stream)
cur_dts is invalid (this is harmless if it occurs once at the start per stream)
cur_dts is invalid (this is harmless if it occurs once at the start per stream)
cur_dts is invalid (this is harmless if it occurs once at the start per stream)
cur_dts is invalid (this is harmless if it occurs once at the start per stream)
cur_dts is invalid (this is harmless if it occurs once at the start per stream)
cur_dts is invalid (this is harmless if it occurs once at the start per stream)
cur_dts is invalid (this is harmless if it occurs once at the start per stream)
cur_dts is invalid (this is harmless if it occurs once at the start per stream)
cur_dts is invalid (this is harmless if it occurs once at the start per stream)
cur_dts is invalid (this is harmless if it occurs once at the start per stream)
cur_dts is invalid (this is harmless if it occurs once at the start per stream)
cur_dts is invalid (this is harmless if it occurs once at the start per stream)
cur_dts is invalid (this is harmless if it occurs once at the start per stream)
cur_dts is invalid (this is harmless if it occurs once at the start per stream)
cur_dts is invalid (this is harmless if it occurs once at the start per stream)
cur_dts is invalid (this is harmless if it occurs once at the start per stream)
cur_dts is invalid (this is harmless if it occurs once at the start per stream)
cur_dts is invalid (this is harmless if it occurs once at the start per stream)
frame= 0 fps=0.0 q=-1.0 size= 0kB time=00:00:01.04 bitrate= 0.0kbits/s speed=1.03x
cur_dts is invalid (this is harmless if it occurs once at the start per stream)
cur_dts is invalid (this is harmless if it occurs once at the start per stream)
cur_dts is invalid (this is harmless if it occurs once at the start per stream)
cur_dts is invalid (this is harmless if it occurs once at the start per stream)
cur_dts is invalid (this is harmless if it occurs once at the start per stream)
cur_dts is invalid (this is harmless if it occurs once at the start per stream)
cur_dts is invalid (this is harmless if it occurs once at the start per stream)
cur_dts is invalid (this is harmless if it occurs once at the start per stream)
cur_dts is invalid (this is harmless if it occurs once at the start per stream)
cur_dts is invalid (this is harmless if it occurs once at the start per stream)
cur_dts is invalid (this is harmless if it occurs once at the start per stream)
cur_dts is invalid (this is harmless if it occurs once at the start per stream)
cur_dts is invalid (this is harmless if it occurs once at the start per stream)
cur_dts is invalid (this is harmless if it occurs once at the start per stream)
cur_dts is invalid (this is harmless if it occurs once at the start per stream)
cur_dts is invalid (this is harmless if it occurs once at the start per stream)
cur_dts is invalid (this is harmless if it occurs once at the start per stream)
cur_dts is invalid (this is harmless if it occurs once at the start per stream)
cur_dts is invalid (this is harmless if it occurs once at the start per stream)
cur_dts is invalid (this is harmless if it occurs once at the start per stream)
cur_dts is invalid (this is harmless if it occurs once at the start per stream)
cur_dts is invalid (this is harmless if it occurs once at the start per stream)
cur_dts is invalid (this is harmless if it occurs once at the start per stream)
cur_dts is invalid (this is harmless if it occurs once at the start per stream)
cur_dts is invalid (this is harmless if it occurs once at the start per stream)
cur_dts is invalid (this is harmless if it occurs once at the start per stream)
cur_dts is invalid (this is harmless if it occurs once at the start per stream)
cur_dts is invalid (this is harmless if it occurs once at the start per stream)
cur_dts is invalid (this is harmless if it occurs once at the start per stream)
cur_dts is invalid (this is harmless if it occurs once at the start per stream)
cur_dts is invalid (this is harmless if it occurs once at the start per stream)
cur_dts is invalid (this is harmless if it occurs once at the start per stream)
cur_dts is invalid (this is harmless if it occurs once at the start per stream)
cur_dts is invalid (this is harmless if it occurs once at the start per stream)
cur_dts is invalid (this is harmless if it occurs once at the start per stream)
cur_dts is invalid (this is harmless if it occurs once at the start per stream)
cur_dts is invalid (this is harmless if it occurs once at the start per stream)
cur_dts is invalid (this is harmless if it occurs once at the start per stream)
cur_dts is invalid (this is harmless if it occurs once at the start per stream)
cur_dts is invalid (this is harmless if it occurs once at the start per stream)
cur_dts is invalid (this is harmless if it occurs once at the start per stream)
cur_dts is invalid (this is harmless if it occurs once at the start per stream)
cur_dts is invalid (this is harmless if it occurs once at the start per stream)
cur_dts is invalid (this is harmless if it occurs once at the start per stream)
cur_dts is invalid (this is harmless if it occurs once at the start per stream)
cur_dts is invalid (this is harmless if it occurs once at the start per stream)
cur_dts is invalid (this is harmless if it occurs once at the start per stream)
cur_dts is invalid (this is harmless if it occurs once at the start per stream)
cur_dts is invalid (this is harmless if it occurs once at the start per stream)
cur_dts is invalid (this is harmless if it occurs once at the start per stream)
cur_dts is invalid (this is harmless if it occurs once at the start per stream)
cur_dts is invalid (this is harmless if it occurs once at the start per stream)
cur_dts is invalid (this is harmless if it occurs once at the start per stream)
cur_dts is invalid (this is harmless if it occurs once at the start per stream)
cur_dts is invalid (this is harmless if it occurs once at the start per stream)
cur_dts is invalid (this is harmless if it occurs once at the start per stream)
cur_dts is invalid (this is harmless if it occurs once at the start per stream)
cur_dts is invalid (this is harmless if it occurs once at the start per stream)
cur_dts is invalid (this is harmless if it occurs once at the start per stream)
cur_dts is invalid (this is harmless if it occurs once at the start per stream)
cur_dts is invalid (this is harmless if it occurs once at the start per stream)
cur_dts is invalid (this is harmless if it occurs once at the start per stream)
cur_dts is invalid (this is harmless if it occurs once at the start per stream)
cur_dts is invalid (this is harmless if it occurs once at the start per stream)
cur_dts is invalid (this is harmless if it occurs once at the start per stream)
cur_dts is invalid (this is harmless if it occurs once at the start per stream)
cur_dts is invalid (this is harmless if it occurs once at the start per stream)
cur_dts is invalid (this is harmless if it occurs once at the start per stream)
cur_dts is invalid (this is harmless if it occurs once at the start per stream)
cur_dts is invalid (this is harmless if it occurs once at the start per stream)
cur_dts is invalid (this is harmless if it occurs once at the start per stream)
cur_dts is invalid (this is harmless if it occurs once at the start per stream)
cur_dts is invalid (this is harmless if it occurs once at the start per stream)
cur_dts is invalid (this is harmless if it occurs once at the start per stream)
cur_dts is invalid (this is harmless if it occurs once at the start per stream)
cur_dts is invalid (this is harmless if it occurs once at the start per stream)
cur_dts is invalid (this is harmless if it occurs once at the start per stream)
cur_dts is invalid (this is harmless if it occurs once at the start per stream)
cur_dts is invalid (this is harmless if it occurs once at the start per stream)
cur_dts is invalid (this is harmless if it occurs once at the start per stream)
cur_dts is invalid (this is harmless if it occurs once at the start per stream)
cur_dts is invalid (this is harmless if it occurs once at the start per stream)
cur_dts is invalid (this is harmless if it occurs once at the start per stream)
cur_dts is invalid (this is harmless if it occurs once at the start per stream)
cur_dts is invalid (this is harmless if it occurs once at the start per stream)
cur_dts is invalid (this is harmless if it occurs once at the start per stream)
cur_dts is invalid (this is harmless if it occurs once at the start per stream)
cur_dts is invalid (this is harmless if it occurs once at the start per stream)
cur_dts is invalid (this is harmless if it occurs once at the start per stream)
cur_dts is invalid (this is harmless if it occurs once at the start per stream)
cur_dts is invalid (this is harmless if it occurs once at the start per stream)
cur_dts is invalid (this is harmless if it occurs once at the start per stream)
cur_dts is invalid (this is harmless if it occurs once at the start per stream)
cur_dts is invalid (this is harmless if it occurs once at the start per stream)
cur_dts is invalid (this is harmless if it occurs once at the start per stream)
cur_dts is invalid (this is harmless if it occurs once at the start per stream)
cur_dts is invalid (this is harmless if it occurs once at the start per stream)
cur_dts is invalid (this is harmless if it occurs once at the start per stream)
cur_dts is invalid (this is harmless if it occurs once at the start per stream)
cur_dts is invalid (this is harmless if it occurs once at the start per stream)
cur_dts is invalid (this is harmless if it occurs once at the start per stream)
cur_dts is invalid (this is harmless if it occurs once at the start per stream)
cur_dts is invalid (this is harmless if it occurs once at the start per stream)
cur_dts is invalid (this is harmless if it occurs once at the start per stream)
cur_dts is invalid (this is harmless if it occurs once at the start per stream)
cur_dts is invalid (this is harmless if it occurs once at the start per stream)
cur_dts is invalid (this is harmless if it occurs once at the start per stream)
cur_dts is invalid (this is harmless if it occurs once at the start per stream)
cur_dts is invalid (this is harmless if it occurs once at the start per stream)
cur_dts is invalid (this is harmless if it occurs once at the start per stream)
cur_dts is invalid (this is harmless if it occurs once at the start per stream)
cur_dts is invalid (this is harmless if it occurs once at the start per stream)
cur_dts is invalid (this is harmless if it occurs once at the start per stream)
cur_dts is invalid (this is harmless if it occurs once at the start per stream)
cur_dts is invalid (this is harmless if it occurs once at the start per stream)
cur_dts is invalid (this is harmless if it occurs once at the start per stream)
cur_dts is invalid (this is harmless if it occurs once at the start per stream)
cur_dts is invalid (this is harmless if it occurs once at the start per stream)
cur_dts is invalid (this is harmless if it occurs once at the start per stream)
cur_dts is invalid (this is harmless if it occurs once at the start per stream)
cur_dts is invalid (this is harmless if it occurs once at the start per stream)
cur_dts is invalid (this is harmless if it occurs once at the start per stream)
cur_dts is invalid (this is harmless if it occurs once at the start per stream)
cur_dts is invalid (this is harmless if it occurs once at the start per stream)
cur_dts is invalid (this is harmless if it occurs once at the start per stream)
cur_dts is invalid (this is harmless if it occurs once at the start per stream)
cur_dts is invalid (this is harmless if it occurs once at the start per stream)
cur_dts is invalid (this is harmless if it occurs once at the start per stream)
frame= 0 fps=0.0 q=-1.0 size= 0kB time=00:00:01.56 bitrate= 0.0kbits/s speed=1.03x
cur_dts is invalid (this is harmless if it occurs once at the start per stream)
cur_dts is invalid (this is harmless if it occurs once at the start per stream)
cur_dts is invalid (this is harmless if it occurs once at the start per stream)
cur_dts is invalid (this is harmless if it occurs once at the start per stream)
cur_dts is invalid (this is harmless if it occurs once at the start per stream)
cur_dts is invalid (this is harmless if it occurs once at the start per stream)
cur_dts is invalid (this is harmless if it occurs once at the start per stream)
cur_dts is invalid (this is harmless if it occurs once at the start per stream)
cur_dts is invalid (this is harmless if it occurs once at the start per stream)
cur_dts is invalid (this is harmless if it occurs once at the start per stream)
cur_dts is invalid (this is harmless if it occurs once at the start per stream)
cur_dts is invalid (this is harmless if it occurs once at the start per stream)
cur_dts is invalid (this is harmless if it occurs once at the start per stream)
cur_dts is invalid (this is harmless if it occurs once at the start per stream)
cur_dts is invalid (this is harmless if it occurs once at the start per stream)
cur_dts is invalid (this is harmless if it occurs once at the start per stream)
cur_dts is invalid (this is harmless if it occurs once at the start per stream)
cur_dts is invalid (this is harmless if it occurs once at the start per stream)
cur_dts is invalid (this is harmless if it occurs once at the start per stream)
cur_dts is invalid (this is harmless if it occurs once at the start per stream)
cur_dts is invalid (this is harmless if it occurs once at the start per stream)
cur_dts is invalid (this is harmless if it occurs once at the start per stream)
cur_dts is invalid (this is harmless if it occurs once at the start per stream)
cur_dts is invalid (this is harmless if it occurs once at the start per stream)
cur_dts is invalid (this is harmless if it occurs once at the start per stream)
cur_dts is invalid (this is harmless if it occurs once at the start per stream)
cur_dts is invalid (this is harmless if it occurs once at the start per stream)
cur_dts is invalid (this is harmless if it occurs once at the start per stream)
cur_dts is invalid (this is harmless if it occurs once at the start per stream)
cur_dts is invalid (this is harmless if it occurs once at the start per stream)
cur_dts is invalid (this is harmless if it occurs once at the start per stream)
cur_dts is invalid (this is harmless if it occurs once at the start per stream)
cur_dts is invalid (this is harmless if it occurs once at the start per stream)
cur_dts is invalid (this is harmless if it occurs once at the start per stream)
cur_dts is invalid (this is harmless if it occurs once at the start per stream)
cur_dts is invalid (this is harmless if it occurs once at the start per stream)
cur_dts is invalid (this is harmless if it occurs once at the start per stream)
cur_dts is invalid (this is harmless if it occurs once at the start per stream)
cur_dts is invalid (this is harmless if it occurs once at the start per stream)
cur_dts is invalid (this is harmless if it occurs once at the start per stream)
cur_dts is invalid (this is harmless if it occurs once at the start per stream)
cur_dts is invalid (this is harmless if it occurs once at the start per stream)
cur_dts is invalid (this is harmless if it occurs once at the start per stream)
cur_dts is invalid (this is harmless if it occurs once at the start per stream)
cur_dts is invalid (this is harmless if it occurs once at the start per stream)
cur_dts is invalid (this is harmless if it occurs once at the start per stream)
cur_dts is invalid (this is harmless if it occurs once at the start per stream)
cur_dts is invalid (this is harmless if it occurs once at the start per stream)
cur_dts is invalid (this is harmless if it occurs once at the start per stream)
cur_dts is invalid (this is harmless if it occurs once at the start per stream)
cur_dts is invalid (this is harmless if it occurs once at the start per stream)
cur_dts is invalid (this is harmless if it occurs once at the start per stream)
cur_dts is invalid (this is harmless if it occurs once at the start per stream)
cur_dts is invalid (this is harmless if it occurs once at the start per stream)
cur_dts is invalid (this is harmless if it occurs once at the start per stream)
cur_dts is invalid (this is harmless if it occurs once at the start per stream)
cur_dts is invalid (this is harmless if it occurs once at the start per stream)
cur_dts is invalid (this is harmless if it occurs once at the start per stream)
cur_dts is invalid (this is harmless if it occurs once at the start per stream)
cur_dts is invalid (this is harmless if it occurs once at the start per stream)
cur_dts is invalid (this is harmless if it occurs once at the start per stream)
cur_dts is invalid (this is harmless if it occurs once at the start per stream)
[mpegts @ 000000000019e880] Application provided invalid, non monotonically increasing dts to muxer in stream 2: 158400 >= 111654
av_interleaved_write_frame(): Invalid argument
No more output streams to write to, finishing.
frame= 0 fps=0.0 q=-1.0 Lsize= 67kB time=00:00:01.76 bitrate= 310.2kbits/s speed= 1x
video:0kB audio:37kB subtitle:15kB other streams:0kB global headers:0kB muxing overhead: 30.490650%
Input file #0 (tvc_udp.ts):

Input stream #0:0 (video): 0 packets read (0 bytes);
Input stream #0:1 (audio): 65 packets read (37440 bytes);
Input stream #0:2 (subtitle): 46 packets read (14858 bytes);
Total: 111 packets (52298 bytes) demuxed

Output file #0 (udp://224.0.0.1:1234?pkt_size=1316):

Output stream #0:0 (video): 0 packets muxed (0 bytes);
Output stream #0:1 (audio): 65 packets muxed (37440 bytes);
Output stream #0:2 (subtitle): 46 packets muxed (14858 bytes);
Total: 111 packets (52298 bytes) muxed

0 frames successfully decoded, 0 decoding errors
[AVIOContext @ 00000000026638a0] Statistics: 0 seeks, 52 writeouts
[AVIOContext @ 0000000000197c00] Statistics: 2838672 bytes read, 2 seeks
Conversion failed!

How to reproduce:

% ffmpeg.exe -report -re -i tvc_udp.ts -c:v copy -c:a copy -c:s copy -streamid 0:4501 -streamid 1:4504 -streamid 2:4502 -flush_packets 0 -f mpegts -metadata service_provider="Home.net" -metadata service_name="TV Centr" udp://224.0.0.1:1234?pkt_size=1316

ffmpeg version N-86920-g1193301

built with gcc 7.1.0 (GCC)

Patches should be submitted to the ffmpeg-devel mailing list and not this bug tracker.

File tvc_udp.ts has been recorded and transcoded to mpeg2video previously from UDP broadcast with

ffmpeg -y -i udp://234.5.101.135:1234 -c:v mpeg2video -q 2 -c:a copy -c:s copy -streamid 0:4501 -streamid 1:4504 -streamid 2:4502 -f mpegts -metadata service_provider="Home.net" -metadata service_name="TV Centr" tvc_udp.ts

Report included as report-file

Attachments (1)

ffmpeg-20170803-142022.log (52.3 KB) - added by Eduard 5 months ago.

Download all attachments as: .zip

Change History (4)

Changed 5 months ago by Eduard

comment:1 Changed 5 months ago by Eduard

  • Component changed from undetermined to avformat
  • Version unspecified deleted

comment:2 in reply to: ↑ description Changed 4 months ago by cehoyos

  • Keywords mpegts dvb_teletext added; mpeg-ts dvb subtitles teletext removed
  • Version set to git-master

Replying to Eduard:

File tvc_udp.ts has been recorded and transcoded to mpeg2video previously from UDP broadcast with

ffmpeg -y -i udp://234.5.101.135:1234 -c:v mpeg2video -q 2 -c:a copy -c:s copy -streamid 0:4501 -streamid 1:4504 -streamid 2:4502 -f mpegts -metadata service_provider="Home.net" -metadata service_name="TV Centr" tvc_udp.ts

ffmpeg is unable to "record", please use tcpdump or tools/aviocat to record a source file, test that it allows to reproduce the issue and provide it.

comment:3 Changed 4 months ago by cehoyos

  • Resolution set to needs_more_info
  • Status changed from new to closed

Please reopen this ticket if you can provide an input sample that was not produced with FFmpeg.

Note: See TracTickets for help on using tickets.