Opened 6 weeks ago

Closed 3 weeks ago

#6518 closed defect (wontfix)

ffmpeg mxf copy all streams not working due to data stream "vbi_vanc_smpte_436M"

Reported by: yojimbo69 Owned by:
Priority: critical Component: ffmpeg
Version: 3.2.4 Keywords: ffmpeg stream vbi_vanc_smpte_436M
Cc: Blocked By:
Blocking: Reproduced by developer: yes
Analyzed by developer: no

Description

using the basic command line

ffmpeg -i test.mxf -map 0 -c copy wrap.mxf

to copy all video,audio and data streams fails.

D:\Media\72529212> ffmpeg -i test.mxf -map 0 -c copy wrap.mxf

ffmpeg version 3.2.4 Copyright (c) 2000-2017 the FFmpeg developers

built with gcc 6.3.0 (GCC)
configuration: --disable-static --enable-shared --enable-gpl --enable-version3

--enable-d3d11va --enable-dxva2 --enable-libmfx --enable-nvenc --enable-avisynt

h --enable-bzlib --enable-fontconfig --enable-frei0r --enable-gnutls --enable-ic
onv --enable-libass --enable-libbluray --enable-libbs2b --enable-libcaca --enabl
e-libfreetype --enable-libgme --enable-libgsm --enable-libilbc --enable-libmodpl
ug --enable-libmp3lame --enable-libopencore-amrnb --enable-libopencore-amrwb --e
nable-libopenh264 --enable-libopenjpeg --enable-libopus --enable-librtmp --enabl
e-libsnappy --enable-libsoxr --enable-libspeex --enable-libtheora --enable-libtw
olame --enable-libvidstab --enable-libvo-amrwbenc --enable-libvorbis --enable-li
bvpx --enable-libwavpack --enable-libwebp --enable-libx264 --enable-libx265 --en
able-libxavs --enable-libxvid --enable-libzimg --enable-lzma --enable-zlib

libavutil 55. 34.101 / 55. 34.101
libavcodec 57. 64.101 / 57. 64.101
libavformat 57. 56.101 / 57. 56.101
libavdevice 57. 1.100 / 57. 1.100
libavfilter 6. 65.100 / 6. 65.100
libswscale 4. 2.100 / 4. 2.100
libswresample 2. 3.100 / 2. 3.100
libpostproc 54. 1.100 / 54. 1.100

[mxf @ 0000000000699460] material track 52: has 4 components
Guessed Channel Layout for Input Stream #0.1 : mono
Guessed Channel Layout for Input Stream #0.2 : mono
Guessed Channel Layout for Input Stream #0.3 : mono
Guessed Channel Layout for Input Stream #0.4 : mono
Guessed Channel Layout for Input Stream #0.5 : mono
Guessed Channel Layout for Input Stream #0.6 : mono
Guessed Channel Layout for Input Stream #0.7 : mono
Guessed Channel Layout for Input Stream #0.8 : mono
Guessed Channel Layout for Input Stream #0.9 : mono
Guessed Channel Layout for Input Stream #0.10 : mono
Guessed Channel Layout for Input Stream #0.11 : mono
Guessed Channel Layout for Input Stream #0.12 : mono
Guessed Channel Layout for Input Stream #0.13 : mono
Guessed Channel Layout for Input Stream #0.14 : mono
Guessed Channel Layout for Input Stream #0.15 : mono
Guessed Channel Layout for Input Stream #0.16 : mono
Guessed Channel Layout for Input Stream #0.17 : mono
Guessed Channel Layout for Input Stream #0.18 : mono
Guessed Channel Layout for Input Stream #0.19 : mono
Guessed Channel Layout for Input Stream #0.20 : mono
Guessed Channel Layout for Input Stream #0.21 : mono
Guessed Channel Layout for Input Stream #0.22 : mono
Guessed Channel Layout for Input Stream #0.23 : mono
Guessed Channel Layout for Input Stream #0.24 : mono
Guessed Channel Layout for Input Stream #0.25 : mono
Guessed Channel Layout for Input Stream #0.26 : mono
Guessed Channel Layout for Input Stream #0.27 : mono
Guessed Channel Layout for Input Stream #0.28 : mono
Guessed Channel Layout for Input Stream #0.29 : mono
Guessed Channel Layout for Input Stream #0.30 : mono
Guessed Channel Layout for Input Stream #0.31 : mono
Guessed Channel Layout for Input Stream #0.32 : mono
Guessed Channel Layout for Input Stream #0.33 : mono
Guessed Channel Layout for Input Stream #0.34 : mono
Guessed Channel Layout for Input Stream #0.35 : mono
Guessed Channel Layout for Input Stream #0.36 : mono
Guessed Channel Layout for Input Stream #0.37 : mono
Guessed Channel Layout for Input Stream #0.38 : mono
Guessed Channel Layout for Input Stream #0.39 : mono
Guessed Channel Layout for Input Stream #0.40 : mono
Guessed Channel Layout for Input Stream #0.41 : mono
Guessed Channel Layout for Input Stream #0.42 : mono
Guessed Channel Layout for Input Stream #0.43 : mono
Guessed Channel Layout for Input Stream #0.44 : mono
Guessed Channel Layout for Input Stream #0.45 : mono
Guessed Channel Layout for Input Stream #0.46 : mono
Guessed Channel Layout for Input Stream #0.47 : mono
Guessed Channel Layout for Input Stream #0.48 : mono
Input #0, mxf, from 'test.mxf':

Metadata:

company_name : Grass Valley
product_name : K2
product_version : 9.7.3.2470
product_uid : caf3d2ff-9425-4086-addf-66f77967f101
modification_date: 2017-05-29T16:15:20.000000Z
generation_uid : 1e96ea24-5640-148c-08d6-180820524153
uid : 1e96ea74-5640-148c-7473-180820524153
material_package_umid: 0x060A2B340101010501010F43130000001E96EAA65640148C7BC

C180820524153

material_package_name: Material Package for Test007/V:/B02-Playout/725292

12

timecode : 12:56:59:08

Duration: 03:06:48.00, start: 0.000000, bitrate: 110280 kb/s

Stream #0:0: Video: mpeg2video (4:2:2), yuv422p(tv, top first), 1920x1080 [S

AR 1:1 DAR 16:9], 50000 kb/s, 25 fps, 25 tbr, 25 tbn, 50 tbc

Metadata:

file_package_umid: 0x060A2B340101010501010F43130000001E96F2BC5640148C15F21

80820524153

file_package_name: Source Package for Test007/V:/B02-Playout/72529212
track_name : Material Package: Video Track #1

Stream #0:1: Audio: pcm_s24le, 48000 Hz, mono, s32 (24 bit), 1152 kb/s
Metadata:

file_package_umid: 0x060A2B340101010501010F43130000001E96F2BC5640148C15F21

80820524153

file_package_name: Source Package for Test007/V:/B02-Playout/72529212
track_name : Material Package: Audio Track #1

Stream #0:2: Audio: pcm_s24le, 48000 Hz, mono, s32 (24 bit), 1152 kb/s
Metadata:

file_package_umid: 0x060A2B340101010501010F43130000001E96F2BC5640148C15F21

80820524153

file_package_name: Source Package for Test007/V:/B02-Playout/72529212
track_name : Material Package: Audio Track #2

Stream #0:3: Audio: pcm_s24le, 48000 Hz, mono, s32 (24 bit), 1152 kb/s
Metadata:

file_package_umid: 0x060A2B340101010501010F43130000001E96F2BC5640148C15F21

80820524153

file_package_name: Source Package for Test007/V:/B02-Playout/72529212
track_name : Material Package: Audio Track #3

Stream #0:4: Audio: pcm_s24le, 48000 Hz, mono, s32 (24 bit), 1152 kb/s
Metadata:

file_package_umid: 0x060A2B340101010501010F43130000001E96F2BC5640148C15F21

80820524153

file_package_name: Source Package for Test007/V:/B02-Playout/72529212
track_name : Material Package: Audio Track #4

Stream #0:5: Audio: pcm_s24le, 48000 Hz, mono, s32 (24 bit), 1152 kb/s
Metadata:

file_package_umid: 0x060A2B340101010501010F43130000001E96F2BC5640148C15F21

80820524153

file_package_name: Source Package for Test007/V:/B02-Playout/72529212
track_name : Material Package: Audio Track #5

Stream #0:6: Audio: pcm_s24le, 48000 Hz, mono, s32 (24 bit), 1152 kb/s
Metadata:

file_package_umid: 0x060A2B340101010501010F43130000001E96F2BC5640148C15F21

80820524153

file_package_name: Source Package for Test007/V:/B02-Playout/72529212
track_name : Material Package: Audio Track #6

Stream #0:7: Audio: pcm_s24le, 48000 Hz, mono, s32 (24 bit), 1152 kb/s
Metadata:

file_package_umid: 0x060A2B340101010501010F43130000001E96F2BC5640148C15F21

80820524153

file_package_name: Source Package for Test007/V:/B02-Playout/72529212
track_name : Material Package: Audio Track #7

Stream #0:8: Audio: pcm_s24le, 48000 Hz, mono, s32 (24 bit), 1152 kb/s
Metadata:

file_package_umid: 0x060A2B340101010501010F43130000001E96F2BC5640148C15F21

80820524153

file_package_name: Source Package for Test007/V:/B02-Playout/72529212
track_name : Material Package: Audio Track #8

Stream #0:9: Audio: pcm_s24le, 48000 Hz, mono, s32 (24 bit), 1152 kb/s
Metadata:

file_package_umid: 0x060A2B340101010501010F43130000001E96F2BC5640148C15F21

80820524153

file_package_name: Source Package for Test007/V:/B02-Playout/72529212
track_name : Material Package: Audio Track #9

Stream #0:10: Audio: pcm_s24le, 48000 Hz, mono, s32 (24 bit), 1152 kb/s
Metadata:

file_package_umid: 0x060A2B340101010501010F43130000001E96F2BC5640148C15F21

80820524153

file_package_name: Source Package for Test007/V:/B02-Playout/72529212
track_name : Material Package: Audio Track #10

Stream #0:11: Audio: pcm_s24le, 48000 Hz, mono, s32 (24 bit), 1152 kb/s
Metadata:

file_package_umid: 0x060A2B340101010501010F43130000001E96F2BC5640148C15F21

80820524153

file_package_name: Source Package for Test007/V:/B02-Playout/72529212
track_name : Material Package: Audio Track #11

Stream #0:12: Audio: pcm_s24le, 48000 Hz, mono, s32 (24 bit), 1152 kb/s
Metadata:

file_package_umid: 0x060A2B340101010501010F43130000001E96F2BC5640148C15F21

80820524153

file_package_name: Source Package for Test007/V:/B02-Playout/72529212
track_name : Material Package: Audio Track #12

Stream #0:13: Audio: pcm_s24le, 48000 Hz, mono, s32 (24 bit), 1152 kb/s
Metadata:

file_package_umid: 0x060A2B340101010501010F43130000001E96F2BC5640148C15F21

80820524153

file_package_name: Source Package for Test007/V:/B02-Playout/72529212
track_name : Material Package: Audio Track #13

Stream #0:14: Audio: pcm_s24le, 48000 Hz, mono, s32 (24 bit), 1152 kb/s
Metadata:

file_package_umid: 0x060A2B340101010501010F43130000001E96F2BC5640148C15F21

80820524153

file_package_name: Source Package for Test007/V:/B02-Playout/72529212
track_name : Material Package: Audio Track #14

Stream #0:15: Audio: pcm_s24le, 48000 Hz, mono, s32 (24 bit), 1152 kb/s
Metadata:

file_package_umid: 0x060A2B340101010501010F43130000001E96F2BC5640148C15F21

80820524153

file_package_name: Source Package for Test007/V:/B02-Playout/72529212
track_name : Material Package: Audio Track #15

Stream #0:16: Audio: pcm_s24le, 48000 Hz, mono, s32 (24 bit), 1152 kb/s
Metadata:

file_package_umid: 0x060A2B340101010501010F43130000001E96F2BC5640148C15F21

80820524153

file_package_name: Source Package for Test007/V:/B02-Playout/72529212
track_name : Material Package: Audio Track #16

Stream #0:17: Audio: pcm_s24le, 48000 Hz, mono, s32 (24 bit), 1152 kb/s
Metadata:

file_package_umid: 0x060A2B340101010501010F43130000001E96F2BC5640148C15F21

80820524153

file_package_name: Source Package for Test007/V:/B02-Playout/72529212
track_name : Material Package: Audio Track #17

Stream #0:18: Audio: pcm_s24le, 48000 Hz, mono, s32 (24 bit), 1152 kb/s
Metadata:

file_package_umid: 0x060A2B340101010501010F43130000001E96F2BC5640148C15F21

80820524153

file_package_name: Source Package for Test007/V:/B02-Playout/72529212
track_name : Material Package: Audio Track #18

Stream #0:19: Audio: pcm_s24le, 48000 Hz, mono, s32 (24 bit), 1152 kb/s
Metadata:

file_package_umid: 0x060A2B340101010501010F43130000001E96F2BC5640148C15F21

80820524153

file_package_name: Source Package for Test007/V:/B02-Playout/72529212
track_name : Material Package: Audio Track #19

Stream #0:20: Audio: pcm_s24le, 48000 Hz, mono, s32 (24 bit), 1152 kb/s
Metadata:

file_package_umid: 0x060A2B340101010501010F43130000001E96F2BC5640148C15F21

80820524153

file_package_name: Source Package for Test007/V:/B02-Playout/72529212
track_name : Material Package: Audio Track #20

Stream #0:21: Audio: pcm_s24le, 48000 Hz, mono, s32 (24 bit), 1152 kb/s
Metadata:

file_package_umid: 0x060A2B340101010501010F43130000001E96F2BC5640148C15F21

80820524153

file_package_name: Source Package for Test007/V:/B02-Playout/72529212
track_name : Material Package: Audio Track #21

Stream #0:22: Audio: pcm_s24le, 48000 Hz, mono, s32 (24 bit), 1152 kb/s
Metadata:

file_package_umid: 0x060A2B340101010501010F43130000001E96F2BC5640148C15F21

80820524153

file_package_name: Source Package for Test007/V:/B02-Playout/72529212
track_name : Material Package: Audio Track #22

Stream #0:23: Audio: pcm_s24le, 48000 Hz, mono, s32 (24 bit), 1152 kb/s
Metadata:

file_package_umid: 0x060A2B340101010501010F43130000001E96F2BC5640148C15F21

80820524153

file_package_name: Source Package for Test007/V:/B02-Playout/72529212
track_name : Material Package: Audio Track #23

Stream #0:24: Audio: pcm_s24le, 48000 Hz, mono, s32 (24 bit), 1152 kb/s
Metadata:

file_package_umid: 0x060A2B340101010501010F43130000001E96F2BC5640148C15F21

80820524153

file_package_name: Source Package for Test007/V:/B02-Playout/72529212
track_name : Material Package: Audio Track #24

Stream #0:25: Audio: pcm_s24le, 48000 Hz, mono, s32 (24 bit), 1152 kb/s
Metadata:

file_package_umid: 0x060A2B340101010501010F43130000001E96F2BC5640148C15F21

80820524153

file_package_name: Source Package for Test007/V:/B02-Playout/72529212
track_name : Material Package: Audio Track #25

Stream #0:26: Audio: pcm_s24le, 48000 Hz, mono, s32 (24 bit), 1152 kb/s
Metadata:

file_package_umid: 0x060A2B340101010501010F43130000001E96F2BC5640148C15F21

80820524153

file_package_name: Source Package for Test007/V:/B02-Playout/72529212
track_name : Material Package: Audio Track #26

Stream #0:27: Audio: pcm_s24le, 48000 Hz, mono, s32 (24 bit), 1152 kb/s
Metadata:

file_package_umid: 0x060A2B340101010501010F43130000001E96F2BC5640148C15F21

80820524153

file_package_name: Source Package for Test007/V:/B02-Playout/72529212
track_name : Material Package: Audio Track #27

Stream #0:28: Audio: pcm_s24le, 48000 Hz, mono, s32 (24 bit), 1152 kb/s
Metadata:

file_package_umid: 0x060A2B340101010501010F43130000001E96F2BC5640148C15F21

80820524153

file_package_name: Source Package for Test007/V:/B02-Playout/72529212
track_name : Material Package: Audio Track #28

Stream #0:29: Audio: pcm_s24le, 48000 Hz, mono, s32 (24 bit), 1152 kb/s
Metadata:

file_package_umid: 0x060A2B340101010501010F43130000001E96F2BC5640148C15F21

80820524153

file_package_name: Source Package for Test007/V:/B02-Playout/72529212
track_name : Material Package: Audio Track #29

Stream #0:30: Audio: pcm_s24le, 48000 Hz, mono, s32 (24 bit), 1152 kb/s
Metadata:

file_package_umid: 0x060A2B340101010501010F43130000001E96F2BC5640148C15F21

80820524153

file_package_name: Source Package for Test007/V:/B02-Playout/72529212
track_name : Material Package: Audio Track #30

Stream #0:31: Audio: pcm_s24le, 48000 Hz, mono, s32 (24 bit), 1152 kb/s
Metadata:

file_package_umid: 0x060A2B340101010501010F43130000001E96F2BC5640148C15F21

80820524153

file_package_name: Source Package for Test007/V:/B02-Playout/72529212
track_name : Material Package: Audio Track #31

Stream #0:32: Audio: pcm_s24le, 48000 Hz, mono, s32 (24 bit), 1152 kb/s
Metadata:

file_package_umid: 0x060A2B340101010501010F43130000001E96F2BC5640148C15F21

80820524153

file_package_name: Source Package for Test007/V:/B02-Playout/72529212
track_name : Material Package: Audio Track #32

Stream #0:33: Audio: pcm_s24le, 48000 Hz, mono, s32 (24 bit), 1152 kb/s
Metadata:

file_package_umid: 0x060A2B340101010501010F43130000001E96F2BC5640148C15F21

80820524153

file_package_name: Source Package for Test007/V:/B02-Playout/72529212
track_name : Material Package: Audio Track #33

Stream #0:34: Audio: pcm_s24le, 48000 Hz, mono, s32 (24 bit), 1152 kb/s
Metadata:

file_package_umid: 0x060A2B340101010501010F43130000001E96F2BC5640148C15F21

80820524153

file_package_name: Source Package for Test007/V:/B02-Playout/72529212
track_name : Material Package: Audio Track #34

Stream #0:35: Audio: pcm_s24le, 48000 Hz, mono, s32 (24 bit), 1152 kb/s
Metadata:

file_package_umid: 0x060A2B340101010501010F43130000001E96F2BC5640148C15F21

80820524153

file_package_name: Source Package for Test007/V:/B02-Playout/72529212
track_name : Material Package: Audio Track #35

Stream #0:36: Audio: pcm_s24le, 48000 Hz, mono, s32 (24 bit), 1152 kb/s
Metadata:

file_package_umid: 0x060A2B340101010501010F43130000001E96F2BC5640148C15F21

80820524153

file_package_name: Source Package for Test007/V:/B02-Playout/72529212
track_name : Material Package: Audio Track #36

Stream #0:37: Audio: pcm_s24le, 48000 Hz, mono, s32 (24 bit), 1152 kb/s
Metadata:

file_package_umid: 0x060A2B340101010501010F43130000001E96F2BC5640148C15F21

80820524153

file_package_name: Source Package for Test007/V:/B02-Playout/72529212
track_name : Material Package: Audio Track #37

Stream #0:38: Audio: pcm_s24le, 48000 Hz, mono, s32 (24 bit), 1152 kb/s
Metadata:

file_package_umid: 0x060A2B340101010501010F43130000001E96F2BC5640148C15F21

80820524153

file_package_name: Source Package for Test007/V:/B02-Playout/72529212
track_name : Material Package: Audio Track #38

Stream #0:39: Audio: pcm_s24le, 48000 Hz, mono, s32 (24 bit), 1152 kb/s
Metadata:

file_package_umid: 0x060A2B340101010501010F43130000001E96F2BC5640148C15F21

80820524153

file_package_name: Source Package for Test007/V:/B02-Playout/72529212
track_name : Material Package: Audio Track #39

Stream #0:40: Audio: pcm_s24le, 48000 Hz, mono, s32 (24 bit), 1152 kb/s
Metadata:

file_package_umid: 0x060A2B340101010501010F43130000001E96F2BC5640148C15F21

80820524153

file_package_name: Source Package for Test007/V:/B02-Playout/72529212
track_name : Material Package: Audio Track #40

Stream #0:41: Audio: pcm_s24le, 48000 Hz, mono, s32 (24 bit), 1152 kb/s
Metadata:

file_package_umid: 0x060A2B340101010501010F43130000001E96F2BC5640148C15F21

80820524153

file_package_name: Source Package for Test007/V:/B02-Playout/72529212
track_name : Material Package: Audio Track #41

Stream #0:42: Audio: pcm_s24le, 48000 Hz, mono, s32 (24 bit), 1152 kb/s
Metadata:

file_package_umid: 0x060A2B340101010501010F43130000001E96F2BC5640148C15F21

80820524153

file_package_name: Source Package for Test007/V:/B02-Playout/72529212
track_name : Material Package: Audio Track #42

Stream #0:43: Audio: pcm_s24le, 48000 Hz, mono, s32 (24 bit), 1152 kb/s
Metadata:

file_package_umid: 0x060A2B340101010501010F43130000001E96F2BC5640148C15F21

80820524153

file_package_name: Source Package for Test007/V:/B02-Playout/72529212
track_name : Material Package: Audio Track #43

Stream #0:44: Audio: pcm_s24le, 48000 Hz, mono, s32 (24 bit), 1152 kb/s
Metadata:

file_package_umid: 0x060A2B340101010501010F43130000001E96F2BC5640148C15F21

80820524153

file_package_name: Source Package for Test007/V:/B02-Playout/72529212
track_name : Material Package: Audio Track #44

Stream #0:45: Audio: pcm_s24le, 48000 Hz, mono, s32 (24 bit), 1152 kb/s
Metadata:

file_package_umid: 0x060A2B340101010501010F43130000001E96F2BC5640148C15F21

80820524153

file_package_name: Source Package for Test007/V:/B02-Playout/72529212
track_name : Material Package: Audio Track #45

Stream #0:46: Audio: pcm_s24le, 48000 Hz, mono, s32 (24 bit), 1152 kb/s
Metadata:

file_package_umid: 0x060A2B340101010501010F43130000001E96F2BC5640148C15F21

80820524153

file_package_name: Source Package for Test007/V:/B02-Playout/72529212
track_name : Material Package: Audio Track #46

Stream #0:47: Audio: pcm_s24le, 48000 Hz, mono, s32 (24 bit), 1152 kb/s
Metadata:

file_package_umid: 0x060A2B340101010501010F43130000001E96F2BC5640148C15F21

80820524153

file_package_name: Source Package for Test007/V:/B02-Playout/72529212
track_name : Material Package: Audio Track #47

Stream #0:48: Audio: pcm_s24le, 48000 Hz, mono, s32 (24 bit), 1152 kb/s
Metadata:

file_package_umid: 0x060A2B340101010501010F43130000001E96F2BC5640148C15F21

80820524153

file_package_name: Source Package for Test007/V:/B02-Playout/72529212
track_name : Material Package: Audio Track #48

Stream #0:49: Data: none
Metadata:

file_package_umid: 0x060A2B340101010501010F43130000001E96F2BC5640148C15F21

80820524153

file_package_name: Source Package for Test007/V:/B02-Playout/72529212
track_name : Material Package: Data Track #1
data_type : vbi_vanc_smpte_436M

[mxf @ 0000000002a56b00] track 49: could not find essence container ul, codec not currently supported in container
Could not write header for output file #0 (incorrect codec parameters ?): Operation not permittedStream mapping:

Stream #0:0 -> #0:0 (copy)
Stream #0:1 -> #0:1 (copy)
Stream #0:2 -> #0:2 (copy)
Stream #0:3 -> #0:3 (copy)
Stream #0:4 -> #0:4 (copy)
Stream #0:5 -> #0:5 (copy)
Stream #0:6 -> #0:6 (copy)
Stream #0:7 -> #0:7 (copy)
Stream #0:8 -> #0:8 (copy)
Stream #0:9 -> #0:9 (copy)
Stream #0:10 -> #0:10 (copy)
Stream #0:11 -> #0:11 (copy)
Stream #0:12 -> #0:12 (copy)
Stream #0:13 -> #0:13 (copy)
Stream #0:14 -> #0:14 (copy)
Stream #0:15 -> #0:15 (copy)
Stream #0:16 -> #0:16 (copy)
Stream #0:17 -> #0:17 (copy)
Stream #0:18 -> #0:18 (copy)
Stream #0:19 -> #0:19 (copy)
Stream #0:20 -> #0:20 (copy)
Stream #0:21 -> #0:21 (copy)
Stream #0:22 -> #0:22 (copy)
Stream #0:23 -> #0:23 (copy)
Stream #0:24 -> #0:24 (copy)
Stream #0:25 -> #0:25 (copy)
Stream #0:26 -> #0:26 (copy)
Stream #0:27 -> #0:27 (copy)
Stream #0:28 -> #0:28 (copy)
Stream #0:29 -> #0:29 (copy)
Stream #0:30 -> #0:30 (copy)
Stream #0:31 -> #0:31 (copy)
Stream #0:32 -> #0:32 (copy)
Stream #0:33 -> #0:33 (copy)
Stream #0:34 -> #0:34 (copy)
Stream #0:35 -> #0:35 (copy)
Stream #0:36 -> #0:36 (copy)
Stream #0:37 -> #0:37 (copy)
Stream #0:38 -> #0:38 (copy)
Stream #0:39 -> #0:39 (copy)
Stream #0:40 -> #0:40 (copy)
Stream #0:41 -> #0:41 (copy)
Stream #0:42 -> #0:42 (copy)
Stream #0:43 -> #0:43 (copy)
Stream #0:44 -> #0:44 (copy)
Stream #0:45 -> #0:45 (copy)
Stream #0:46 -> #0:46 (copy)
Stream #0:47 -> #0:47 (copy)
Stream #0:48 -> #0:48 (copy)
Stream #0:49 -> #0:49 (copy)

Last message repeated 1 times

Change History (2)

comment:1 Changed 6 weeks ago by yojimbo69

  • Analyzed by developer unset

comment:2 Changed 3 weeks ago by yojimbo69

  • Resolution set to wontfix
  • Status changed from new to closed
Note: See TracTickets for help on using tickets.