Opened 3 months ago

Last modified 2 months ago

#6517 new defect

defect: ffmpeg won't timeout on network problem, can't be interrupted to give a valid mp4

Reported by: bposert Owned by:
Priority: normal Component: undetermined
Version: unspecified Keywords:
Cc: Blocked By:
Blocking: Reproduced by developer: no
Analyzed by developer: no

Description

Summary of the bug:
If ffmpeg is downloading from an HTTP source and the source goes offline, ffmpeg will wait forever (I've tried leaving it for hours). The first ctrl-c is ignored, and the second gives a .mp4 without a MOOV atom.

How to reproduce:

  1. Use ffmpeg to read from a network source and write to a local file. See the log below for a sample URL etc.
  2. Interrupt the network. Easiest for me is to disconnect my laptop from wifi (using the appropriate button on my laptop).
  3. Note that ffmpeg doesn't report any error.
  4. Press control-c.
    1. Expected result: ffmpeg stops and generates a valid .mp4 file
    2. Actual result: it is ignored (though with verbose logging you see "Received windows signal 0")
  5. Wait a while, press control-c again.
    1. Expected result: ffmpeg stops and generates a valid .mp4 file
    2. Actual result: ffmpeg immediately exits and produces an invalid .mp4 file (no MOOV atom)
ffmpeg started on 2017-07-09 at 22:20:56
Report written to "ffmpeg-20170709-222056.log"
Command line:
ffmpeg -v 9 -loglevel 99 -report -i "https://github.com/mediaelement/mediaelement-files/blob/master/big_buck_bunny.mp4?raw=true" x.mp4
ffmpeg version N-86098-g3fefaea Copyright (c) 2000-2017 the FFmpeg developers
  built with gcc 6.3.0 (GCC)
  configuration: --enable-gpl --enable-version3 --enable-cuda --enable-cuvid --enable-d3d11va --enable-dxva2 --enable-libmfx --enable-nvenc --enable-avisynth --enable-bzlib --enable-fontconfig --enable-frei0r --enable-gnutls --enable-iconv --enable-libass --enable-libbluray --enable-libbs2b --enable-libcaca --enable-libfreetype --enable-libgme --enable-libgsm --enable-libilbc --enable-libmodplug --enable-libmp3lame --enable-libopencore-amrnb --enable-libopencore-amrwb --enable-libopenh264 --enable-libopenjpeg --enable-libopus --enable-librtmp --enable-libsnappy --enable-libsoxr --enable-libspeex --enable-libtheora --enable-libtwolame --enable-libvidstab --enable-libvo-amrwbenc --enable-libvorbis --enable-libvpx --enable-libwavpack --enable-libwebp --enable-libx264 --enable-libx265 --enable-libxavs --enable-libxvid --enable-libzimg --enable-lzma --enable-zlib
  libavutil      55. 63.100 / 55. 63.100
  libavcodec     57. 96.101 / 57. 96.101
  libavformat    57. 72.101 / 57. 72.101
  libavdevice    57.  7.100 / 57.  7.100
  libavfilter     6. 89.101 /  6. 89.101
  libswscale      4.  7.101 /  4.  7.101
  libswresample   2.  8.100 /  2.  8.100
  libpostproc    54.  6.100 / 54.  6.100
Splitting the commandline.
Reading option '-v' ... matched as option 'v' (set logging level) with argument '9'.
Reading option '-loglevel' ... matched as option 'loglevel' (set logging level) with argument '99'.
Reading option '-report' ... matched as option 'report' (generate a report) with argument '1'.
Reading option '-i' ... matched as input url with argument 'https://github.com/mediaelement/mediaelement-files/blob/master/big_buck_bunny.mp4?raw=true'.
Reading option 'x.mp4' ... matched as output url.
Finished splitting the commandline.
Parsing a group of options: global .
Applying option v (set logging level) with argument 9.
Applying option loglevel (set logging level) with argument 99.
Applying option report (generate a report) with argument 1.
Successfully parsed a group of options.
Parsing a group of options: input url https://github.com/mediaelement/mediaelement-files/blob/master/big_buck_bunny.mp4?raw=true.
Successfully parsed a group of options.
Opening an input file: https://github.com/mediaelement/mediaelement-files/blob/master/big_buck_bunny.mp4?raw=true.
[https @ 0000000001f53d40] Setting default whitelist 'http,https,tls,rtp,tcp,udp,crypto,httpproxy'
[tls @ 0000000001f53e80] Received incomplete handshake, need more data
[tls @ 0000000001f53e80] Received incomplete handshake, need more data
[https @ 0000000001f53d40] request: GET /mediaelement/mediaelement-files/blob/master/big_buck_bunny.mp4?raw=true HTTP/1.1

User-Agent: Lavf/57.72.101

Accept: */*

Range: bytes=0-

Connection: close

Host: github.com

Icy-MetaData: 1




[tls @ 0000000001f53e80] Server closed the connection
[tls @ 00000000001a9a00] Received incomplete handshake, need more data
[tls @ 00000000001a9a00] Received incomplete handshake, need more data
[https @ 0000000001f53d40] request: GET /mediaelement/mediaelement-files/raw/master/big_buck_bunny.mp4 HTTP/1.1

User-Agent: Lavf/57.72.101

Accept: */*

Range: bytes=0-

Connection: close

Host: github.com

Cookie: _gh_sess=eyJzZXNzaW9uX2lkIjoiMWEzYzcwOWYxZDIwN2JjY2FjMGQ3MDJiZDgzMDE0ZDUiLCJsYXN0X3JlYWRfZnJvbV9yZXBsaWNhcyI6MTQ5OTY2NDA2MTA1OSwic3B5X3JlcG8iOiJtZWRpYWVsZW1lbnQvbWVkaWFlbGVtZW50LWZpbGVzIiwic3B5X3JlcG9fYXQiOjE0OTk2NjQwNjF9--df30297c13c13265eb0765c14101601bd715232b

Icy-MetaData: 1




[tls @ 00000000001a9a00] Server closed the connection
[tls @ 00000000001ad1c0] Received incomplete handshake, need more data
[tls @ 00000000001ad1c0] Received incomplete handshake, need more data
[https @ 0000000001f53d40] request: GET /mediaelement/mediaelement-files/master/big_buck_bunny.mp4 HTTP/1.1

User-Agent: Lavf/57.72.101

Accept: */*

Range: bytes=0-

Connection: close

Host: raw.githubusercontent.com

Cookie: _gh_sess=eyJzZXNzaW9uX2lkIjoiMWEzYzcwOWYxZDIwN2JjY2FjMGQ3MDJiZDgzMDE0ZDUiLCJsYXN0X3JlYWRfZnJvbV9yZXBsaWNhcyI6MTQ5OTY2NDA2MTA1OSwic3B5X3JlcG8iOiJtZWRpYWVsZW1lbnQvbWVkaWFlbGVtZW50LWZpbGVzIiwic3B5X3JlcG9fYXQiOjE0OTk2NjQwNjF9--df30297c13c13265eb0765c14101601bd715232b

Icy-MetaData: 1




[mov,mp4,m4a,3gp,3g2,mj2 @ 00000000001a6480] Format mov,mp4,m4a,3gp,3g2,mj2 probed with size=2048 and score=100
[mov,mp4,m4a,3gp,3g2,mj2 @ 00000000001a6480] ISO: File Type Major Brand: mp42
[mov,mp4,m4a,3gp,3g2,mj2 @ 00000000001a6480] Unknown dref type 0x206c7275 size 12
[mov,mp4,m4a,3gp,3g2,mj2 @ 00000000001a6480] Processing st: 0, edit list 0 - media time: 0, duration: 1325095
[mov,mp4,m4a,3gp,3g2,mj2 @ 00000000001a6480] Unknown dref type 0x206c7275 size 12
[mov,mp4,m4a,3gp,3g2,mj2 @ 00000000001a6480] Processing st: 1, edit list 0 - media time: 0, duration: 36057
[mov,mp4,m4a,3gp,3g2,mj2 @ 00000000001a6480] Unknown dref type 0x206c7275 size 12
[mov,mp4,m4a,3gp,3g2,mj2 @ 00000000001a6480] Processing st: 2, edit list 0 - media time: 0, duration: 5408550
[mov,mp4,m4a,3gp,3g2,mj2 @ 00000000001a6480] Unknown dref type 0x206c7275 size 12
[mov,mp4,m4a,3gp,3g2,mj2 @ 00000000001a6480] Processing st: 3, edit list 0 - media time: 0, duration: 1325095
[mov,mp4,m4a,3gp,3g2,mj2 @ 00000000001a6480] Before avformat_find_stream_info() pos: 37114 bytes read:65536 seeks:0 nb_streams:4
[h264 @ 0000000001f97320] nal_unit_type: 7, nal_ref_idc: 1
[h264 @ 0000000001f97320] nal_unit_type: 8, nal_ref_idc: 1
[h264 @ 0000000001f97320] nal_unit_type: 6, nal_ref_idc: 0
[h264 @ 0000000001f97320] nal_unit_type: 6, nal_ref_idc: 0
[h264 @ 0000000001f97320] nal_unit_type: 5, nal_ref_idc: 1
[h264 @ 0000000001f97320] nal_unit_type: 5, nal_ref_idc: 1
[h264 @ 0000000001f97320] nal_unit_type: 5, nal_ref_idc: 1
[h264 @ 0000000001f97320] nal_unit_type: 5, nal_ref_idc: 1
[h264 @ 0000000001f97320] nal_unit_type: 5, nal_ref_idc: 1
[h264 @ 0000000001f97320] Reinit context to 640x368, pix_fmt: yuv420p
[mov,mp4,m4a,3gp,3g2,mj2 @ 00000000001a6480] All info found
[mov,mp4,m4a,3gp,3g2,mj2 @ 00000000001a6480] After avformat_find_stream_info() pos: 73594 bytes read:98304 seeks:0 frames:12
Input #0, mov,mp4,m4a,3gp,3g2,mj2, from 'https://github.com/mediaelement/mediaelement-files/blob/master/big_buck_bunny.mp4?raw=true':
  Metadata:
    major_brand     : mp42
    minor_version   : 1
    compatible_brands: mp42avc1
    creation_time   : 2010-02-09T01:55:39.000000Z
  Duration: 00:01:00.10, start: 0.000000, bitrate: 733 kb/s
    Stream #0:0(eng), 11, 1/22050: Audio: aac (LC) (mp4a / 0x6134706D), 22050 Hz, stereo, fltp, 65 kb/s (default)
    Metadata:
      creation_time   : 2010-02-09T01:55:39.000000Z
      handler_name    : Apple Sound Media Handler
    Stream #0:1(eng), 1, 1/600: Video: h264 (Constrained Baseline), 1 reference frame (avc1 / 0x31637661), yuv420p(tv, smpte170m/smpte170m/bt709, topleft), 640x360 (640x368), 0/1, 612 kb/s, 23.96 fps, 24 tbr, 600 tbn, 1200 tbc (default)
    Metadata:
      creation_time   : 2010-02-09T01:55:39.000000Z
      handler_name    : Apple Video Media Handler
    Stream #0:2(eng), 0, 1/90000: Data: none (rtp  / 0x20707472), 0/1, 45 kb/s
    Metadata:
      creation_time   : 2010-02-09T01:55:39.000000Z
      handler_name    : hint media handler
    Stream #0:3(eng), 0, 1/22050: Data: none (rtp  / 0x20707472), 0/1, 5 kb/s
    Metadata:
      creation_time   : 2010-02-09T01:55:39.000000Z
      handler_name    : hint media handler
Successfully opened the file.
Parsing a group of options: output url x.mp4.
Successfully parsed a group of options.
Opening an output file: x.mp4.
[file @ 000000000203dce0] Setting default whitelist 'file,crypto'
Successfully opened the file.
detected 8 logical cores
[h264 @ 0000000001f6b1a0] nal_unit_type: 7, nal_ref_idc: 1
[h264 @ 0000000001f6b1a0] nal_unit_type: 8, nal_ref_idc: 1
Stream mapping:
  Stream #0:1 -> #0:0 (h264 (native) -> h264 (libx264))
  Stream #0:0 -> #0:1 (aac (native) -> aac (native))
Press [q] to stop, [?] for help
cur_dts is invalid (this is harmless if it occurs once at the start per stream)
[graph_1_in_0_0 @ 000000000294f9e0] Setting 'time_base' to value '1/22050'
[graph_1_in_0_0 @ 000000000294f9e0] Setting 'sample_rate' to value '22050'
[graph_1_in_0_0 @ 000000000294f9e0] Setting 'sample_fmt' to value 'fltp'
[graph_1_in_0_0 @ 000000000294f9e0] Setting 'channel_layout' to value '0x3'
[graph_1_in_0_0 @ 000000000294f9e0] tb:1/22050 samplefmt:fltp samplerate:22050 chlayout:0x3
[format_out_0_1 @ 000000000294f900] Setting 'sample_fmts' to value 'fltp'
[format_out_0_1 @ 000000000294f900] Setting 'sample_rates' to value '96000|88200|64000|48000|44100|32000|24000|22050|16000|12000|11025|8000|7350'
[AVFilterGraph @ 000000000203df20] query_formats: 4 queried, 9 merged, 0 already done, 0 delayed
cur_dts is invalid (this is harmless if it occurs once at the start per stream)
cur_dts is invalid (this is harmless if it occurs once at the start per stream)
cur_dts is invalid (this is harmless if it occurs once at the start per stream)
cur_dts is invalid (this is harmless if it occurs once at the start per stream)
cur_dts is invalid (this is harmless if it occurs once at the start per stream)
cur_dts is invalid (this is harmless if it occurs once at the start per stream)
cur_dts is invalid (this is harmless if it occurs once at the start per stream)
cur_dts is invalid (this is harmless if it occurs once at the start per stream)
cur_dts is invalid (this is harmless if it occurs once at the start per stream)
cur_dts is invalid (this is harmless if it occurs once at the start per stream)
cur_dts is invalid (this is harmless if it occurs once at the start per stream)
cur_dts is invalid (this is harmless if it occurs once at the start per stream)
[h264 @ 0000000001f6b1a0] nal_unit_type: 6, nal_ref_idc: 0
[h264 @ 0000000001f6b1a0] nal_unit_type: 6, nal_ref_idc: 0
[h264 @ 0000000001f6b1a0] nal_unit_type: 5, nal_ref_idc: 1
[h264 @ 0000000001f6b1a0] nal_unit_type: 5, nal_ref_idc: 1
[h264 @ 0000000001f6b1a0] nal_unit_type: 5, nal_ref_idc: 1
[h264 @ 0000000001f6b1a0] nal_unit_type: 5, nal_ref_idc: 1
[h264 @ 0000000001f6b1a0] nal_unit_type: 5, nal_ref_idc: 1
[h264 @ 0000000001f6b1a0] Reinit context to 640x368, pix_fmt: yuv420p
cur_dts is invalid (this is harmless if it occurs once at the start per stream)
[h264 @ 0000000001f6a340] nal_unit_type: 6, nal_ref_idc: 0
[h264 @ 0000000001f6a340] nal_unit_type: 1, nal_ref_idc: 1
[h264 @ 0000000001f6a340] nal_unit_type: 1, nal_ref_idc: 1
[h264 @ 0000000001f6a340] nal_unit_type: 1, nal_ref_idc: 1
[h264 @ 0000000001f6a340] nal_unit_type: 1, nal_ref_idc: 1
[h264 @ 0000000001f6a340] nal_unit_type: 1, nal_ref_idc: 1
cur_dts is invalid (this is harmless if it occurs once at the start per stream)
[h264 @ 0000000001f6a800] nal_unit_type: 6, nal_ref_idc: 0
[h264 @ 0000000001f6a800] nal_unit_type: 1, nal_ref_idc: 1
[h264 @ 0000000001f6a800] nal_unit_type: 1, nal_ref_idc: 1
[h264 @ 0000000001f6a800] nal_unit_type: 1, nal_ref_idc: 1
[h264 @ 0000000001f6a800] nal_unit_type: 1, nal_ref_idc: 1
[h264 @ 0000000001f6a800] nal_unit_type: 1, nal_ref_idc: 1
cur_dts is invalid (this is harmless if it occurs once at the start per stream)
[h264 @ 0000000001f6bb40] nal_unit_type: 6, nal_ref_idc: 0
[h264 @ 0000000001f6bb40] nal_unit_type: 1, nal_ref_idc: 1
[h264 @ 0000000001f6bb40] nal_unit_type: 1, nal_ref_idc: 1
[h264 @ 0000000001f6bb40] nal_unit_type: 1, nal_ref_idc: 1
[h264 @ 0000000001f6bb40] nal_unit_type: 1, nal_ref_idc: 1
[h264 @ 0000000001f6bb40] nal_unit_type: 1, nal_ref_idc: 1
cur_dts is invalid (this is harmless if it occurs once at the start per stream)
[h264 @ 0000000001f68180] nal_unit_type: 6, nal_ref_idc: 0
[h264 @ 0000000001f68180] nal_unit_type: 1, nal_ref_idc: 1
[h264 @ 0000000001f68180] nal_unit_type: 1, nal_ref_idc: 1
[h264 @ 0000000001f68180] nal_unit_type: 1, nal_ref_idc: 1
[h264 @ 0000000001f68180] nal_unit_type: 1, nal_ref_idc: 1
[h264 @ 0000000001f68180] nal_unit_type: 1, nal_ref_idc: 1
cur_dts is invalid (this is harmless if it occurs once at the start per stream)
[h264 @ 0000000001f68b20] nal_unit_type: 6, nal_ref_idc: 0
[h264 @ 0000000001f68b20] nal_unit_type: 1, nal_ref_idc: 1
[h264 @ 0000000001f68b20] nal_unit_type: 1, nal_ref_idc: 1
[h264 @ 0000000001f68b20] nal_unit_type: 1, nal_ref_idc: 1
[h264 @ 0000000001f68b20] nal_unit_type: 1, nal_ref_idc: 1
[h264 @ 0000000001f68b20] nal_unit_type: 1, nal_ref_idc: 1
cur_dts is invalid (this is harmless if it occurs once at the start per stream)
[h264 @ 0000000001f68660] nal_unit_type: 6, nal_ref_idc: 0
[h264 @ 0000000001f68660] nal_unit_type: 1, nal_ref_idc: 1
[h264 @ 0000000001f68660] nal_unit_type: 1, nal_ref_idc: 1
[h264 @ 0000000001f68660] nal_unit_type: 1, nal_ref_idc: 1
[h264 @ 0000000001f68660] nal_unit_type: 1, nal_ref_idc: 1
[h264 @ 0000000001f68660] nal_unit_type: 1, nal_ref_idc: 1
cur_dts is invalid (this is harmless if it occurs once at the start per stream)
[h264 @ 0000000001f6b680] nal_unit_type: 6, nal_ref_idc: 0
[h264 @ 0000000001f6b680] nal_unit_type: 1, nal_ref_idc: 1
[h264 @ 0000000001f6b680] nal_unit_type: 1, nal_ref_idc: 1
[h264 @ 0000000001f6b680] nal_unit_type: 1, nal_ref_idc: 1
[h264 @ 0000000001f6b680] nal_unit_type: 1, nal_ref_idc: 1
[h264 @ 0000000001f6b680] nal_unit_type: 1, nal_ref_idc: 1
[h264 @ 0000000001f69000] nal_unit_type: 6, nal_ref_idc: 0
[graph 0 input from stream 0:1 @ 000000000294f0e0] Setting 'video_size' to value '640x360'
[graph 0 input from stream 0:1 @ 000000000294f0e0] Setting 'pix_fmt' to value '0'
[h264 @ 0000000001f69000] nal_unit_type: 1, nal_ref_idc: 1
[graph 0 input from stream 0:1 @ 000000000294f0e0] Setting 'time_base' to value '1/600'
[h264 @ 0000000001f69000] nal_unit_type: 1, nal_ref_idc: 1
[graph 0 input from stream 0:1 @ 000000000294f0e0] Setting 'pixel_aspect' to value '0/1'
[h264 @ 0000000001f69000] nal_unit_type: 1, nal_ref_idc: 1
[graph 0 input from stream 0:1 @ 000000000294f0e0] Setting 'sws_param' to value 'flags=2'
[graph 0 input from stream 0:1 @ 000000000294f0e0] Setting 'frame_rate' to value '24/1'
[h264 @ 0000000001f69000] nal_unit_type: 1, nal_ref_idc: 1
[graph 0 input from stream 0:1 @ 000000000294f0e0] w:640 h:360 pixfmt:yuv420p tb:1/600 fr:24/1 sar:0/1 sws_param:flags=2
[h264 @ 0000000001f69000] nal_unit_type: 1, nal_ref_idc: 1
[format @ 000000000294f420] compat: called with args=[yuv420p|yuvj420p|yuv422p|yuvj422p|yuv444p|yuvj444p|nv12|nv16|nv21]
[format @ 000000000294f420] Setting 'pix_fmts' to value 'yuv420p|yuvj420p|yuv422p|yuvj422p|yuv444p|yuvj444p|nv12|nv16|nv21'
[AVFilterGraph @ 00000000053ee260] query_formats: 4 queried, 3 merged, 0 already done, 0 delayed
[libx264 @ 00000000026b3360] using mv_range_thread = 24
[libx264 @ 00000000026b3360] using cpu capabilities: MMX2 SSE2Fast SSSE3 SSE4.2 AVX
[libx264 @ 00000000026b3360] profile High, level 3.0
[libx264 @ 00000000026b3360] 264 - core 148 r2762 90a61ec - H.264/MPEG-4 AVC codec - Copyleft 2003-2017 - http://www.videolan.org/x264.html - options: cabac=1 ref=3 deblock=1:0:0 analyse=0x3:0x113 me=hex subme=7 psy=1 psy_rd=1.00:0.00 mixed_ref=1 me_range=16 chroma_me=1 trellis=1 8x8dct=1 cqm=0 deadzone=21,11 fast_pskip=1 chroma_qp_offset=-2 threads=11 lookahead_threads=1 sliced_threads=0 nr=0 decimate=1 interlaced=0 bluray_compat=0 constrained_intra=0 bframes=3 b_pyramid=2 b_adapt=1 b_bias=0 direct=1 weightb=1 open_gop=0 weightp=2 keyint=250 keyint_min=24 scenecut=40 intra_refresh=0 rc_lookahead=40 rc=crf mbtree=1 crf=23.0 qcomp=0.60 qpmin=0 qpmax=69 qpstep=4 ip_ratio=1.40 aq=1:1.00
Output #0, mp4, to 'x.mp4':
  Metadata:
    major_brand     : mp42
    minor_version   : 1
    compatible_brands: mp42avc1
    encoder         : Lavf57.72.101
    Stream #0:0(eng), 0, 1/12288: Video: h264 (libx264), 1 reference frame ([33][0][0][0] / 0x0021), yuv420p(topleft), 640x360, 0/1, q=-1--1, 24 fps, 12288 tbn, 24 tbc (default)
    Metadata:
      creation_time   : 2010-02-09T01:55:39.000000Z
      handler_name    : Apple Video Media Handler
      encoder         : Lavc57.96.101 libx264
    Side data:
      cpb: bitrate max/min/avg: 0/0/0 buffer size: 0 vbv_delay: -1
    Stream #0:1(eng), 0, 1/22050: Audio: aac (LC) ([64][0][0][0] / 0x0040), 22050 Hz, stereo, fltp, delay 1024, 128 kb/s (default)
    Metadata:
      creation_time   : 2010-02-09T01:55:39.000000Z
      handler_name    : Apple Sound Media Handler
      encoder         : Lavc57.96.101 aac
Clipping frame in rate conversion by 0.000008
cur_dts is invalid (this is harmless if it occurs once at the start per stream)
[h264 @ 0000000001f6b1a0] nal_unit_type: 6, nal_ref_idc: 0
[h264 @ 0000000001f6b1a0] nal_unit_type: 1, nal_ref_idc: 1
cur_dts is invalid (this is harmless if it occurs once at the start per stream)
[h264 @ 0000000001f6b1a0] nal_unit_type: 1, nal_ref_idc: 1
[h264 @ 0000000001f6b1a0] nal_unit_type: 1, nal_ref_idc: 1
[h264 @ 0000000001f6b1a0] nal_unit_type: 1, nal_ref_idc: 1
[h264 @ 0000000001f6b1a0] nal_unit_type: 1, nal_ref_idc: 1
[h264 @ 0000000001f6a340] nal_unit_type: 6, nal_ref_idc: 0
[h264 @ 0000000001f6a340] nal_unit_type: 1, nal_ref_idc: 1
[h264 @ 0000000001f6a340] nal_unit_type: 1, nal_ref_idc: 1
[h264 @ 0000000001f6a340] nal_unit_type: 1, nal_ref_idc: 1
cur_dts is invalid (this is harmless if it occurs once at the start per stream)
[h264 @ 0000000001f6a340] nal_unit_type: 1, nal_ref_idc: 1
[h264 @ 0000000001f6a340] nal_unit_type: 1, nal_ref_idc: 1
[h264 @ 0000000001f6a800] nal_unit_type: 6, nal_ref_idc: 0
[h264 @ 0000000001f6a800] nal_unit_type: 1, nal_ref_idc: 1
[h264 @ 0000000001f6a800] nal_unit_type: 1, nal_ref_idc: 1
[h264 @ 0000000001f6a800] nal_unit_type: 1, nal_ref_idc: 1
cur_dts is invalid (this is harmless if it occurs once at the start per stream)
[h264 @ 0000000001f6a800] nal_unit_type: 1, nal_ref_idc: 1
[h264 @ 0000000001f6a800] nal_unit_type: 1, nal_ref_idc: 1
cur_dts is invalid (this is harmless if it occurs once at the start per stream)
cur_dts is invalid (this is harmless if it occurs once at the start per stream)
cur_dts is invalid (this is harmless if it occurs once at the start per stream)
cur_dts is invalid (this is harmless if it occurs once at the start per stream)
cur_dts is invalid (this is harmless if it occurs once at the start per stream)
cur_dts is invalid (this is harmless if it occurs once at the start per stream)
cur_dts is invalid (this is harmless if it occurs once at the start per stream)
cur_dts is invalid (this is harmless if it occurs once at the start per stream)
cur_dts is invalid (this is harmless if it occurs once at the start per stream)
cur_dts is invalid (this is harmless if it occurs once at the start per stream)
cur_dts is invalid (this is harmless if it occurs once at the start per stream)
[h264 @ 0000000001f6bb40] nal_unit_type: 6, nal_ref_idc: 0
[h264 @ 0000000001f6bb40] nal_unit_type: 1, nal_ref_idc: 1
cur_dts is invalid (this is harmless if it occurs once at the start per stream)
[h264 @ 0000000001f6bb40] nal_unit_type: 1, nal_ref_idc: 1
[h264 @ 0000000001f6bb40] nal_unit_type: 1, nal_ref_idc: 1
[h264 @ 0000000001f6bb40] nal_unit_type: 1, nal_ref_idc: 1
[h264 @ 0000000001f6bb40] nal_unit_type: 1, nal_ref_idc: 1
[h264 @ 0000000001f68180] nal_unit_type: 6, nal_ref_idc: 0
[h264 @ 0000000001f68180] nal_unit_type: 1, nal_ref_idc: 1
cur_dts is invalid (this is harmless if it occurs once at the start per stream)
[h264 @ 0000000001f68180] nal_unit_type: 1, nal_ref_idc: 1
[h264 @ 0000000001f68180] nal_unit_type: 1, nal_ref_idc: 1
[h264 @ 0000000001f68180] nal_unit_type: 1, nal_ref_idc: 1
[h264 @ 0000000001f68180] nal_unit_type: 1, nal_ref_idc: 1
cur_dts is invalid (this is harmless if it occurs once at the start per stream)
[h264 @ 0000000001f68b20] nal_unit_type: 6, nal_ref_idc: 0
[h264 @ 0000000001f68b20] nal_unit_type: 1, nal_ref_idc: 1
[h264 @ 0000000001f68b20] nal_unit_type: 1, nal_ref_idc: 1
[h264 @ 0000000001f68b20] nal_unit_type: 1, nal_ref_idc: 1
[h264 @ 0000000001f68b20] nal_unit_type: 1, nal_ref_idc: 1
[h264 @ 0000000001f68b20] nal_unit_type: 1, nal_ref_idc: 1
[h264 @ 0000000001f68660] nal_unit_type: 6, nal_ref_idc: 0
cur_dts is invalid (this is harmless if it occurs once at the start per stream)
[h264 @ 0000000001f68660] nal_unit_type: 1, nal_ref_idc: 1
[h264 @ 0000000001f68660] nal_unit_type: 1, nal_ref_idc: 1
[h264 @ 0000000001f68660] nal_unit_type: 1, nal_ref_idc: 1
[h264 @ 0000000001f68660] nal_unit_type: 1, nal_ref_idc: 1
[h264 @ 0000000001f68660] nal_unit_type: 1, nal_ref_idc: 1
[h264 @ 0000000001f6b680] nal_unit_type: 6, nal_ref_idc: 0
[h264 @ 0000000001f6b680] nal_unit_type: 1, nal_ref_idc: 1
[h264 @ 0000000001f6b680] nal_unit_type: 1, nal_ref_idc: 1
[h264 @ 0000000001f6b680] nal_unit_type: 1, nal_ref_idc: 1
cur_dts is invalid (this is harmless if it occurs once at the start per stream)
[h264 @ 0000000001f6b680] nal_unit_type: 1, nal_ref_idc: 1
[h264 @ 0000000001f6b680] nal_unit_type: 1, nal_ref_idc: 1
[h264 @ 0000000001f69000] nal_unit_type: 6, nal_ref_idc: 0
[h264 @ 0000000001f69000] nal_unit_type: 1, nal_ref_idc: 1
cur_dts is invalid (this is harmless if it occurs once at the start per stream)
[h264 @ 0000000001f69000] nal_unit_type: 1, nal_ref_idc: 1
[h264 @ 0000000001f69000] nal_unit_type: 1, nal_ref_idc: 1
[h264 @ 0000000001f69000] nal_unit_type: 1, nal_ref_idc: 1
[h264 @ 0000000001f69000] nal_unit_type: 1, nal_ref_idc: 1
[h264 @ 0000000001f6b1a0] nal_unit_type: 6, nal_ref_idc: 0
[h264 @ 0000000001f6b1a0] nal_unit_type: 1, nal_ref_idc: 1
[h264 @ 0000000001f6b1a0] nal_unit_type: 1, nal_ref_idc: 1
[h264 @ 0000000001f6b1a0] nal_unit_type: 1, nal_ref_idc: 1
cur_dts is invalid (this is harmless if it occurs once at the start per stream)
[h264 @ 0000000001f6b1a0] nal_unit_type: 1, nal_ref_idc: 1
[h264 @ 0000000001f6b1a0] nal_unit_type: 1, nal_ref_idc: 1
[h264 @ 0000000001f6a340] nal_unit_type: 6, nal_ref_idc: 0
cur_dts is invalid (this is harmless if it occurs once at the start per stream)
[h264 @ 0000000001f6a340] nal_unit_type: 1, nal_ref_idc: 1
[h264 @ 0000000001f6a340] nal_unit_type: 1, nal_ref_idc: 1
[h264 @ 0000000001f6a340] nal_unit_type: 1, nal_ref_idc: 1
[h264 @ 0000000001f6a340] nal_unit_type: 1, nal_ref_idc: 1
[h264 @ 0000000001f6a340] nal_unit_type: 1, nal_ref_idc: 1
[h264 @ 0000000001f6a800] nal_unit_type: 6, nal_ref_idc: 0
[h264 @ 0000000001f6a800] nal_unit_type: 1, nal_ref_idc: 1
[h264 @ 0000000001f6a800] nal_unit_type: 1, nal_ref_idc: 1
[h264 @ 0000000001f6a800] nal_unit_type: 1, nal_ref_idc: 1
cur_dts is invalid (this is harmless if it occurs once at the start per stream)
[h264 @ 0000000001f6a800] nal_unit_type: 1, nal_ref_idc: 1
[h264 @ 0000000001f6a800] nal_unit_type: 1, nal_ref_idc: 1
[h264 @ 0000000001f6bb40] nal_unit_type: 6, nal_ref_idc: 0
[h264 @ 0000000001f6bb40] nal_unit_type: 1, nal_ref_idc: 1
[h264 @ 0000000001f6bb40] nal_unit_type: 1, nal_ref_idc: 1
[h264 @ 0000000001f6bb40] nal_unit_type: 1, nal_ref_idc: 1
cur_dts is invalid (this is harmless if it occurs once at the start per stream)
[h264 @ 0000000001f6bb40] nal_unit_type: 1, nal_ref_idc: 1
[h264 @ 0000000001f6bb40] nal_unit_type: 1, nal_ref_idc: 1
[h264 @ 0000000001f68180] nal_unit_type: 6, nal_ref_idc: 0
cur_dts is invalid (this is harmless if it occurs once at the start per stream)
[h264 @ 0000000001f68180] nal_unit_type: 1, nal_ref_idc: 1
[h264 @ 0000000001f68180] nal_unit_type: 1, nal_ref_idc: 1
[h264 @ 0000000001f68180] nal_unit_type: 1, nal_ref_idc: 1
[h264 @ 0000000001f68180] nal_unit_type: 1, nal_ref_idc: 1
[h264 @ 0000000001f68180] nal_unit_type: 1, nal_ref_idc: 1
[h264 @ 0000000001f68b20] nal_unit_type: 6, nal_ref_idc: 0
[h264 @ 0000000001f68b20] nal_unit_type: 1, nal_ref_idc: 1
[h264 @ 0000000001f68b20] nal_unit_type: 1, nal_ref_idc: 1
[h264 @ 0000000001f68b20] nal_unit_type: 1, nal_ref_idc: 1
cur_dts is invalid (this is harmless if it occurs once at the start per stream)
[h264 @ 0000000001f68b20] nal_unit_type: 1, nal_ref_idc: 1
[h264 @ 0000000001f68b20] nal_unit_type: 1, nal_ref_idc: 1
cur_dts is invalid (this is harmless if it occurs once at the start per stream)
cur_dts is invalid (this is harmless if it occurs once at the start per stream)
cur_dts is invalid (this is harmless if it occurs once at the start per stream)
cur_dts is invalid (this is harmless if it occurs once at the start per stream)
cur_dts is invalid (this is harmless if it occurs once at the start per stream)
cur_dts is invalid (this is harmless if it occurs once at the start per stream)
cur_dts is invalid (this is harmless if it occurs once at the start per stream)
cur_dts is invalid (this is harmless if it occurs once at the start per stream)
cur_dts is invalid (this is harmless if it occurs once at the start per stream)
cur_dts is invalid (this is harmless if it occurs once at the start per stream)
cur_dts is invalid (this is harmless if it occurs once at the start per stream)
[h264 @ 0000000001f68660] nal_unit_type: 6, nal_ref_idc: 0
[h264 @ 0000000001f68660] nal_unit_type: 1, nal_ref_idc: 1
cur_dts is invalid (this is harmless if it occurs once at the start per stream)
[h264 @ 0000000001f68660] nal_unit_type: 1, nal_ref_idc: 1
[h264 @ 0000000001f68660] nal_unit_type: 1, nal_ref_idc: 1
[h264 @ 0000000001f68660] nal_unit_type: 1, nal_ref_idc: 1
[h264 @ 0000000001f68660] nal_unit_type: 1, nal_ref_idc: 1
[h264 @ 0000000001f6b680] nal_unit_type: 6, nal_ref_idc: 0
[h264 @ 0000000001f6b680] nal_unit_type: 1, nal_ref_idc: 1
[h264 @ 0000000001f6b680] nal_unit_type: 1, nal_ref_idc: 1
[h264 @ 0000000001f6b680] nal_unit_type: 1, nal_ref_idc: 1
cur_dts is invalid (this is harmless if it occurs once at the start per stream)
[h264 @ 0000000001f6b680] nal_unit_type: 1, nal_ref_idc: 1
[h264 @ 0000000001f6b680] nal_unit_type: 1, nal_ref_idc: 1
[h264 @ 0000000001f69000] nal_unit_type: 6, nal_ref_idc: 0
cur_dts is invalid (this is harmless if it occurs once at the start per stream)
[h264 @ 0000000001f69000] nal_unit_type: 1, nal_ref_idc: 1
[h264 @ 0000000001f69000] nal_unit_type: 1, nal_ref_idc: 1
[h264 @ 0000000001f69000] nal_unit_type: 1, nal_ref_idc: 1
[h264 @ 0000000001f69000] nal_unit_type: 1, nal_ref_idc: 1
[h264 @ 0000000001f69000] nal_unit_type: 1, nal_ref_idc: 1
[h264 @ 0000000001f6b1a0] nal_unit_type: 6, nal_ref_idc: 0
[h264 @ 0000000001f6b1a0] nal_unit_type: 1, nal_ref_idc: 1
[h264 @ 0000000001f6b1a0] nal_unit_type: 1, nal_ref_idc: 1
[h264 @ 0000000001f6b1a0] nal_unit_type: 1, nal_ref_idc: 1
cur_dts is invalid (this is harmless if it occurs once at the start per stream)
[h264 @ 0000000001f6b1a0] nal_unit_type: 1, nal_ref_idc: 1
[h264 @ 0000000001f6b1a0] nal_unit_type: 1, nal_ref_idc: 1
[h264 @ 0000000001f6a340] nal_unit_type: 6, nal_ref_idc: 0
[h264 @ 0000000001f6a340] nal_unit_type: 1, nal_ref_idc: 1
[h264 @ 0000000001f6a340] nal_unit_type: 1, nal_ref_idc: 1
[h264 @ 0000000001f6a340] nal_unit_type: 1, nal_ref_idc: 1
cur_dts is invalid (this is harmless if it occurs once at the start per stream)
[h264 @ 0000000001f6a340] nal_unit_type: 1, nal_ref_idc: 1
[h264 @ 0000000001f6a340] nal_unit_type: 1, nal_ref_idc: 1
[h264 @ 0000000001f6a800] nal_unit_type: 6, nal_ref_idc: 0
[h264 @ 0000000001f6a800] nal_unit_type: 1, nal_ref_idc: 1
cur_dts is invalid (this is harmless if it occurs once at the start per stream)
[h264 @ 0000000001f6a800] nal_unit_type: 1, nal_ref_idc: 1
[h264 @ 0000000001f6a800] nal_unit_type: 1, nal_ref_idc: 1
[h264 @ 0000000001f6a800] nal_unit_type: 1, nal_ref_idc: 1
[h264 @ 0000000001f6a800] nal_unit_type: 1, nal_ref_idc: 1
[h264 @ 0000000001f6bb40] nal_unit_type: 6, nal_ref_idc: 0
[h264 @ 0000000001f6bb40] nal_unit_type: 1, nal_ref_idc: 1
[h264 @ 0000000001f6bb40] nal_unit_type: 1, nal_ref_idc: 1
[h264 @ 0000000001f6bb40] nal_unit_type: 1, nal_ref_idc: 1
cur_dts is invalid (this is harmless if it occurs once at the start per stream)
[h264 @ 0000000001f6bb40] nal_unit_type: 1, nal_ref_idc: 1
[h264 @ 0000000001f6bb40] nal_unit_type: 1, nal_ref_idc: 1
[h264 @ 0000000001f68180] nal_unit_type: 6, nal_ref_idc: 0
[h264 @ 0000000001f68180] nal_unit_type: 1, nal_ref_idc: 1
[h264 @ 0000000001f68180] nal_unit_type: 1, nal_ref_idc: 1
[h264 @ 0000000001f68180] nal_unit_type: 1, nal_ref_idc: 1
cur_dts is invalid (this is harmless if it occurs once at the start per stream)
[h264 @ 0000000001f68180] nal_unit_type: 1, nal_ref_idc: 1
[h264 @ 0000000001f68180] nal_unit_type: 1, nal_ref_idc: 1
[h264 @ 0000000001f68b20] nal_unit_type: 6, nal_ref_idc: 0
[h264 @ 0000000001f68b20] nal_unit_type: 1, nal_ref_idc: 1
[h264 @ 0000000001f68b20] nal_unit_type: 1, nal_ref_idc: 1
[h264 @ 0000000001f68b20] nal_unit_type: 1, nal_ref_idc: 1
cur_dts is invalid (this is harmless if it occurs once at the start per stream)
[h264 @ 0000000001f68b20] nal_unit_type: 1, nal_ref_idc: 1
[h264 @ 0000000001f68b20] nal_unit_type: 1, nal_ref_idc: 1
[h264 @ 0000000001f68660] nal_unit_type: 6, nal_ref_idc: 0
[h264 @ 0000000001f68660] nal_unit_type: 1, nal_ref_idc: 1
[h264 @ 0000000001f68660] nal_unit_type: 1, nal_ref_idc: 1
[h264 @ 0000000001f68660] nal_unit_type: 1, nal_ref_idc: 1
cur_dts is invalid (this is harmless if it occurs once at the start per stream)
[h264 @ 0000000001f68660] nal_unit_type: 1, nal_ref_idc: 1
[h264 @ 0000000001f68660] nal_unit_type: 1, nal_ref_idc: 1
[h264 @ 0000000001f6b680] nal_unit_type: 6, nal_ref_idc: 0
[h264 @ 0000000001f6b680] nal_unit_type: 1, nal_ref_idc: 1
cur_dts is invalid (this is harmless if it occurs once at the start per stream)
[h264 @ 0000000001f6b680] nal_unit_type: 1, nal_ref_idc: 1
[h264 @ 0000000001f6b680] nal_unit_type: 1, nal_ref_idc: 1
[h264 @ 0000000001f6b680] nal_unit_type: 1, nal_ref_idc: 1
[h264 @ 0000000001f6b680] nal_unit_type: 1, nal_ref_idc: 1
[h264 @ 0000000001f69000] nal_unit_type: 6, nal_ref_idc: 0
[h264 @ 0000000001f69000] nal_unit_type: 1, nal_ref_idc: 1
[h264 @ 0000000001f69000] nal_unit_type: 1, nal_ref_idc: 1
[h264 @ 0000000001f69000] nal_unit_type: 1, nal_ref_idc: 1
[h264 @ 0000000001f69000] nal_unit_type: 1, nal_ref_idc: 1
cur_dts is invalid (this is harmless if it occurs once at the start per stream)
[h264 @ 0000000001f69000] nal_unit_type: 1, nal_ref_idc: 1
cur_dts is invalid (this is harmless if it occurs once at the start per stream)
cur_dts is invalid (this is harmless if it occurs once at the start per stream)
cur_dts is invalid (this is harmless if it occurs once at the start per stream)
cur_dts is invalid (this is harmless if it occurs once at the start per stream)
cur_dts is invalid (this is harmless if it occurs once at the start per stream)
cur_dts is invalid (this is harmless if it occurs once at the start per stream)
cur_dts is invalid (this is harmless if it occurs once at the start per stream)
cur_dts is invalid (this is harmless if it occurs once at the start per stream)
cur_dts is invalid (this is harmless if it occurs once at the start per stream)
cur_dts is invalid (this is harmless if it occurs once at the start per stream)
cur_dts is invalid (this is harmless if it occurs once at the start per stream)
[h264 @ 0000000001f6b1a0] nal_unit_type: 6, nal_ref_idc: 0
cur_dts is invalid (this is harmless if it occurs once at the start per stream)
[h264 @ 0000000001f6b1a0] nal_unit_type: 1, nal_ref_idc: 1
[h264 @ 0000000001f6b1a0] nal_unit_type: 1, nal_ref_idc: 1
[h264 @ 0000000001f6b1a0] nal_unit_type: 1, nal_ref_idc: 1
[h264 @ 0000000001f6b1a0] nal_unit_type: 1, nal_ref_idc: 1
[h264 @ 0000000001f6b1a0] nal_unit_type: 1, nal_ref_idc: 1
[h264 @ 0000000001f6a340] nal_unit_type: 6, nal_ref_idc: 0
[h264 @ 0000000001f6a340] nal_unit_type: 1, nal_ref_idc: 1
[h264 @ 0000000001f6a340] nal_unit_type: 1, nal_ref_idc: 1
[h264 @ 0000000001f6a340] nal_unit_type: 1, nal_ref_idc: 1
cur_dts is invalid (this is harmless if it occurs once at the start per stream)
[h264 @ 0000000001f6a340] nal_unit_type: 1, nal_ref_idc: 1
[h264 @ 0000000001f6a340] nal_unit_type: 1, nal_ref_idc: 1
[h264 @ 0000000001f6a800] nal_unit_type: 6, nal_ref_idc: 0
[h264 @ 0000000001f6a800] nal_unit_type: 1, nal_ref_idc: 1
[h264 @ 0000000001f6a800] nal_unit_type: 1, nal_ref_idc: 1
[h264 @ 0000000001f6a800] nal_unit_type: 1, nal_ref_idc: 1
cur_dts is invalid (this is harmless if it occurs once at the start per stream)
[h264 @ 0000000001f6a800] nal_unit_type: 1, nal_ref_idc: 1
[h264 @ 0000000001f6a800] nal_unit_type: 1, nal_ref_idc: 1
[h264 @ 0000000001f6bb40] nal_unit_type: 6, nal_ref_idc: 0
[h264 @ 0000000001f6bb40] nal_unit_type: 1, nal_ref_idc: 1
[h264 @ 0000000001f6bb40] nal_unit_type: 1, nal_ref_idc: 1
frame=   32 fps=0.0 q=0.0 size=       0kB time=00:00:01.95 bitrate=   0.0kbits/s speed=3.71x    
[h264 @ 0000000001f6bb40] nal_unit_type: 1, nal_ref_idc: 1
cur_dts is invalid (this is harmless if it occurs once at the start per stream)
[h264 @ 0000000001f6bb40] nal_unit_type: 1, nal_ref_idc: 1
[h264 @ 0000000001f6bb40] nal_unit_type: 1, nal_ref_idc: 1
[h264 @ 0000000001f68180] nal_unit_type: 6, nal_ref_idc: 0
[h264 @ 0000000001f68180] nal_unit_type: 1, nal_ref_idc: 1
[h264 @ 0000000001f68180] nal_unit_type: 1, nal_ref_idc: 1
[h264 @ 0000000001f68180] nal_unit_type: 1, nal_ref_idc: 1
cur_dts is invalid (this is harmless if it occurs once at the start per stream)
[h264 @ 0000000001f68180] nal_unit_type: 1, nal_ref_idc: 1
[h264 @ 0000000001f68180] nal_unit_type: 1, nal_ref_idc: 1
[h264 @ 0000000001f68b20] nal_unit_type: 6, nal_ref_idc: 0
[h264 @ 0000000001f68b20] nal_unit_type: 1, nal_ref_idc: 1
[h264 @ 0000000001f68b20] nal_unit_type: 1, nal_ref_idc: 1
[h264 @ 0000000001f68b20] nal_unit_type: 1, nal_ref_idc: 1
cur_dts is invalid (this is harmless if it occurs once at the start per stream)
[h264 @ 0000000001f68b20] nal_unit_type: 1, nal_ref_idc: 1
[h264 @ 0000000001f68b20] nal_unit_type: 1, nal_ref_idc: 1
[h264 @ 0000000001f68660] nal_unit_type: 6, nal_ref_idc: 0
cur_dts is invalid (this is harmless if it occurs once at the start per stream)
[h264 @ 0000000001f68660] nal_unit_type: 1, nal_ref_idc: 1
[h264 @ 0000000001f68660] nal_unit_type: 1, nal_ref_idc: 1
[h264 @ 0000000001f68660] nal_unit_type: 1, nal_ref_idc: 1
[h264 @ 0000000001f68660] nal_unit_type: 1, nal_ref_idc: 1
[h264 @ 0000000001f68660] nal_unit_type: 1, nal_ref_idc: 1
[h264 @ 0000000001f6b680] nal_unit_type: 6, nal_ref_idc: 0
[h264 @ 0000000001f6b680] nal_unit_type: 1, nal_ref_idc: 1
[h264 @ 0000000001f6b680] nal_unit_type: 1, nal_ref_idc: 1
[h264 @ 0000000001f6b680] nal_unit_type: 1, nal_ref_idc: 1
cur_dts is invalid (this is harmless if it occurs once at the start per stream)
[h264 @ 0000000001f6b680] nal_unit_type: 1, nal_ref_idc: 1
[h264 @ 0000000001f6b680] nal_unit_type: 1, nal_ref_idc: 1
[h264 @ 0000000001f69000] nal_unit_type: 6, nal_ref_idc: 0
[h264 @ 0000000001f69000] nal_unit_type: 1, nal_ref_idc: 1
[h264 @ 0000000001f69000] nal_unit_type: 1, nal_ref_idc: 1
[h264 @ 0000000001f69000] nal_unit_type: 1, nal_ref_idc: 1
cur_dts is invalid (this is harmless if it occurs once at the start per stream)
[h264 @ 0000000001f69000] nal_unit_type: 1, nal_ref_idc: 1
[h264 @ 0000000001f69000] nal_unit_type: 1, nal_ref_idc: 1
[h264 @ 0000000001f6b1a0] nal_unit_type: 6, nal_ref_idc: 0
[h264 @ 0000000001f6b1a0] nal_unit_type: 1, nal_ref_idc: 1
[h264 @ 0000000001f6b1a0] nal_unit_type: 1, nal_ref_idc: 1
[h264 @ 0000000001f6b1a0] nal_unit_type: 1, nal_ref_idc: 1
cur_dts is invalid (this is harmless if it occurs once at the start per stream)
[h264 @ 0000000001f6b1a0] nal_unit_type: 1, nal_ref_idc: 1
[h264 @ 0000000001f6b1a0] nal_unit_type: 1, nal_ref_idc: 1
[h264 @ 0000000001f6a340] nal_unit_type: 6, nal_ref_idc: 0
[h264 @ 0000000001f6a340] nal_unit_type: 1, nal_ref_idc: 1
[h264 @ 0000000001f6a340] nal_unit_type: 1, nal_ref_idc: 1
[h264 @ 0000000001f6a340] nal_unit_type: 1, nal_ref_idc: 1
cur_dts is invalid (this is harmless if it occurs once at the start per stream)
[h264 @ 0000000001f6a340] nal_unit_type: 1, nal_ref_idc: 1
[h264 @ 0000000001f6a340] nal_unit_type: 1, nal_ref_idc: 1
[h264 @ 0000000001f6a800] nal_unit_type: 6, nal_ref_idc: 0
[h264 @ 0000000001f6a800] nal_unit_type: 1, nal_ref_idc: 1
[h264 @ 0000000001f6a800] nal_unit_type: 1, nal_ref_idc: 1
[h264 @ 0000000001f6a800] nal_unit_type: 1, nal_ref_idc: 1
cur_dts is invalid (this is harmless if it occurs once at the start per stream)
[h264 @ 0000000001f6a800] nal_unit_type: 1, nal_ref_idc: 1
[h264 @ 0000000001f6a800] nal_unit_type: 1, nal_ref_idc: 1
cur_dts is invalid (this is harmless if it occurs once at the start per stream)
cur_dts is invalid (this is harmless if it occurs once at the start per stream)
cur_dts is invalid (this is harmless if it occurs once at the start per stream)
cur_dts is invalid (this is harmless if it occurs once at the start per stream)
cur_dts is invalid (this is harmless if it occurs once at the start per stream)
cur_dts is invalid (this is harmless if it occurs once at the start per stream)
cur_dts is invalid (this is harmless if it occurs once at the start per stream)
cur_dts is invalid (this is harmless if it occurs once at the start per stream)
cur_dts is invalid (this is harmless if it occurs once at the start per stream)
cur_dts is invalid (this is harmless if it occurs once at the start per stream)
[h264 @ 0000000001f6bb40] nal_unit_type: 6, nal_ref_idc: 0
[h264 @ 0000000001f6bb40] nal_unit_type: 1, nal_ref_idc: 1
[h264 @ 0000000001f6bb40] nal_unit_type: 1, nal_ref_idc: 1
[h264 @ 0000000001f6bb40] nal_unit_type: 1, nal_ref_idc: 1
cur_dts is invalid (this is harmless if it occurs once at the start per stream)
[h264 @ 0000000001f6bb40] nal_unit_type: 1, nal_ref_idc: 1
[h264 @ 0000000001f6bb40] nal_unit_type: 1, nal_ref_idc: 1
[h264 @ 0000000001f68180] nal_unit_type: 6, nal_ref_idc: 0
[h264 @ 0000000001f68180] nal_unit_type: 1, nal_ref_idc: 1
[h264 @ 0000000001f68180] nal_unit_type: 1, nal_ref_idc: 1
cur_dts is invalid (this is harmless if it occurs once at the start per stream)
[h264 @ 0000000001f68180] nal_unit_type: 1, nal_ref_idc: 1
[h264 @ 0000000001f68180] nal_unit_type: 1, nal_ref_idc: 1
[h264 @ 0000000001f68180] nal_unit_type: 1, nal_ref_idc: 1
[h264 @ 0000000001f68b20] nal_unit_type: 6, nal_ref_idc: 0
cur_dts is invalid (this is harmless if it occurs once at the start per stream)
[h264 @ 0000000001f68b20] nal_unit_type: 1, nal_ref_idc: 1
[h264 @ 0000000001f68b20] nal_unit_type: 1, nal_ref_idc: 1
[h264 @ 0000000001f68b20] nal_unit_type: 1, nal_ref_idc: 1
[h264 @ 0000000001f68b20] nal_unit_type: 1, nal_ref_idc: 1
[h264 @ 0000000001f68b20] nal_unit_type: 1, nal_ref_idc: 1
[h264 @ 0000000001f68660] nal_unit_type: 6, nal_ref_idc: 0
[h264 @ 0000000001f68660] nal_unit_type: 1, nal_ref_idc: 1
[h264 @ 0000000001f68660] nal_unit_type: 1, nal_ref_idc: 1
[h264 @ 0000000001f68660] nal_unit_type: 1, nal_ref_idc: 1
cur_dts is invalid (this is harmless if it occurs once at the start per stream)
[h264 @ 0000000001f68660] nal_unit_type: 1, nal_ref_idc: 1
[h264 @ 0000000001f68660] nal_unit_type: 1, nal_ref_idc: 1
cur_dts is invalid (this is harmless if it occurs once at the start per stream)
[h264 @ 0000000001f6b680] nal_unit_type: 6, nal_ref_idc: 0
[h264 @ 0000000001f6b680] nal_unit_type: 1, nal_ref_idc: 1
[h264 @ 0000000001f6b680] nal_unit_type: 1, nal_ref_idc: 1
[h264 @ 0000000001f6b680] nal_unit_type: 1, nal_ref_idc: 1
[h264 @ 0000000001f6b680] nal_unit_type: 1, nal_ref_idc: 1
[h264 @ 0000000001f6b680] nal_unit_type: 1, nal_ref_idc: 1
[h264 @ 0000000001f69000] nal_unit_type: 6, nal_ref_idc: 0
[h264 @ 0000000001f69000] nal_unit_type: 1, nal_ref_idc: 1
[h264 @ 0000000001f69000] nal_unit_type: 1, nal_ref_idc: 1
[h264 @ 0000000001f69000] nal_unit_type: 1, nal_ref_idc: 1
[h264 @ 0000000001f69000] nal_unit_type: 1, nal_ref_idc: 1
[h264 @ 0000000001f69000] nal_unit_type: 1, nal_ref_idc: 1
cur_dts is invalid (this is harmless if it occurs once at the start per stream)
[h264 @ 0000000001f6b1a0] nal_unit_type: 6, nal_ref_idc: 0
[h264 @ 0000000001f6b1a0] nal_unit_type: 1, nal_ref_idc: 1
[h264 @ 0000000001f6b1a0] nal_unit_type: 1, nal_ref_idc: 1
[h264 @ 0000000001f6b1a0] nal_unit_type: 1, nal_ref_idc: 1
cur_dts is invalid (this is harmless if it occurs once at the start per stream)
[h264 @ 0000000001f6b1a0] nal_unit_type: 1, nal_ref_idc: 1
[h264 @ 0000000001f6b1a0] nal_unit_type: 1, nal_ref_idc: 1
[h264 @ 0000000001f6a340] nal_unit_type: 6, nal_ref_idc: 0
cur_dts is invalid (this is harmless if it occurs once at the start per stream)
[h264 @ 0000000001f6a340] nal_unit_type: 1, nal_ref_idc: 1
[h264 @ 0000000001f6a340] nal_unit_type: 1, nal_ref_idc: 1
[h264 @ 0000000001f6a340] nal_unit_type: 1, nal_ref_idc: 1
[h264 @ 0000000001f6a340] nal_unit_type: 1, nal_ref_idc: 1
[h264 @ 0000000001f6a340] nal_unit_type: 1, nal_ref_idc: 1
cur_dts is invalid (this is harmless if it occurs once at the start per stream)
[h264 @ 0000000001f6a800] nal_unit_type: 6, nal_ref_idc: 0
[h264 @ 0000000001f6a800] nal_unit_type: 1, nal_ref_idc: 1
[h264 @ 0000000001f6a800] nal_unit_type: 1, nal_ref_idc: 1
[h264 @ 0000000001f6a800] nal_unit_type: 1, nal_ref_idc: 1
[h264 @ 0000000001f6a800] nal_unit_type: 1, nal_ref_idc: 1
[h264 @ 0000000001f6a800] nal_unit_type: 1, nal_ref_idc: 1
cur_dts is invalid (this is harmless if it occurs once at the start per stream)
[h264 @ 0000000001f6bb40] nal_unit_type: 6, nal_ref_idc: 0
[h264 @ 0000000001f6bb40] nal_unit_type: 1, nal_ref_idc: 1
[h264 @ 0000000001f6bb40] nal_unit_type: 1, nal_ref_idc: 1
[h264 @ 0000000001f6bb40] nal_unit_type: 1, nal_ref_idc: 1
[h264 @ 0000000001f6bb40] nal_unit_type: 1, nal_ref_idc: 1
[h264 @ 0000000001f6bb40] nal_unit_type: 1, nal_ref_idc: 1
cur_dts is invalid (this is harmless if it occurs once at the start per stream)
[h264 @ 0000000001f68180] nal_unit_type: 6, nal_ref_idc: 0
[h264 @ 0000000001f68180] nal_unit_type: 1, nal_ref_idc: 1
[h264 @ 0000000001f68180] nal_unit_type: 1, nal_ref_idc: 1
[h264 @ 0000000001f68180] nal_unit_type: 1, nal_ref_idc: 1
[h264 @ 0000000001f68180] nal_unit_type: 1, nal_ref_idc: 1
[h264 @ 0000000001f68180] nal_unit_type: 1, nal_ref_idc: 1
cur_dts is invalid (this is harmless if it occurs once at the start per stream)
[h264 @ 0000000001f68b20] nal_unit_type: 6, nal_ref_idc: 0
[h264 @ 0000000001f68b20] nal_unit_type: 1, nal_ref_idc: 1
[h264 @ 0000000001f68b20] nal_unit_type: 1, nal_ref_idc: 1
[h264 @ 0000000001f68b20] nal_unit_type: 1, nal_ref_idc: 1
[h264 @ 0000000001f68b20] nal_unit_type: 1, nal_ref_idc: 1
[h264 @ 0000000001f68b20] nal_unit_type: 1, nal_ref_idc: 1
cur_dts is invalid (this is harmless if it occurs once at the start per stream)
cur_dts is invalid (this is harmless if it occurs once at the start per stream)
cur_dts is invalid (this is harmless if it occurs once at the start per stream)
cur_dts is invalid (this is harmless if it occurs once at the start per stream)
cur_dts is invalid (this is harmless if it occurs once at the start per stream)
cur_dts is invalid (this is harmless if it occurs once at the start per stream)
cur_dts is invalid (this is harmless if it occurs once at the start per stream)
cur_dts is invalid (this is harmless if it occurs once at the start per stream)
cur_dts is invalid (this is harmless if it occurs once at the start per stream)
cur_dts is invalid (this is harmless if it occurs once at the start per stream)
cur_dts is invalid (this is harmless if it occurs once at the start per stream)
[h264 @ 0000000001f68660] nal_unit_type: 6, nal_ref_idc: 0
[h264 @ 0000000001f68660] nal_unit_type: 1, nal_ref_idc: 1
[h264 @ 0000000001f68660] nal_unit_type: 1, nal_ref_idc: 1
[h264 @ 0000000001f68660] nal_unit_type: 1, nal_ref_idc: 1
cur_dts is invalid (this is harmless if it occurs once at the start per stream)
[h264 @ 0000000001f68660] nal_unit_type: 1, nal_ref_idc: 1
[h264 @ 0000000001f68660] nal_unit_type: 1, nal_ref_idc: 1
[h264 @ 0000000001f6b680] nal_unit_type: 6, nal_ref_idc: 0
[h264 @ 0000000001f6b680] nal_unit_type: 1, nal_ref_idc: 1
[h264 @ 0000000001f6b680] nal_unit_type: 1, nal_ref_idc: 1
[h264 @ 0000000001f6b680] nal_unit_type: 1, nal_ref_idc: 1
cur_dts is invalid (this is harmless if it occurs once at the start per stream)
[h264 @ 0000000001f6b680] nal_unit_type: 1, nal_ref_idc: 1
[h264 @ 0000000001f6b680] nal_unit_type: 1, nal_ref_idc: 1
[h264 @ 0000000001f69000] nal_unit_type: 6, nal_ref_idc: 0
[h264 @ 0000000001f69000] nal_unit_type: 1, nal_ref_idc: 1
[h264 @ 0000000001f69000] nal_unit_type: 1, nal_ref_idc: 1
[h264 @ 0000000001f69000] nal_unit_type: 1, nal_ref_idc: 1
cur_dts is invalid (this is harmless if it occurs once at the start per stream)
[h264 @ 0000000001f69000] nal_unit_type: 1, nal_ref_idc: 1
[h264 @ 0000000001f69000] nal_unit_type: 1, nal_ref_idc: 1
[h264 @ 0000000001f6b1a0] nal_unit_type: 6, nal_ref_idc: 0
[h264 @ 0000000001f6b1a0] nal_unit_type: 1, nal_ref_idc: 1
[h264 @ 0000000001f6b1a0] nal_unit_type: 1, nal_ref_idc: 1
[h264 @ 0000000001f6b1a0] nal_unit_type: 1, nal_ref_idc: 1
[libx264 @ 00000000026b3360] frame=   0 QP=29.25 NAL=3 Slice:I Poc:0   I:920  P:0    SKIP:0    size=25925 bytes
[h264 @ 0000000001f6b1a0] nal_unit_type: 1, nal_ref_idc: 1
[h264 @ 0000000001f6b1a0] nal_unit_type: 1, nal_ref_idc: 1
[h264 @ 0000000001f6a340] nal_unit_type: 6, nal_ref_idc: 0
[h264 @ 0000000001f6a340] nal_unit_type: 5, nal_ref_idc: 1
[libx264 @ 00000000026b3360] frame=   1 QP=14.98 NAL=2 Slice:P Poc:6   I:79   P:2    SKIP:839  size=89 bytes
[h264 @ 0000000001f6a340] nal_unit_type: 5, nal_ref_idc: 1
[h264 @ 0000000001f6a340] nal_unit_type: 5, nal_ref_idc: 1
[h264 @ 0000000001f6a340] nal_unit_type: 5, nal_ref_idc: 1
[h264 @ 0000000001f6a340] nal_unit_type: 5, nal_ref_idc: 1
[libx264 @ 00000000026b3360] frame=   2 QP=18.00 NAL=2 Slice:B Poc:2   I:10   P:1    SKIP:909  size=61 bytes
[h264 @ 0000000001f6a800] nal_unit_type: 6, nal_ref_idc: 0
[h264 @ 0000000001f6a800] nal_unit_type: 1, nal_ref_idc: 1
[h264 @ 0000000001f6a800] nal_unit_type: 1, nal_ref_idc: 1
[h264 @ 0000000001f6a800] nal_unit_type: 1, nal_ref_idc: 1
[h264 @ 0000000001f6a800] nal_unit_type: 1, nal_ref_idc: 1
[h264 @ 0000000001f6a800] nal_unit_type: 1, nal_ref_idc: 1
[h264 @ 0000000001f6bb40] nal_unit_type: 6, nal_ref_idc: 0
[h264 @ 0000000001f6bb40] nal_unit_type: 1, nal_ref_idc: 1
[h264 @ 0000000001f6bb40] nal_unit_type: 1, nal_ref_idc: 1
[libx264 @ 00000000026b3360] frame=   3 QP=18.00 NAL=0 Slice:B Poc:4   I:0    P:28   SKIP:892  size=43 bytes
[h264 @ 0000000001f6bb40] nal_unit_type: 1, nal_ref_idc: 1
[h264 @ 0000000001f6bb40] nal_unit_type: 1, nal_ref_idc: 1
[h264 @ 0000000001f6bb40] nal_unit_type: 1, nal_ref_idc: 1
[h264 @ 0000000001f68180] nal_unit_type: 6, nal_ref_idc: 0
[h264 @ 0000000001f68180] nal_unit_type: 1, nal_ref_idc: 1
[libx264 @ 00000000026b3360] frame=   4 QP=18.11 NAL=2 Slice:P Poc:10  I:694  P:6    SKIP:220  size=299 bytes
[h264 @ 0000000001f68180] nal_unit_type: 1, nal_ref_idc: 1
[h264 @ 0000000001f68180] nal_unit_type: 1, nal_ref_idc: 1
[h264 @ 0000000001f68180] nal_unit_type: 1, nal_ref_idc: 1
[h264 @ 0000000001f68180] nal_unit_type: 1, nal_ref_idc: 1
[h264 @ 0000000001f68b20] nal_unit_type: 6, nal_ref_idc: 0
[h264 @ 0000000001f68b20] nal_unit_type: 1, nal_ref_idc: 1
[libx264 @ 00000000026b3360] frame=   5 QP=18.00 NAL=0 Slice:B Poc:8   I:17   P:133  SKIP:770  size=174 bytes
[h264 @ 0000000001f68b20] nal_unit_type: 1, nal_ref_idc: 1
[h264 @ 0000000001f68b20] nal_unit_type: 1, nal_ref_idc: 1
[h264 @ 0000000001f68b20] nal_unit_type: 1, nal_ref_idc: 1
[h264 @ 0000000001f68b20] nal_unit_type: 1, nal_ref_idc: 1
[h264 @ 0000000001f68660] nal_unit_type: 6, nal_ref_idc: 0
[h264 @ 0000000001f68660] nal_unit_type: 1, nal_ref_idc: 1
[libx264 @ 00000000026b3360] frame=   6 QP=18.45 NAL=2 Slice:P Poc:12  I:389  P:88   SKIP:443  size=465 bytes
[h264 @ 0000000001f68660] nal_unit_type: 1, nal_ref_idc: 1
[h264 @ 0000000001f68660] nal_unit_type: 1, nal_ref_idc: 1
[h264 @ 0000000001f68660] nal_unit_type: 1, nal_ref_idc: 1
[h264 @ 0000000001f68660] nal_unit_type: 1, nal_ref_idc: 1
[h264 @ 0000000001f6b680] nal_unit_type: 6, nal_ref_idc: 0
[libx264 @ 00000000026b3360] frame=   7 QP=17.44 NAL=2 Slice:P Poc:14  I:737  P:36   SKIP:147  size=472 bytes
[h264 @ 0000000001f6b680] nal_unit_type: 1, nal_ref_idc: 1
[h264 @ 0000000001f6b680] nal_unit_type: 1, nal_ref_idc: 1
[h264 @ 0000000001f6b680] nal_unit_type: 1, nal_ref_idc: 1
[h264 @ 0000000001f6b680] nal_unit_type: 1, nal_ref_idc: 1
[h264 @ 0000000001f6b680] nal_unit_type: 1, nal_ref_idc: 1
[h264 @ 0000000001f69000] nal_unit_type: 6, nal_ref_idc: 0
[h264 @ 0000000001f69000] nal_unit_type: 1, nal_ref_idc: 1
[h264 @ 0000000001f69000] nal_unit_type: 1, nal_ref_idc: 1
[h264 @ 0000000001f69000] nal_unit_type: 1, nal_ref_idc: 1
[libx264 @ 00000000026b3360] frame=   8 QP=17.83 NAL=2 Slice:P Poc:16  I:445  P:24   SKIP:451  size=472 bytes
[h264 @ 0000000001f69000] nal_unit_type: 1, nal_ref_idc: 1
[h264 @ 0000000001f69000] nal_unit_type: 1, nal_ref_idc: 1
[h264 @ 0000000001f6b1a0] nal_unit_type: 6, nal_ref_idc: 0
[h264 @ 0000000001f6b1a0] nal_unit_type: 1, nal_ref_idc: 1
[h264 @ 0000000001f6b1a0] nal_unit_type: 1, nal_ref_idc: 1
[h264 @ 0000000001f6b1a0] nal_unit_type: 1, nal_ref_idc: 1
[libx264 @ 00000000026b3360] frame=   9 QP=16.34 NAL=2 Slice:P Poc:18  I:608  P:46   SKIP:266  size=458 bytes
[h264 @ 0000000001f6b1a0] nal_unit_type: 1, nal_ref_idc: 1
[h264 @ 0000000001f6b1a0] nal_unit_type: 1, nal_ref_idc: 1
[h264 @ 0000000001f6a340] nal_unit_type: 6, nal_ref_idc: 0
[h264 @ 0000000001f6a340] nal_unit_type: 1, nal_ref_idc: 1
[libx264 @ 00000000026b3360] frame=  10 QP=16.27 NAL=2 Slice:P Poc:20  I:701  P:20   SKIP:199  size=488 bytes
[h264 @ 0000000001f6a340] nal_unit_type: 1, nal_ref_idc: 1
[h264 @ 0000000001f6a340] nal_unit_type: 1, nal_ref_idc: 1
[h264 @ 0000000001f6a340] nal_unit_type: 1, nal_ref_idc: 1
[h264 @ 0000000001f6a340] nal_unit_type: 1, nal_ref_idc: 1
[h264 @ 0000000001f6a800] nal_unit_type: 6, nal_ref_idc: 0
[h264 @ 0000000001f6a800] nal_unit_type: 1, nal_ref_idc: 1
[libx264 @ 00000000026b3360] frame=  11 QP=15.49 NAL=2 Slice:P Poc:24  I:511  P:37   SKIP:372  size=525 bytes
[h264 @ 0000000001f6a800] nal_unit_type: 1, nal_ref_idc: 1
[h264 @ 0000000001f6a800] nal_unit_type: 1, nal_ref_idc: 1
[h264 @ 0000000001f6a800] nal_unit_type: 1, nal_ref_idc: 1
[h264 @ 0000000001f6a800] nal_unit_type: 1, nal_ref_idc: 1
[h264 @ 0000000001f6bb40] nal_unit_type: 6, nal_ref_idc: 0
[h264 @ 0000000001f6bb40] nal_unit_type: 1, nal_ref_idc: 1
[libx264 @ 00000000026b3360] frame=  12 QP=17.46 NAL=0 Slice:B Poc:22  I:155  P:203  SKIP:562  size=614 bytes
[h264 @ 0000000001f6bb40] nal_unit_type: 1, nal_ref_idc: 1
[h264 @ 0000000001f6bb40] nal_unit_type: 1, nal_ref_idc: 1
[h264 @ 0000000001f6bb40] nal_unit_type: 1, nal_ref_idc: 1
[h264 @ 0000000001f6bb40] nal_unit_type: 1, nal_ref_idc: 1
[h264 @ 0000000001f68180] nal_unit_type: 6, nal_ref_idc: 0
[h264 @ 0000000001f68180] nal_unit_type: 1, nal_ref_idc: 1
[libx264 @ 00000000026b3360] frame=  13 QP=15.96 NAL=2 Slice:P Poc:28  I:530  P:57   SKIP:333  size=668 bytes
[h264 @ 0000000001f68180] nal_unit_type: 1, nal_ref_idc: 1
[h264 @ 0000000001f68180] nal_unit_type: 1, nal_ref_idc: 1
[h264 @ 0000000001f68180] nal_unit_type: 1, nal_ref_idc: 1
[h264 @ 0000000001f68180] nal_unit_type: 1, nal_ref_idc: 1
[h264 @ 0000000001f68b20] nal_unit_type: 6, nal_ref_idc: 0
[h264 @ 0000000001f68b20] nal_unit_type: 1, nal_ref_idc: 1
[libx264 @ 00000000026b3360] frame=  14 QP=17.26 NAL=0 Slice:B Poc:26  I:159  P:188  SKIP:572  size=634 bytes
[h264 @ 0000000001f68b20] nal_unit_type: 1, nal_ref_idc: 1
[h264 @ 0000000001f68b20] nal_unit_type: 1, nal_ref_idc: 1
[h264 @ 0000000001f68b20] nal_unit_type: 1, nal_ref_idc: 1
[h264 @ 0000000001f68b20] nal_unit_type: 1, nal_ref_idc: 1
[h264 @ 0000000001f68660] nal_unit_type: 6, nal_ref_idc: 0
[h264 @ 0000000001f68660] nal_unit_type: 1, nal_ref_idc: 1
[libx264 @ 00000000026b3360] frame=  15 QP=17.23 NAL=2 Slice:P Poc:32  I:779  P:68   SKIP:73   size=951 bytes
[h264 @ 0000000001f68660] nal_unit_type: 1, nal_ref_idc: 1
[h264 @ 0000000001f68660] nal_unit_type: 1, nal_ref_idc: 1
frame=   71 fps= 69 q=28.0 size=      40kB time=00:00:03.43 bitrate=  95.6kbits/s speed=3.34x    
[h264 @ 0000000001f68660] nal_unit_type: 1, nal_ref_idc: 1
[h264 @ 0000000001f68660] nal_unit_type: 1, nal_ref_idc: 1
[h264 @ 0000000001f6b680] nal_unit_type: 6, nal_ref_idc: 0
[h264 @ 0000000001f6b680] nal_unit_type: 1, nal_ref_idc: 1
[libx264 @ 00000000026b3360] frame=  16 QP=17.69 NAL=0 Slice:B Poc:30  I:274  P:217  SKIP:428  size=840 bytes
[h264 @ 0000000001f6b680] nal_unit_type: 1, nal_ref_idc: 1
[h264 @ 0000000001f6b680] nal_unit_type: 1, nal_ref_idc: 1
[h264 @ 0000000001f6b680] nal_unit_type: 1, nal_ref_idc: 1
[h264 @ 0000000001f6b680] nal_unit_type: 1, nal_ref_idc: 1
[h264 @ 0000000001f69000] nal_unit_type: 6, nal_ref_idc: 0
[h264 @ 0000000001f69000] nal_unit_type: 1, nal_ref_idc: 1
[libx264 @ 00000000026b3360] frame=  17 QP=16.06 NAL=2 Slice:P Poc:34  I:761  P:32   SKIP:127  size=860 bytes
[h264 @ 0000000001f69000] nal_unit_type: 1, nal_ref_idc: 1
[h264 @ 0000000001f69000] nal_unit_type: 1, nal_ref_idc: 1
[h264 @ 0000000001f69000] nal_unit_type: 1, nal_ref_idc: 1
[h264 @ 0000000001f69000] nal_unit_type: 1, nal_ref_idc: 1
[h264 @ 0000000001f6b1a0] nal_unit_type: 6, nal_ref_idc: 0
[h264 @ 0000000001f6b1a0] nal_unit_type: 1, nal_ref_idc: 1
[libx264 @ 00000000026b3360] frame=  18 QP=15.65 NAL=2 Slice:P Poc:40  I:684  P:101  SKIP:135  size=1061 bytes
[h264 @ 0000000001f6b1a0] nal_unit_type: 1, nal_ref_idc: 1
[h264 @ 0000000001f6b1a0] nal_unit_type: 1, nal_ref_idc: 1
[h264 @ 0000000001f6b1a0] nal_unit_type: 1, nal_ref_idc: 1
[h264 @ 0000000001f6b1a0] nal_unit_type: 1, nal_ref_idc: 1
[h264 @ 0000000001f6a340] nal_unit_type: 6, nal_ref_idc: 0
[libx264 @ 00000000026b3360] frame=  19 QP=15.02 NAL=2 Slice:B Poc:36  I:339  P:214  SKIP:364  size=934 bytes
[h264 @ 0000000001f6a340] nal_unit_type: 1, nal_ref_idc: 1
[h264 @ 0000000001f6a340] nal_unit_type: 1, nal_ref_idc: 1
[h264 @ 0000000001f6a340] nal_unit_type: 1, nal_ref_idc: 1
[h264 @ 0000000001f6a340] nal_unit_type: 1, nal_ref_idc: 1
[h264 @ 0000000001f6a340] nal_unit_type: 1, nal_ref_idc: 1
[h264 @ 0000000001f6a800] nal_unit_type: 6, nal_ref_idc: 0
[h264 @ 0000000001f6a800] nal_unit_type: 1, nal_ref_idc: 1
[libx264 @ 00000000026b3360] frame=  20 QP=15.32 NAL=0 Slice:B Poc:38  I:334  P:297  SKIP:286  size=1041 bytes
[h264 @ 0000000001f6a800] nal_unit_type: 1, nal_ref_idc: 1
[h264 @ 0000000001f6a800] nal_unit_type: 1, nal_ref_idc: 1
[h264 @ 0000000001f6a800] nal_unit_type: 1, nal_ref_idc: 1
[h264 @ 0000000001f6a800] nal_unit_type: 1, nal_ref_idc: 1
[h264 @ 0000000001f6bb40] nal_unit_type: 6, nal_ref_idc: 0
[h264 @ 0000000001f6bb40] nal_unit_type: 1, nal_ref_idc: 1
[libx264 @ 00000000026b3360] frame=  21 QP=16.14 NAL=2 Slice:P Poc:48  I:825  P:74   SKIP:21   size=1582 bytes
[h264 @ 0000000001f6bb40] nal_unit_type: 1, nal_ref_idc: 1
[h264 @ 0000000001f6bb40] nal_unit_type: 1, nal_ref_idc: 1
[h264 @ 0000000001f6bb40] nal_unit_type: 1, nal_ref_idc: 1
[h264 @ 0000000001f6bb40] nal_unit_type: 1, nal_ref_idc: 1
[h264 @ 0000000001f68180] nal_unit_type: 6, nal_ref_idc: 0
[h264 @ 0000000001f68180] nal_unit_type: 1, nal_ref_idc: 1
[libx264 @ 00000000026b3360] frame=  22 QP=14.58 NAL=2 Slice:B Poc:44  I:393  P:336  SKIP:185  size=1311 bytes
[h264 @ 0000000001f68180] nal_unit_type: 1, nal_ref_idc: 1
[h264 @ 0000000001f68180] nal_unit_type: 1, nal_ref_idc: 1
[h264 @ 0000000001f68180] nal_unit_type: 1, nal_ref_idc: 1
[h264 @ 0000000001f68180] nal_unit_type: 1, nal_ref_idc: 1
[h264 @ 0000000001f68b20] nal_unit_type: 6, nal_ref_idc: 0
[h264 @ 0000000001f68b20] nal_unit_type: 1, nal_ref_idc: 1
[libx264 @ 00000000026b3360] frame=  23 QP=16.50 NAL=0 Slice:B Poc:42  I:362  P:310  SKIP:245  size=1225 bytes
[h264 @ 0000000001f68b20] nal_unit_type: 1, nal_ref_idc: 1
[h264 @ 0000000001f68b20] nal_unit_type: 1, nal_ref_idc: 1
[h264 @ 0000000001f68b20] nal_unit_type: 1, nal_ref_idc: 1
[h264 @ 0000000001f68b20] nal_unit_type: 1, nal_ref_idc: 1
[h264 @ 0000000001f68660] nal_unit_type: 6, nal_ref_idc: 0
[h264 @ 0000000001f68660] nal_unit_type: 1, nal_ref_idc: 1
[libx264 @ 00000000026b3360] frame=  24 QP=15.97 NAL=0 Slice:B Poc:46  I:472  P:231  SKIP:213  size=1268 bytes
[h264 @ 0000000001f68660] nal_unit_type: 1, nal_ref_idc: 1
[h264 @ 0000000001f68660] nal_unit_type: 1, nal_ref_idc: 1
[h264 @ 0000000001f68660] nal_unit_type: 1, nal_ref_idc: 1
[h264 @ 0000000001f68660] nal_unit_type: 1, nal_ref_idc: 1
[h264 @ 0000000001f6b680] nal_unit_type: 6, nal_ref_idc: 0
[h264 @ 0000000001f6b680] nal_unit_type: 1, nal_ref_idc: 1
[h264 @ 0000000001f6b680] nal_unit_type: 1, nal_ref_idc: 1
[h264 @ 0000000001f6b680] nal_unit_type: 1, nal_ref_idc: 1
[h264 @ 0000000001f6b680] nal_unit_type: 1, nal_ref_idc: 1
[libx264 @ 00000000026b3360] frame=  25 QP=16.17 NAL=2 Slice:P Poc:56  I:783  P:130  SKIP:7    size=1951 bytes
[h264 @ 0000000001f6b680] nal_unit_type: 1, nal_ref_idc: 1
[h264 @ 0000000001f69000] nal_unit_type: 6, nal_ref_idc: 0
[h264 @ 0000000001f69000] nal_unit_type: 1, nal_ref_idc: 1
[libx264 @ 00000000026b3360] frame=  26 QP=15.56 NAL=2 Slice:B Poc:52  I:478  P:253  SKIP:173  size=1551 bytes
[h264 @ 0000000001f69000] nal_unit_type: 1, nal_ref_idc: 1
[h264 @ 0000000001f69000] nal_unit_type: 1, nal_ref_idc: 1
[h264 @ 0000000001f69000] nal_unit_type: 1, nal_ref_idc: 1
[h264 @ 0000000001f69000] nal_unit_type: 1, nal_ref_idc: 1
[h264 @ 0000000001f6b1a0] nal_unit_type: 6, nal_ref_idc: 0
[h264 @ 0000000001f6b1a0] nal_unit_type: 1, nal_ref_idc: 1
[h264 @ 0000000001f6b1a0] nal_unit_type: 1, nal_ref_idc: 1
[h264 @ 0000000001f6b1a0] nal_unit_type: 1, nal_ref_idc: 1
[libx264 @ 00000000026b3360] frame=  27 QP=16.31 NAL=0 Slice:B Poc:50  I:380  P:246  SKIP:288  size=1210 bytes
[h264 @ 0000000001f6b1a0] nal_unit_type: 1, nal_ref_idc: 1
[h264 @ 0000000001f6b1a0] nal_unit_type: 1, nal_ref_idc: 1
[h264 @ 0000000001f6a340] nal_unit_type: 6, nal_ref_idc: 0
[h264 @ 0000000001f6a340] nal_unit_type: 1, nal_ref_idc: 1
[libx264 @ 00000000026b3360] frame=  28 QP=15.99 NAL=0 Slice:B Poc:54  I:317  P:289  SKIP:302  size=1252 bytes
[h264 @ 0000000001f6a340] nal_unit_type: 1, nal_ref_idc: 1
[h264 @ 0000000001f6a340] nal_unit_type: 1, nal_ref_idc: 1
[h264 @ 0000000001f6a340] nal_unit_type: 1, nal_ref_idc: 1
[h264 @ 0000000001f6a340] nal_unit_type: 1, nal_ref_idc: 1
[h264 @ 0000000001f6a800] nal_unit_type: 6, nal_ref_idc: 0
[h264 @ 0000000001f6a800] nal_unit_type: 1, nal_ref_idc: 1
[libx264 @ 00000000026b3360] frame=  29 QP=16.98 NAL=2 Slice:P Poc:64  I:733  P:152  SKIP:35   size=2216 bytes
[h264 @ 0000000001f6a800] nal_unit_type: 1, nal_ref_idc: 1
[h264 @ 0000000001f6a800] nal_unit_type: 1, nal_ref_idc: 1
[h264 @ 0000000001f6a800] nal_unit_type: 1, nal_ref_idc: 1
[h264 @ 0000000001f6a800] nal_unit_type: 1, nal_ref_idc: 1
[h264 @ 0000000001f6bb40] nal_unit_type: 6, nal_ref_idc: 0
[libx264 @ 00000000026b3360] frame=  30 QP=15.87 NAL=2 Slice:B Poc:60  I:465  P:238  SKIP:196  size=1787 bytes
[h264 @ 0000000001f6bb40] nal_unit_type: 1, nal_ref_idc: 1
[h264 @ 0000000001f6bb40] nal_unit_type: 1, nal_ref_idc: 1
[h264 @ 0000000001f6bb40] nal_unit_type: 1, nal_ref_idc: 1
[h264 @ 0000000001f6bb40] nal_unit_type: 1, nal_ref_idc: 1
[h264 @ 0000000001f6bb40] nal_unit_type: 1, nal_ref_idc: 1
[h264 @ 0000000001f68180] nal_unit_type: 6, nal_ref_idc: 0
[h264 @ 0000000001f68180] nal_unit_type: 1, nal_ref_idc: 1
[libx264 @ 00000000026b3360] frame=  31 QP=17.41 NAL=0 Slice:B Poc:58  I:314  P:318  SKIP:278  size=1306 bytes
[h264 @ 0000000001f68180] nal_unit_type: 1, nal_ref_idc: 1
[h264 @ 0000000001f68180] nal_unit_type: 1, nal_ref_idc: 1
[h264 @ 0000000001f68180] nal_unit_type: 1, nal_ref_idc: 1
[h264 @ 0000000001f68180] nal_unit_type: 1, nal_ref_idc: 1
[h264 @ 0000000001f68b20] nal_unit_type: 6, nal_ref_idc: 0
[h264 @ 0000000001f68b20] nal_unit_type: 1, nal_ref_idc: 1
[libx264 @ 00000000026b3360] frame=  32 QP=17.45 NAL=0 Slice:B Poc:62  I:341  P:305  SKIP:267  size=1386 bytes
[h264 @ 0000000001f68b20] nal_unit_type: 1, nal_ref_idc: 1
[h264 @ 0000000001f68b20] nal_unit_type: 1, nal_ref_idc: 1
[h264 @ 0000000001f68b20] nal_unit_type: 1, nal_ref_idc: 1
[h264 @ 0000000001f68b20] nal_unit_type: 1, nal_ref_idc: 1
[h264 @ 0000000001f68660] nal_unit_type: 6, nal_ref_idc: 0
[h264 @ 0000000001f68660] nal_unit_type: 1, nal_ref_idc: 1
[libx264 @ 00000000026b3360] frame=  33 QP=16.98 NAL=2 Slice:P Poc:72  I:780  P:132  SKIP:8    size=2799 bytes
[h264 @ 0000000001f68660] nal_unit_type: 1, nal_ref_idc: 1
[h264 @ 0000000001f68660] nal_unit_type: 1, nal_ref_idc: 1
[h264 @ 0000000001f68660] nal_unit_type: 1, nal_ref_idc: 1
[h264 @ 0000000001f68660] nal_unit_type: 1, nal_ref_idc: 1
[h264 @ 0000000001f6b680] nal_unit_type: 6, nal_ref_idc: 0
[h264 @ 0000000001f6b680] nal_unit_type: 1, nal_ref_idc: 1
[h264 @ 0000000001f6b680] nal_unit_type: 1, nal_ref_idc: 1
[h264 @ 0000000001f6b680] nal_unit_type: 1, nal_ref_idc: 1
[libx264 @ 00000000026b3360] frame=  34 QP=16.65 NAL=2 Slice:B Poc:68  I:347  P:346  SKIP:214  size=1900 bytes
[h264 @ 0000000001f6b680] nal_unit_type: 1, nal_ref_idc: 1
[h264 @ 0000000001f6b680] nal_unit_type: 1, nal_ref_idc: 1
[h264 @ 0000000001f69000] nal_unit_type: 6, nal_ref_idc: 0
[h264 @ 0000000001f69000] nal_unit_type: 1, nal_ref_idc: 1
[libx264 @ 00000000026b3360] frame=  35 QP=17.69 NAL=0 Slice:B Poc:66  I:245  P:411  SKIP:256  size=1385 bytes
[h264 @ 0000000001f69000] nal_unit_type: 1, nal_ref_idc: 1
[h264 @ 0000000001f69000] nal_unit_type: 1, nal_ref_idc: 1
[h264 @ 0000000001f69000] nal_unit_type: 1, nal_ref_idc: 1
[h264 @ 0000000001f69000] nal_unit_type: 1, nal_ref_idc: 1
[h264 @ 0000000001f6b1a0] nal_unit_type: 6, nal_ref_idc: 0
[h264 @ 0000000001f6b1a0] nal_unit_type: 1, nal_ref_idc: 1
[libx264 @ 00000000026b3360] frame=  36 QP=18.52 NAL=0 Slice:B Poc:70  I:280  P:394  SKIP:233  size=1549 bytes
[h264 @ 0000000001f6b1a0] nal_unit_type: 1, nal_ref_idc: 1
[h264 @ 0000000001f6b1a0] nal_unit_type: 1, nal_ref_idc: 1
[h264 @ 0000000001f6b1a0] nal_unit_type: 1, nal_ref_idc: 1
[h264 @ 0000000001f6b1a0] nal_unit_type: 1, nal_ref_idc: 1
[h264 @ 0000000001f6a340] nal_unit_type: 6, nal_ref_idc: 0
[h264 @ 0000000001f6a340] nal_unit_type: 1, nal_ref_idc: 1
[h264 @ 0000000001f6a340] nal_unit_type: 1, nal_ref_idc: 1
[h264 @ 0000000001f6a340] nal_unit_type: 1, nal_ref_idc: 1
[libx264 @ 00000000026b3360] frame=  37 QP=17.78 NAL=2 Slice:P Poc:80  I:723  P:177  SKIP:20   size=3351 bytes
[h264 @ 0000000001f6a340] nal_unit_type: 1, nal_ref_idc: 1
[h264 @ 0000000001f6a340] nal_unit_type: 1, nal_ref_idc: 1
[h264 @ 0000000001f6a800] nal_unit_type: 6, nal_ref_idc: 0
[h264 @ 0000000001f6a800] nal_unit_type: 1, nal_ref_idc: 1
[libx264 @ 00000000026b3360] frame=  38 QP=17.74 NAL=2 Slice:B Poc:76  I:356  P:300  SKIP:243  size=2020 bytes
[h264 @ 0000000001f6a800] nal_unit_type: 1, nal_ref_idc: 1
[h264 @ 0000000001f6a800] nal_unit_type: 1, nal_ref_idc: 1
[h264 @ 0000000001f6a800] nal_unit_type: 1, nal_ref_idc: 1
[h264 @ 0000000001f6a800] nal_unit_type: 1, nal_ref_idc: 1
[h264 @ 0000000001f6bb40] nal_unit_type: 6, nal_ref_idc: 0
[h264 @ 0000000001f6bb40] nal_unit_type: 1, nal_ref_idc: 1
[libx264 @ 00000000026b3360] frame=  39 QP=18.11 NAL=0 Slice:B Poc:74  I:378  P:263  SKIP:268  size=1447 bytes
[h264 @ 0000000001f6bb40] nal_unit_type: 1, nal_ref_idc: 1
[h264 @ 0000000001f6bb40] nal_unit_type: 1, nal_ref_idc: 1
[h264 @ 0000000001f6bb40] nal_unit_type: 1, nal_ref_idc: 1
[h264 @ 0000000001f6bb40] nal_unit_type: 1, nal_ref_idc: 1
[h264 @ 0000000001f68180] nal_unit_type: 6, nal_ref_idc: 0
[h264 @ 0000000001f68180] nal_unit_type: 1, nal_ref_idc: 1
[h264 @ 0000000001f68180] nal_unit_type: 1, nal_ref_idc: 1
[h264 @ 0000000001f68180] nal_unit_type: 1, nal_ref_idc: 1
[libx264 @ 00000000026b3360] frame=  40 QP=19.02 NAL=0 Slice:B Poc:78  I:353  P:320  SKIP:233  size=1758 bytes
[h264 @ 0000000001f68180] nal_unit_type: 1, nal_ref_idc: 1
[h264 @ 0000000001f68180] nal_unit_type: 1, nal_ref_idc: 1
[h264 @ 0000000001f68b20] nal_unit_type: 6, nal_ref_idc: 0
[h264 @ 0000000001f68b20] nal_unit_type: 1, nal_ref_idc: 1
[libx264 @ 00000000026b3360] frame=  41 QP=18.09 NAL=2 Slice:P Poc:88  I:705  P:191  SKIP:24   size=3902 bytes
[h264 @ 0000000001f68b20] nal_unit_type: 1, nal_ref_idc: 1
[h264 @ 0000000001f68b20] nal_unit_type: 1, nal_ref_idc: 1
[h264 @ 0000000001f68b20] nal_unit_type: 1, nal_ref_idc: 1
[h264 @ 0000000001f68b20] nal_unit_type: 1, nal_ref_idc: 1
[h264 @ 0000000001f68660] nal_unit_type: 6, nal_ref_idc: 0
[h264 @ 0000000001f68660] nal_unit_type: 1, nal_ref_idc: 1
[libx264 @ 00000000026b3360] frame=  42 QP=18.08 NAL=2 Slice:B Poc:84  I:352  P:366  SKIP:181  size=2348 bytes
[h264 @ 0000000001f68660] nal_unit_type: 1, nal_ref_idc: 1
[h264 @ 0000000001f68660] nal_unit_type: 1, nal_ref_idc: 1
[h264 @ 0000000001f68660] nal_unit_type: 1, nal_ref_idc: 1
[h264 @ 0000000001f68660] nal_unit_type: 1, nal_ref_idc: 1
[h264 @ 0000000001f6b680] nal_unit_type: 6, nal_ref_idc: 0
[h264 @ 0000000001f6b680] nal_unit_type: 1, nal_ref_idc: 1
[h264 @ 0000000001f6b680] nal_unit_type: 1, nal_ref_idc: 1
[h264 @ 0000000001f6b680] nal_unit_type: 1, nal_ref_idc: 1
[libx264 @ 00000000026b3360] frame=  43 QP=18.92 NAL=0 Slice:B Poc:82  I:340  P:305  SKIP:258  size=1698 bytes
[h264 @ 0000000001f6b680] nal_unit_type: 1, nal_ref_idc: 1
[h264 @ 0000000001f6b680] nal_unit_type: 1, nal_ref_idc: 1
[h264 @ 0000000001f69000] nal_unit_type: 6, nal_ref_idc: 0
[h264 @ 0000000001f69000] nal_unit_type: 1, nal_ref_idc: 1
[libx264 @ 00000000026b3360] frame=  44 QP=19.28 NAL=0 Slice:B Poc:86  I:249  P:427  SKIP:215  size=1767 bytes
[h264 @ 0000000001f69000] nal_unit_type: 1, nal_ref_idc: 1
[h264 @ 0000000001f69000] nal_unit_type: 1, nal_ref_idc: 1
[h264 @ 0000000001f69000] nal_unit_type: 1, nal_ref_idc: 1
[h264 @ 0000000001f69000] nal_unit_type: 1, nal_ref_idc: 1
[h264 @ 0000000001f6b1a0] nal_unit_type: 6, nal_ref_idc: 0
[h264 @ 0000000001f6b1a0] nal_unit_type: 1, nal_ref_idc: 1
[libx264 @ 00000000026b3360] frame=  45 QP=18.41 NAL=2 Slice:P Poc:96  I:626  P:259  SKIP:35   size=5333 bytes
[h264 @ 0000000001f6b1a0] nal_unit_type: 1, nal_ref_idc: 1
[h264 @ 0000000001f6b1a0] nal_unit_type: 1, nal_ref_idc: 1
[h264 @ 0000000001f6b1a0] nal_unit_type: 1, nal_ref_idc: 1
[h264 @ 0000000001f6b1a0] nal_unit_type: 1, nal_ref_idc: 1
[h264 @ 0000000001f6a340] nal_unit_type: 6, nal_ref_idc: 0
[h264 @ 0000000001f6a340] nal_unit_type: 1, nal_ref_idc: 1
[h264 @ 0000000001f6a340] nal_unit_type: 1, nal_ref_idc: 1
[h264 @ 0000000001f6a340] nal_unit_type: 1, nal_ref_idc: 1
[libx264 @ 00000000026b3360] frame=  46 QP=18.54 NAL=2 Slice:B Poc:92  I:292  P:381  SKIP:226  size=2494 bytes
[h264 @ 0000000001f6a340] nal_unit_type: 1, nal_ref_idc: 1
[h264 @ 0000000001f6a340] nal_unit_type: 1, nal_ref_idc: 1
[h264 @ 0000000001f6a800] nal_unit_type: 6, nal_ref_idc: 0
[libx264 @ 00000000026b3360] frame=  47 QP=19.53 NAL=0 Slice:B Poc:90  I:248  P:409  SKIP:240  size=1959 bytes
[h264 @ 0000000001f6a800] nal_unit_type: 1, nal_ref_idc: 1
[h264 @ 0000000001f6a800] nal_unit_type: 1, nal_ref_idc: 1
[h264 @ 0000000001f6a800] nal_unit_type: 1, nal_ref_idc: 1
[h264 @ 0000000001f6a800] nal_unit_type: 1, nal_ref_idc: 1
[h264 @ 0000000001f6a800] nal_unit_type: 1, nal_ref_idc: 1
[h264 @ 0000000001f6bb40] nal_unit_type: 6, nal_ref_idc: 0
[h264 @ 0000000001f6bb40] nal_unit_type: 1, nal_ref_idc: 1
[libx264 @ 00000000026b3360] frame=  48 QP=19.49 NAL=0 Slice:B Poc:94  I:263  P:317  SKIP:324  size=1743 bytes
[h264 @ 0000000001f6bb40] nal_unit_type: 1, nal_ref_idc: 1
[h264 @ 0000000001f6bb40] nal_unit_type: 1, nal_ref_idc: 1
[h264 @ 0000000001f6bb40] nal_unit_type: 1, nal_ref_idc: 1
[h264 @ 0000000001f6bb40] nal_unit_type: 1, nal_ref_idc: 1
[h264 @ 0000000001f68180] nal_unit_type: 6, nal_ref_idc: 0
[h264 @ 0000000001f68180] nal_unit_type: 1, nal_ref_idc: 1
[h264 @ 0000000001f68180] nal_unit_type: 1, nal_ref_idc: 1
[h264 @ 0000000001f68180] nal_unit_type: 1, nal_ref_idc: 1
[libx264 @ 00000000026b3360] frame=  49 QP=17.01 NAL=2 Slice:P Poc:104 I:597  P:307  SKIP:16   size=10596 bytes
[h264 @ 0000000001f68180] nal_unit_type: 1, nal_ref_idc: 1
[h264 @ 0000000001f68180] nal_unit_type: 1, nal_ref_idc: 1
[h264 @ 0000000001f68b20] nal_unit_type: 6, nal_ref_idc: 0
[h264 @ 0000000001f68b20] nal_unit_type: 1, nal_ref_idc: 1
[libx264 @ 00000000026b3360] frame=  50 QP=19.18 NAL=2 Slice:B Poc:100 I:212  P:513  SKIP:180  size=2794 bytes
[h264 @ 0000000001f68b20] nal_unit_type: 1, nal_ref_idc: 1
[h264 @ 0000000001f68b20] nal_unit_type: 1, nal_ref_idc: 1
[h264 @ 0000000001f68b20] nal_unit_type: 1, nal_ref_idc: 1
[h264 @ 0000000001f68b20] nal_unit_type: 1, nal_ref_idc: 1
[h264 @ 0000000001f68660] nal_unit_type: 6, nal_ref_idc: 0
[h264 @ 0000000001f68660] nal_unit_type: 1, nal_ref_idc: 1
[libx264 @ 00000000026b3360] frame=  51 QP=19.83 NAL=0 Slice:B Poc:98  I:230  P:368  SKIP:303  size=1531 bytes
[h264 @ 0000000001f68660] nal_unit_type: 1, nal_ref_idc: 1
[h264 @ 0000000001f68660] nal_unit_type: 1, nal_ref_idc: 1
[h264 @ 0000000001f68660] nal_unit_type: 1, nal_ref_idc: 1
[h264 @ 0000000001f68660] nal_unit_type: 1, nal_ref_idc: 1
[h264 @ 0000000001f6b680] nal_unit_type: 6, nal_ref_idc: 0
[h264 @ 0000000001f6b680] nal_unit_type: 1, nal_ref_idc: 1
[libx264 @ 00000000026b3360] frame=  52 QP=20.52 NAL=0 Slice:B Poc:102 I:6    P:458  SKIP:419  size=1136 bytes
[h264 @ 0000000001f6b680] nal_unit_type: 1, nal_ref_idc: 1
[h264 @ 0000000001f6b680] nal_unit_type: 1, nal_ref_idc: 1
[h264 @ 0000000001f6b680] nal_unit_type: 1, nal_ref_idc: 1
[h264 @ 0000000001f6b680] nal_unit_type: 1, nal_ref_idc: 1
[h264 @ 0000000001f69000] nal_unit_type: 6, nal_ref_idc: 0
[h264 @ 0000000001f69000] nal_unit_type: 1, nal_ref_idc: 1
[libx264 @ 00000000026b3360] frame=  53 QP=17.81 NAL=2 Slice:P Poc:112 I:93   P:550  SKIP:277  size=5273 bytes
[h264 @ 0000000001f69000] nal_unit_type: 1, nal_ref_idc: 1
[h264 @ 0000000001f69000] nal_unit_type: 1, nal_ref_idc: 1
[h264 @ 0000000001f69000] nal_unit_type: 1, nal_ref_idc: 1
[h264 @ 0000000001f69000] nal_unit_type: 1, nal_ref_idc: 1
[h264 @ 0000000001f6b1a0] nal_unit_type: 6, nal_ref_idc: 0
[h264 @ 0000000001f6b1a0] nal_unit_type: 1, nal_ref_idc: 1
[libx264 @ 00000000026b3360] frame=  54 QP=20.85 NAL=2 Slice:B Poc:108 I:3    P:335  SKIP:568  size=859 bytes
[h264 @ 0000000001f6b1a0] nal_unit_type: 1, nal_ref_idc: 1
[h264 @ 0000000001f6b1a0] nal_unit_type: 1, nal_ref_idc: 1
[h264 @ 0000000001f6b1a0] nal_unit_type: 1, nal_ref_idc: 1
[h264 @ 0000000001f6b1a0] nal_unit_type: 1, nal_ref_idc: 1
[h264 @ 0000000001f6a340] nal_unit_type: 6, nal_ref_idc: 0
[h264 @ 0000000001f6a340] nal_unit_type: 1, nal_ref_idc: 1
[libx264 @ 00000000026b3360] frame=  55 QP=23.26 NAL=0 Slice:B Poc:106 I:1    P:266  SKIP:648  size=417 bytes
[h264 @ 0000000001f6a340] nal_unit_type: 1, nal_ref_idc: 1
[h264 @ 0000000001f6a340] nal_unit_type: 1, nal_ref_idc: 1
[h264 @ 0000000001f6a340] nal_unit_type: 1, nal_ref_idc: 1
[h264 @ 0000000001f6a340] nal_unit_type: 1, nal_ref_idc: 1
[h264 @ 0000000001f6a800] nal_unit_type: 6, nal_ref_idc: 0
[h264 @ 0000000001f6a800] nal_unit_type: 1, nal_ref_idc: 1
[libx264 @ 00000000026b3360] frame=  56 QP=22.53 NAL=0 Slice:B Poc:110 I:1    P:291  SKIP:611  size=512 bytes
[h264 @ 0000000001f6a800] nal_unit_type: 1, nal_ref_idc: 1
[h264 @ 0000000001f6a800] nal_unit_type: 1, nal_ref_idc: 1
[h264 @ 0000000001f6a800] nal_unit_type: 1, nal_ref_idc: 1
[h264 @ 0000000001f6a800] nal_unit_type: 1, nal_ref_idc: 1
[h264 @ 0000000001f6bb40] nal_unit_type: 6, nal_ref_idc: 0
[libx264 @ 00000000026b3360] frame=  57 QP=18.89 NAL=2 Slice:P Poc:120 I:69   P:540  SKIP:311  size=4391 bytes
[h264 @ 0000000001f6bb40] nal_unit_type: 1, nal_ref_idc: 1
[h264 @ 0000000001f6bb40] nal_unit_type: 1, nal_ref_idc: 1
[h264 @ 0000000001f6bb40] nal_unit_type: 1, nal_ref_idc: 1
[h264 @ 0000000001f6bb40] nal_unit_type: 1, nal_ref_idc: 1
[h264 @ 0000000001f6bb40] nal_unit_type: 1, nal_ref_idc: 1
[h264 @ 0000000001f68180] nal_unit_type: 6, nal_ref_idc: 0
[h264 @ 0000000001f68180] nal_unit_type: 1, nal_ref_idc: 1
[libx264 @ 00000000026b3360] frame=  58 QP=21.23 NAL=2 Slice:B Poc:116 I:2    P:336  SKIP:559  size=853 bytes
[h264 @ 0000000001f68180] nal_unit_type: 1, nal_ref_idc: 1
[h264 @ 0000000001f68180] nal_unit_type: 1, nal_ref_idc: 1
[h264 @ 0000000001f68180] nal_unit_type: 1, nal_ref_idc: 1
[h264 @ 0000000001f68180] nal_unit_type: 1, nal_ref_idc: 1
[h264 @ 0000000001f68b20] nal_unit_type: 6, nal_ref_idc: 0
[h264 @ 0000000001f68b20] nal_unit_type: 1, nal_ref_idc: 1
[libx264 @ 00000000026b3360] frame=  59 QP=23.83 NAL=0 Slice:B Poc:114 I:1    P:305  SKIP:610  size=524 bytes
[h264 @ 0000000001f68b20] nal_unit_type: 1, nal_ref_idc: 1
[h264 @ 0000000001f68b20] nal_unit_type: 1, nal_ref_idc: 1
[h264 @ 0000000001f68b20] nal_unit_type: 1, nal_ref_idc: 1
[h264 @ 0000000001f68b20] nal_unit_type: 1, nal_ref_idc: 1
[h264 @ 0000000001f68660] nal_unit_type: 6, nal_ref_idc: 0
[libx264 @ 00000000026b3360] frame=  60 QP=23.88 NAL=0 Slice:B Poc:118 I:0    P:264  SKIP:645  size=466 bytes
[h264 @ 0000000001f68660] nal_unit_type: 1, nal_ref_idc: 1
[h264 @ 0000000001f68660] nal_unit_type: 1, nal_ref_idc: 1
[h264 @ 0000000001f68660] nal_unit_type: 1, nal_ref_idc: 1
[h264 @ 0000000001f68660] nal_unit_type: 1, nal_ref_idc: 1
[h264 @ 0000000001f68660] nal_unit_type: 1, nal_ref_idc: 1

Received windows signal 0

Received windows signal 0
[tls @ 00000000001ad1c0] Unable to read from socket
[h264 @ 0000000001f6b680] nal_unit_type: 6, nal_ref_idc: 0
[h264 @ 0000000001f6b680] nal_unit_type: 1, nal_ref_idc: 1
[libx264 @ 00000000026b3360] frame=  61 QP=16.66 NAL=2 Slice:P Poc:128 I:512  P:336  SKIP:72   size=9097 bytes
[h264 @ 0000000001f6b680] nal_unit_type: 1, nal_ref_idc: 1
av_interleaved_write_frame(): Immediate exit requested
[h264 @ 0000000001f6b680] Invalid NAL unit size (642 > 555).
[h264 @ 0000000001f6b680] Error splitting the input into NAL units.
[libx264 @ 00000000026b3360] frame=  62 QP=21.09 NAL=2 Slice:B Poc:124 I:1    P:384  SKIP:517  size=1291 bytes
[libx264 @ 00000000026b3360] frame=  63 QP=22.45 NAL=0 Slice:B Poc:122 I:0    P:285  SKIP:627  size=571 bytes
[libx264 @ 00000000026b3360] frame=  64 QP=22.83 NAL=0 Slice:B Poc:126 I:3    P:337  SKIP:568  size=839 bytes
[libx264 @ 00000000026b3360] frame=  65 QP=17.67 NAL=2 Slice:P Poc:136 I:84   P:520  SKIP:316  size=4245 bytes
[libx264 @ 00000000026b3360] frame=  66 QP=20.56 NAL=2 Slice:B Poc:132 I:2    P:385  SKIP:518  size=896 bytes
[libx264 @ 00000000026b3360] frame=  67 QP=23.44 NAL=0 Slice:B Poc:130 I:1    P:332  SKIP:585  size=558 bytes
[libx264 @ 00000000026b3360] frame=  68 QP=21.77 NAL=0 Slice:B Poc:134 I:0    P:301  SKIP:611  size=466 bytes
[libx264 @ 00000000026b3360] frame=  69 QP=17.97 NAL=2 Slice:P Poc:144 I:63   P:584  SKIP:273  size=5552 bytes
[libx264 @ 00000000026b3360] frame=  70 QP=21.52 NAL=2 Slice:B Poc:140 I:4    P:410  SKIP:476  size=1122 bytes
[libx264 @ 00000000026b3360] frame=  71 QP=20.30 NAL=0 Slice:B Poc:138 I:1    P:298  SKIP:611  size=632 bytes
[libx264 @ 00000000026b3360] frame=  72 QP=21.42 NAL=0 Slice:B Poc:142 I:1    P:323  SKIP:582  size=623 bytes
[libx264 @ 00000000026b3360] frame=  73 QP=18.35 NAL=2 Slice:P Poc:152 I:70   P:569  SKIP:281  size=6565 bytes
[libx264 @ 00000000026b3360] frame=  74 QP=21.04 NAL=2 Slice:B Poc:148 I:5    P:374  SKIP:509  size=1207 bytes
[libx264 @ 00000000026b3360] frame=  75 QP=23.82 NAL=0 Slice:B Poc:146 I:1    P:319  SKIP:589  size=641 bytes
[libx264 @ 00000000026b3360] frame=  76 QP=23.50 NAL=0 Slice:B Poc:150 I:1    P:307  SKIP:596  size=619 bytes
[libx264 @ 00000000026b3360] frame=  77 QP=19.45 NAL=2 Slice:P Poc:160 I:77   P:545  SKIP:298  size=6502 bytes
[libx264 @ 00000000026b3360] frame=  78 QP=21.58 NAL=2 Slice:B Poc:156 I:4    P:388  SKIP:509  size=1093 bytes
[libx264 @ 00000000026b3360] frame=  79 QP=21.79 NAL=0 Slice:B Poc:154 I:4    P:326  SKIP:577  size=666 bytes
[libx264 @ 00000000026b3360] frame=  80 QP=21.88 NAL=0 Slice:B Poc:158 I:4    P:316  SKIP:586  size=656 bytes
[libx264 @ 00000000026b3360] frame=  81 QP=19.60 NAL=2 Slice:P Poc:162 I:26   P:498  SKIP:396  size=3204 bytes
[libx264 @ 00000000026b3360] frame=  82 QP=19.38 NAL=2 Slice:P Poc:164 I:41   P:469  SKIP:410  size=3310 bytes
[libx264 @ 00000000026b3360] frame=  83 QP=19.07 NAL=2 Slice:P Poc:166 I:36   P:449  SKIP:435  size=3598 bytes
[libx264 @ 00000000026b3360] frame=  84 QP=19.05 NAL=2 Slice:P Poc:172 I:85   P:539  SKIP:296  size=6069 bytes
[libx264 @ 00000000026b3360] frame=  85 QP=20.34 NAL=2 Slice:B Poc:168 I:3    P:321  SKIP:581  size=804 bytes
[libx264 @ 00000000026b3360] frame=  86 QP=22.42 NAL=0 Slice:B Poc:170 I:1    P:357  SKIP:542  size=707 bytes
[libx264 @ 00000000026b3360] frame=  87 QP=19.08 NAL=2 Slice:P Poc:174 I:51   P:509  SKIP:360  size=3873 bytes
[libx264 @ 00000000026b3360] frame=  88 QP=19.34 NAL=2 Slice:P Poc:180 I:77   P:571  SKIP:272  size=6383 bytes
[libx264 @ 00000000026b3360] frame=  89 QP=21.13 NAL=2 Slice:B Poc:176 I:3    P:320  SKIP:583  size=753 bytes
[libx264 @ 00000000026b3360] frame=  90 QP=22.46 NAL=0 Slice:B Poc:178 I:1    P:339  SKIP:562  size=675 bytes
[libx264 @ 00000000026b3360] frame=  91 QP=19.20 NAL=2 Slice:P Poc:186 I:79   P:521  SKIP:320  size=5611 bytes
[libx264 @ 00000000026b3360] frame=  92 QP=20.75 NAL=2 Slice:B Poc:182 I:1    P:317  SKIP:578  size=748 bytes
[libx264 @ 00000000026b3360] frame=  93 QP=21.42 NAL=0 Slice:B Poc:184 I:1    P:362  SKIP:543  size=653 bytes
[libx264 @ 00000000026b3360] frame=  94 QP=19.36 NAL=2 Slice:P Poc:188 I:30   P:465  SKIP:425  size=3529 bytes
[libx264 @ 00000000026b3360] frame=  95 QP=20.01 NAL=2 Slice:P Poc:194 I:73   P:507  SKIP:340  size=4857 bytes
[libx264 @ 00000000026b3360] frame=  96 QP=23.27 NAL=2 Slice:B Poc:190 I:5    P:324  SKIP:562  size=951 bytes
[libx264 @ 00000000026b3360] frame=  97 QP=22.48 NAL=0 Slice:B Poc:192 I:4    P:388  SKIP:515  size=763 bytes
[libx264 @ 00000000026b3360] frame=  98 QP=20.17 NAL=2 Slice:P Poc:196 I:33   P:468  SKIP:419  size=2658 bytes
[libx264 @ 00000000026b3360] frame=  99 QP=19.03 NAL=2 Slice:P Poc:198 I:36   P:472  SKIP:412  size=2969 bytes
[libx264 @ 00000000026b3360] frame= 100 QP=19.54 NAL=2 Slice:P Poc:204 I:82   P:565  SKIP:273  size=6094 bytes
[libx264 @ 00000000026b3360] frame= 101 QP=23.27 NAL=2 Slice:B Poc:200 I:6    P:356  SKIP:528  size=982 bytes
[libx264 @ 00000000026b3360] frame= 102 QP=23.71 NAL=0 Slice:B Poc:202 I:0    P:420  SKIP:472  size=831 bytes
[libx264 @ 00000000026b3360] frame= 103 QP=19.72 NAL=2 Slice:P Poc:210 I:65   P:552  SKIP:303  size=5613 bytes
[libx264 @ 00000000026b3360] frame= 104 QP=22.94 NAL=2 Slice:B Poc:206 I:0    P:325  SKIP:567  size=962 bytes
[libx264 @ 00000000026b3360] frame= 105 QP=22.16 NAL=0 Slice:B Poc:208 I:1    P:378  SKIP:501  size=863 bytes
[libx264 @ 00000000026b3360] frame= 106 QP=21.08 NAL=2 Slice:P Poc:216 I:70   P:554  SKIP:296  size=5291 bytes
[libx264 @ 00000000026b3360] frame= 107 QP=23.74 NAL=2 Slice:B Poc:212 I:4    P:328  SKIP:560  size=983 bytes
[libx264 @ 00000000026b3360] frame= 108 QP=23.45 NAL=0 Slice:B Poc:214 I:3    P:398  SKIP:499  size=770 bytes
[libx264 @ 00000000026b3360] frame= 109 QP=20.96 NAL=2 Slice:P Poc:218 I:43   P:437  SKIP:440  size=2789 bytes
[libx264 @ 00000000026b3360] frame= 110 QP=21.40 NAL=2 Slice:P Poc:222 I:60   P:490  SKIP:370  size=3846 bytes
[libx264 @ 00000000026b3360] frame= 111 QP=23.31 NAL=0 Slice:B Poc:220 I:0    P:381  SKIP:513  size=747 bytes
[libx264 @ 00000000026b3360] frame= 112 QP=22.25 NAL=2 Slice:P Poc:224 I:33   P:442  SKIP:445  size=2438 bytes
[libx264 @ 00000000026b3360] frame= 113 QP=22.84 NAL=2 Slice:P Poc:226 I:33   P:405  SKIP:482  size=2365 bytes
[libx264 @ 00000000026b3360] frame= 114 QP=22.47 NAL=2 Slice:P Poc:228 I:42   P:444  SKIP:434  size=2536 bytes
[libx264 @ 00000000026b3360] frame= 115 QP=23.88 NAL=2 Slice:P Poc:230 I:25   P:389  SKIP:506  size=1864 bytes
[libx264 @ 00000000026b3360] frame= 116 QP=25.99 NAL=2 Slice:P Poc:232 I:35   P:320  SKIP:565  size=1469 bytes
Error writing trailer of x.mp4: Immediate exit requested
frame=  117 fps=3.8 q=28.0 Lsize=     155kB time=00:00:05.52 bitrate= 229.1kbits/s speed=0.18x    
video:129kB audio:82kB subtitle:0kB other streams:0kB global headers:0kB muxing overhead: unknown
Input file #0 (https://github.com/mediaelement/mediaelement-files/blob/master/big_buck_bunny.mp4?raw=true):
  Input stream #0:0 (audio): 119 packets read (49663 bytes); 119 frames decoded (121856 samples); 
  Input stream #0:1 (video): 125 packets read (308323 bytes); 118 frames decoded; 
  Input stream #0:2 (data): 0 packets read (0 bytes); 
  Input stream #0:3 (data): 0 packets read (0 bytes); 
  Total: 244 packets (357986 bytes) demuxed
Output file #0 (x.mp4):
  Output stream #0:0 (video): 117 frames encoded; 62 packets muxed (131711 bytes); 
  Output stream #0:1 (audio): 119 frames encoded (121856 samples); 120 packets muxed (83585 bytes); 
  Total: 182 packets (215296 bytes) muxed
237 frames successfully decoded, 0 decoding errors
[AVIOContext @ 0000000001f98d40] Statistics: 60 seeks, 162 writeouts
[libx264 @ 00000000026b3360] frame I:1     Avg QP:29.25  size: 25925
[libx264 @ 00000000026b3360] frame P:48    Avg QP:18.70  size:  3344
[libx264 @ 00000000026b3360] frame B:68    Avg QP:20.07  size:  1057
[libx264 @ 00000000026b3360] consecutive B-frames: 17.1%  8.5% 23.1% 51.3%
[libx264 @ 00000000026b3360] mb I  I16..4:  7.2% 12.0% 80.9%
[libx264 @ 00000000026b3360] mb P  I16..4:  8.9% 23.2%  1.3%  P16..4: 27.0%  5.5%  3.0%  0.0%  0.0%    skip:31.2%
[libx264 @ 00000000026b3360] mb B  I16..4:  7.8%  6.6%  0.0%  B16..8: 20.8%  2.1%  1.0%  direct:12.2%  skip:49.4%  L0:50.4% L1:44.6% BI: 5.0%
[libx264 @ 00000000026b3360] 8x8 transform intra:58.7% inter:58.4%
[libx264 @ 00000000026b3360] coded y,uvDC,uvAC intra: 11.0% 19.9% 5.4% inter: 6.7% 20.1% 1.0%
[libx264 @ 00000000026b3360] i16 v,h,dc,p: 45% 33% 16%  6%
[libx264 @ 00000000026b3360] i8 v,h,dc,ddl,ddr,vr,hd,vl,hu: 36% 20% 42%  0%  0%  0%  0%  0%  1%
[libx264 @ 00000000026b3360] i4 v,h,dc,ddl,ddr,vr,hd,vl,hu: 31% 15% 17%  6%  7%  6%  7%  5%  7%
[libx264 @ 00000000026b3360] i8c dc,h,v,p: 72% 19%  8%  1%
[libx264 @ 00000000026b3360] Weighted P-Frames: Y:27.1% UV:20.8%
[libx264 @ 00000000026b3360] ref P L0: 77.0%  4.7% 14.2%  4.1%  0.0%
[libx264 @ 00000000026b3360] ref B L0: 91.6%  7.6%  0.7%
[libx264 @ 00000000026b3360] ref B L1: 98.4%  1.6%
[libx264 @ 00000000026b3360] kb/s:423.91
[aac @ 0000000001f6ace0] Qavg: 61409.234
[AVIOContext @ 00000000001ae740] Statistics: 425984 bytes read, 0 seeks
[tls @ 00000000001ad1c0] Failed to send close message
Exiting normally, received signal 2.

Change History (2)

comment:1 Changed 2 months ago by bposert

To add to this bug report. The reason that it's more important than it might seem is because ffmpeg can be used to download and save streaming videos. Often when the video streaming ends, ffmpeg exhibits this behavior. The easiest way to reproduce it was to disconnect the network on my end.

comment:2 Changed 2 months ago by bposert

I thought this might be related to #5615, so I tested an old version, 2.5.2, which predates 5615, but it still has the same issue.

Here's the version info that I tried.
fmpeg version 2.5.2 Copyright (c) 2000-2014 the FFmpeg developers

built on Dec 30 2014 17:23:26 with gcc 4.9.2 (GCC)
configuration: --enable-gpl --enable-version3 --disable-w32threads --enable-avisynth --enable-bzlib --enable-fontconfig --enable-frei0r --enable-gnutls --enable-iconv --enable-libass --enable-libbluray --enable-libbs2b --enable-libcaca --enable-libfreetype --enable-libgme --enable-libgsm --enable-libilbc --enable-libmodplug --enable-libmp3lame --enable-libopencore-amrnb --enable-libopencore-amrwb --enable-libopenjpeg --enable-libopus --enable-librtmp --enable-libschroedinger --enable-libsoxr --enable-libspeex --enable-libtheora --enable-libtwolame --enable-libvidstab --enable-libvo-aacenc --enable-libvo-amrwbenc --enable-libvorbis --enable-libvpx --enable-libwavpack --enable-libwebp --enable-libx264 --enable-libx265 --enable-libxavs --enable-libxvid --enable-lzma --enable-decklink --enable-zlib
libavutil 54. 15.100 / 54. 15.100
libavcodec 56. 13.100 / 56. 13.100
libavformat 56. 15.102 / 56. 15.102
libavdevice 56. 3.100 / 56. 3.100
libavfilter 5. 2.103 / 5. 2.103
libswscale 3. 1.101 / 3. 1.101
libswresample 1. 1.100 / 1. 1.100
libpostproc 53. 3.100 / 53. 3.100

Note: See TracTickets for help on using tickets.