Changes between Initial Version and Version 1 of Ticket #6357, comment 2


Ignore:
Timestamp:
Apr 30, 2017, 6:25:41 PM (3 years ago)
Author:
xiaoxyzero
Comment:

Legend:

Unmodified
Added
Removed
Modified
  • Ticket #6357, comment 2

    initial v1  
    11Replying to [comment:1 cehoyos]: Thanks very much. That saves me a lot of time to reproduce this issue.
    22> Maybe an issue in `rtmp_packet_read_one_chunk()`.
    3 > {{{
    4 > $ ffmpeg -ss 16750 -i rtmp://live.hkstv.hk.lxdns.com/live/hks -f null -
    5 > ffmpeg version N-85727-gd61f93b Copyright (c) 2000-2017 the FFmpeg developers
    6 >   built with gcc 6.3.0 (GCC)
    7 >   configuration: --enable-gpl
    8 >   libavutil      55. 61.100 / 55. 61.100
    9 >   libavcodec     57. 93.100 / 57. 93.100
    10 >   libavformat    57. 72.101 / 57. 72.101
    11 >   libavdevice    57.  7.100 / 57.  7.100
    12 >   libavfilter     6. 88.100 /  6. 88.100
    13 >   libswscale      4.  7.101 /  4.  7.101
    14 >   libswresample   2.  8.100 /  2.  8.100
    15 >   libpostproc    54.  6.100 / 54.  6.100
    16 > Input #0, flv, from 'rtmp://live.hkstv.hk.lxdns.com/live/hks':
    17 >   Metadata:
    18 >     author          : PowerSmart
    19 >     copyright       :
    20 >     description     :
    21 >     datarate        : 500
    22 >     livetime        : 1489071037
    23 >     timeshift       : 0
    24 >   Duration: 01:00:00.00, start: 0.000000, bitrate: N/A
    25 >     Stream #0:0: Audio: aac (LC), 32000 Hz, stereo, fltp
    26 >     Stream #0:1: Video: h264 (Constrained Baseline), yuv420p(progressive), 640x480, 25 fps, 15 tbr, 1k tbn, 30 tbc
    27 > Stream mapping:
    28 >   Stream #0:1 -> #0:0 (h264 (native) -> wrapped_avframe (native))
    29 >   Stream #0:0 -> #0:1 (aac (native) -> pcm_s16le (native))
    30 > Press [q] to stop, [?] for help
    31 > [flv @ 0x40083e0] New subtitle stream 0:2 at pos:213277 and DTS:33497.3s
    32 > Output #0, null, to 'pipe:':
    33 >   Metadata:
    34 >     author          : PowerSmart
    35 >     copyright       :
    36 >     description     :
    37 >     datarate        : 500
    38 >     livetime        : 1489071037
    39 >     timeshift       : 0
    40 >     encoder         : Lavf57.72.101
    41 >     Stream #0:0: Video: wrapped_avframe, yuv420p(progressive), 640x480, q=2-31, 200 kb/s, 15 fps, 15 tbn, 15 tbc
    42 >     Metadata:
    43 >       encoder         : Lavc57.93.100 wrapped_avframe
    44 >     Stream #0:1: Audio: pcm_s16le, 32000 Hz, stereo, s16, 1024 kb/s
    45 >     Metadata:
    46 >       encoder         : Lavc57.93.100 pcm_s16le
    47 > [tcp @ 0x4008c60] RTMP packet size mismatch 2844 != 10564501=N/A speed=1.06x
    48 > [tcp @ 0x4008c60] RTMP packet size mismatch 11132902 != 9917494
    49 > [tcp @ 0x4008c60] RTMP packet size mismatch 12385551 != 15931647
    50 > [tcp @ 0x4008c60] RTMP packet size mismatch 5514591 != 12710304A speed=0.997x
    51 > [tcp @ 0x4008c60] RTMP packet size mismatch 15080379 != 36684
    52 > [tcp @ 0x4008c60] RTMP packet size mismatch 16251558 != 14306237
    53 > [flv @ 0x40083e0] Packet mismatch -1139395889 11 2059179
    54 > [tcp @ 0x4008c60] RTMP packet size mismatch 8190494 != 3912756
    55 > [tcp @ 0x4008c60] RTMP packet size mismatch 16324791 != 9749786
    56 > [tcp @ 0x4008c60] RTMP packet size mismatch 4919497 != 14226931
    57 > [tcp @ 0x4008c60] RTMP packet size mismatch 8219603 != 4360900
    58 > [flv @ 0x40083e0] Packet mismatch -1137942194 11 2059212rate=N/A speed=0.957x
    59 > [tcp @ 0x4008c60] RTMP packet size mismatch 2621404 != 4509089
    60 > [tcp @ 0x4008c60] RTMP packet size mismatch 5543389 != 902670
    61 > frame=  433 fps= 14 q=-0.0 Lsize=N/A time=00:00:28.35 bitrate=N/A speed=0.902x
    62 > video:210kB audio:3540kB subtitle:0kB other streams:0kB global headers:0kB muxing overhead: unknown
    63 > }}}
    64 > The seek has no effect except allowing to easily reproduce the issue.