Opened 6 months ago

Closed 2 weeks ago

#6349 closed defect (fixed)

libmp3lame encode segfaults with audio filter

Reported by: kylophone Owned by:
Priority: important Component: undetermined
Version: git-master Keywords: crash SIGSEV regression lame
Cc: Blocked By:
Blocking: Reproduced by developer: yes
Analyzed by developer: no

Description

Summary of the bug:

FFmpeg segfaults with this file when encoding with libmp3lame with an audio filter. The same segfault happens when using one of several other audio filters. FFmpeg was just built from the current git head (dfc4ce5f5ddb7ae0934bb3ca40b99932cf3e1cb0).

ffprobe file info:

Input #0, wav, from 'clip.wav':
  Metadata:
    date            : 2017-01-0
    encoder         : Lavf57.72.101
    encoded_by      : Pro Tools
  Duration: 00:00:15.02, bitrate: 1152 kb/s
    Stream #0:0: Audio: pcm_s24le ([1][0][0][0] / 0x0001), 48000 Hz, mono, s32 (24 bit), 1152 kb/s

How to reproduce:

ffmpeg -i clip.wav -af alimiter -c:a mp3 -b:a 128k -ar 48k -f null -
ffmpeg version N-85642-gdfc4ce5 Copyright (c) 2000-2017 the FFmpeg developers
  built with Apple LLVM version 7.0.2 (clang-700.1.81)
  configuration: --enable-shared --enable-pthreads --enable-gpl --enable-version3 --enable-hardcoded-tables --enable-avresample --cc=clang --host-cflags= --host-ldflags= --enable-libmp3lame --enable-libx264 --enable-libxvid --enable-opencl --disable-lzma --enable-vda --enable-libvpx --enable-libopus
  libavutil      55. 61.100 / 55. 61.100
  libavcodec     57. 93.100 / 57. 93.100
  libavformat    57. 72.101 / 57. 72.101
  libavdevice    57.  7.100 / 57.  7.100
  libavfilter     6. 87.100 /  6. 87.100
  libavresample   3.  6.  0 /  3.  6.  0
  libswscale      4.  7.101 /  4.  7.101
  libswresample   2.  8.100 /  2.  8.100
  libpostproc    54.  6.100 / 54.  6.100
Input #0, wav, from 'clip.wav':
  Metadata:
    date            : 2017-01-0
    encoder         : Lavf57.72.101
    encoded_by      : Pro Tools
  Duration: 00:00:15.02, bitrate: 1152 kb/s
    Stream #0:0: Audio: pcm_s24le ([1][0][0][0] / 0x0001), 48000 Hz, mono, s32 (24 bit), 1152 kb/s
Stream mapping:
  Stream #0:0 -> #0:0 (pcm_s24le (native) -> mp3 (libmp3lame))
Press [q] to stop, [?] for help
Output #0, null, to 'pipe:':
  Metadata:
    date            : 2017-01-0
    encoded_by      : Pro Tools
    encoder         : Lavf57.72.101
    Stream #0:0: Audio: mp3 (libmp3lame), 48000 Hz, mono, fltp (24 bit), 128 kb/s
    Metadata:
      encoder         : Lavc57.93.100 libmp3lame
zsh: segmentation fault  ffmpeg -i clip.wav -af alimiter -c:a mp3 -b:a 128k -ar 48k -f null -

gdb backtrace:

Program received signal SIGSEGV, Segmentation fault.
0x0000000101ba55cd in av_assert0_fpu () from /usr/local/lib/libavutil.55.dylib
(gdb) backtrace
#0  0x0000000101ba55cd in av_assert0_fpu () from /usr/local/lib/libavutil.55.dylib
#1  0x00000001007bdb10 in av_jni_get_java_vm () from /usr/local/lib/libavcodec.57.dylib
#2  0x00007fff5fbfdc0c in ?? ()
#3  0x0000000102601c80 in ?? ()
#4  0x00000000000001f0 in ?? ()
#5  0x0000000000000006 in ?? ()
#6  0x000000000000000c in ?? ()
#7  0x0000000101ef1000 in ?? ()
#8  0x00007fff5fbfdbb0 in ?? ()
#9  0x00000001026027e0 in ?? ()
#10 0x00007fff5fbfdc0c in ?? ()
#11 0x0000000102601c80 in ?? ()
#12 0x0000000000000000 in ?? ()

MacOS crash report:

Process:               ffmpeg [28218]
Path:                  /usr/local/bin/ffmpeg
Identifier:            ffmpeg
Version:               0
Code Type:             X86-64 (Native)
Parent Process:        zsh [15966]
Responsible:           Terminal [90035]
User ID:               1921560808

Date/Time:             2017-04-24 14:15:16.635 -0500
OS Version:            Mac OS X 10.10.5 (14F2109)
Report Version:        11
Anonymous UUID:        9A022765-A1D6-4133-507D-AF6B8EDF895E

Sleep/Wake UUID:       EE41D361-72E6-423A-86A8-FC2740611B59

Time Awake Since Boot: 530000 seconds
Time Since Wake:       4300 seconds

Crashed Thread:        0  Dispatch queue: com.apple.main-thread

Exception Type:        EXC_BAD_ACCESS (SIGSEGV)
Exception Codes:       EXC_I386_GPFLT

Thread 0 Crashed:: Dispatch queue: com.apple.main-thread
0   libavutil.55.dylib            	0x00000001098f25cd av_assert0_fpu + 1485

Thread 1:
0   libsystem_kernel.dylib        	0x00007fff96431136 __psynch_cvwait + 10

Thread 2:
0   libsystem_kernel.dylib        	0x00007fff96431136 __psynch_cvwait + 10

Thread 3:
0   libsystem_kernel.dylib        	0x00007fff96431136 __psynch_cvwait + 10

Thread 4:
0   libsystem_kernel.dylib        	0x00007fff96431136 __psynch_cvwait + 10

Thread 5:
0   libsystem_kernel.dylib        	0x00007fff96431136 __psynch_cvwait + 10

Thread 6:
0   libsystem_kernel.dylib        	0x00007fff96431136 __psynch_cvwait + 10

Thread 7:
0   libsystem_kernel.dylib        	0x00007fff96431136 __psynch_cvwait + 10

Thread 8:
0   libsystem_kernel.dylib        	0x00007fff96431136 __psynch_cvwait + 10

Thread 9:
0   libsystem_kernel.dylib        	0x00007fff96431136 __psynch_cvwait + 10

Thread 0 crashed with X86 Thread State (64-bit):
  rax: 0x00000000000002d0  rbx: 0x00007fa2b042a780  rcx: 0x00007fa2b0423100  rdx: 0x0000000000000b30
  rdi: 0x00007fa2b080f600  rsi: 0x00007fa2b089a014  rbp: 0x0000000000000000  rsp: 0x00007fff57ebfb68
   r8: 0x00000000000f4240   r9: 0x0000000000000000  r10: 0x000000000007a120  r11: 0x00007fa2b0400000
  r12: 0x00007fa2b0820c00  r13: 0x00007fa2b0429c00  r14: 0x00007fa2b0423b00  r15: 0x00007fa2b0820c00
  rip: 0x00000001098f25cd  rfl: 0x0000000000010202  cr2: 0x0000000109c0b5b0
  
Logical CPU:     0
Error Code:      0x00000000
Trap Number:     13


Binary Images:
       0x107d3e000 -        0x107d6bfff +ffmpeg (0) <EEABF0E9-23E0-3924-85E0-DC4724D5123E> /usr/local/bin/ffmpeg
       0x107d7e000 -        0x107d86ff7 +libavdevice.57.dylib (0) <3950BA15-C048-3CDB-9EEA-8CAD234DCECE> /usr/local/lib/libavdevice.57.dylib
       0x107d8e000 -        0x107f27fff +libavfilter.6.dylib (0) <EAF7411E-8A52-3FFA-AF89-95BD2B0A9EF5> /usr/local/lib/libavfilter.6.dylib
       0x107f91000 -        0x10812dff7 +libavformat.57.dylib (0) <77435D7B-A942-3BD8-BB97-1D4AAD5254B8> /usr/local/lib/libavformat.57.dylib
       0x108173000 -        0x1090c2f4f +libavcodec.57.dylib (0) <ACA9F35A-557F-311F-B6FD-D24D99EBD1EC> /usr/local/lib/libavcodec.57.dylib
       0x1097ca000 -        0x1097e5ff7 +libavresample.3.dylib (0) <0A355673-F3F3-3989-9CD1-53909B589911> /usr/local/lib/libavresample.3.dylib
       0x1097ec000 -        0x109809ff7 +libpostproc.54.dylib (0) <D4A1CAE3-E011-3C9B-A32B-0FD1E9958590> /usr/local/lib/libpostproc.54.dylib
       0x10980e000 -        0x109826fff +libswresample.2.dylib (0) <80518108-514D-337C-ADBA-27197EB2003D> /usr/local/lib/libswresample.2.dylib
       0x10982c000 -        0x1098afff7 +libswscale.4.dylib (0) <09A2EAE9-8F62-3883-99AF-08B67217C66F> /usr/local/lib/libswscale.4.dylib
       0x1098bd000 -        0x109906ff7 +libavutil.55.dylib (0) <B7957198-75E9-36BF-96CB-21ED3DA10F2E> /usr/local/lib/libavutil.55.dylib
       0x109929000 -        0x1099d2ff7 +libSDL2-2.0.0.dylib (0) <13519299-19D0-3E7B-B282-30793CD07E04> /usr/local/opt/sdl2/lib/libSDL2-2.0.0.dylib
       0x109a0e000 -        0x109a0ffff  com.apple.VideoDecodeAcceleration (1.1 - 8) <B624EA7A-EECA-3A30-9FE9-25C8339535BE> /System/Library/Frameworks/VideoDecodeAcceleration.framework/Versions/A/VideoDecodeAcceleration
       0x109a1a000 -        0x109af9fff +libx264.148.dylib (0) <3F494DDD-A841-3C1A-9B36-2A18A89A7102> /usr/local/opt/x264/lib/libx264.148.dylib
       0x109b8d000 -        0x109bceff7 +libopus.0.dylib (0) <0BFFA36E-D9E6-3ECB-A106-1380FF0E04FE> /usr/local/opt/opus/lib/libopus.0.dylib
       0x109bd6000 -        0x109c0bfff +libmp3lame.0.dylib (0) <2D449F39-3AE5-3C4A-B56D-AF82F6A481F3> /usr/local/opt/lame/lib/libmp3lame.0.dylib
       0x109c48000 -        0x109c4afff  com.apple.ForceFeedback (1.0.6 - 1.0.6) <A411AA46-5DB6-3C6C-B4B4-613EC1EF33C3> /System/Library/Frameworks/ForceFeedback.framework/Versions/A/ForceFeedback
    0x7fff67cb2000 -     0x7fff67ce892f  dyld (353.2.4) <708E385E-50C6-32A3-983C-42E97BEE4346> /usr/lib/dyld
    0x7fff8a0f9000 -     0x7fff8a115ff7  libsystem_malloc.dylib (53.30.1) <DDA8928B-CC0D-3255-BD8A-3FEA0982B890> /usr/lib/system/libsystem_malloc.dylib
    0x7fff8a285000 -     0x7fff8a5a0fcf  com.apple.vImage (8.0 - 8.0) <1183FE6A-FDB6-3B3B-928D-50C7909F2308> /System/Library/Frameworks/Accelerate.framework/Versions/A/Frameworks/vImage.framework/Versions/A/vImage
    0x7fff8a5a1000 -     0x7fff8a5f2ff7  com.apple.AppleVAFramework (5.0.31 - 5.0.31) <17C35538-7C2B-3735-A1B3-E8487EED0668> /System/Library/PrivateFrameworks/AppleVA.framework/Versions/A/AppleVA
    0x7fff8a5f3000 -     0x7fff8a5fcfff  libsystem_pthread.dylib (105.40.1) <ACE90967-ECD0-3251-AEEB-461E3C6414F7> /usr/lib/system/libsystem_pthread.dylib
    0x7fff8a5fd000 -     0x7fff8b17eff7  com.apple.AppKit (6.9 - 1348.17) <E485D56D-3E72-34B7-99BB-BFDEE2D07BF5> /System/Library/Frameworks/AppKit.framework/Versions/C/AppKit
    0x7fff8bace000 -     0x7fff8bb3fffb  com.apple.ApplicationServices.ATS (360 - 375.4) <888FE0B1-835C-30B1-80AD-5066CADB0364> /System/Library/Frameworks/ApplicationServices.framework/Versions/A/Frameworks/ATS.framework/Versions/A/ATS
    0x7fff8bb62000 -     0x7fff8bb6bff7  libsystem_notify.dylib (133.1.1) <61147800-F320-3DAA-850C-BADF33855F29> /usr/lib/system/libsystem_notify.dylib
    0x7fff8bb6c000 -     0x7fff8bb88fff  com.apple.GenerationalStorage (2.0 - 209.11) <9FF8DD11-25FB-3047-A5BF-9415339B3EEC> /System/Library/PrivateFrameworks/GenerationalStorage.framework/Versions/A/GenerationalStorage
    0x7fff8be5c000 -     0x7fff8be76ff3  com.apple.Ubiquity (1.3 - 313) <DF56A657-CC6E-3BE2-86A0-71F07127724C> /System/Library/PrivateFrameworks/Ubiquity.framework/Versions/A/Ubiquity
    0x7fff8be90000 -     0x7fff8bf2fe27  com.apple.AppleJPEG (1.0 - 1) <6627DDD9-A8FE-3968-B23A-B6A29AA3919A> /System/Library/PrivateFrameworks/AppleJPEG.framework/Versions/A/AppleJPEG
    0x7fff8c1cd000 -     0x7fff8c2f5ff7  com.apple.coreui (2.1 - 308.6) <9E0E9C6A-68F5-34C1-A17C-96226D401D4D> /System/Library/PrivateFrameworks/CoreUI.framework/Versions/A/CoreUI
    0x7fff8c2f6000 -     0x7fff8c2f6fff  com.apple.CoreServices (62 - 62) <C69DA8A7-B536-34BF-A93F-1C170E2C6D58> /System/Library/Frameworks/CoreServices.framework/Versions/A/CoreServices
    0x7fff8c2f7000 -     0x7fff8c30eff7  libLinearAlgebra.dylib (1128) <E78CCBAA-A999-3B65-8EC9-06DB15E67C37> /System/Library/Frameworks/Accelerate.framework/Versions/A/Frameworks/vecLib.framework/Versions/A/libLinearAlgebra.dylib
    0x7fff8c30f000 -     0x7fff8c315ff7  libsystem_networkextension.dylib (167.40.3) <BA58B30B-8377-3B0A-8AE3-4F84021D9D4E> /usr/lib/system/libsystem_networkextension.dylib
    0x7fff8c358000 -     0x7fff8c3d9ff7  com.apple.CoreUtils (1.1 - 110.1) <3808CBC5-1DF1-3821-8AAE-57C30D4F514B> /System/Library/PrivateFrameworks/CoreUtils.framework/Versions/A/CoreUtils
    0x7fff8c415000 -     0x7fff8c506fff  libJP2.dylib (1247) <D74A8708-C27E-3D7C-89D0-BE999596E2B1> /System/Library/Frameworks/ImageIO.framework/Versions/A/Resources/libJP2.dylib
    0x7fff8c87f000 -     0x7fff8c8f3ffb  com.apple.securityfoundation (6.0 - 55126) <344401F5-4016-3AEB-BFDC-CE8E5546D39F> /System/Library/Frameworks/SecurityFoundation.framework/Versions/A/SecurityFoundation
    0x7fff8cb53000 -     0x7fff8cbbffff  com.apple.framework.CoreWLAN (5.0 - 500.35.2) <03697149-1CDD-32FF-B564-1C1EF5E9E5C3> /System/Library/Frameworks/CoreWLAN.framework/Versions/A/CoreWLAN
    0x7fff8cbc3000 -     0x7fff8cd73ff3  com.apple.QuartzCore (1.10 - 361.19) <E59000AA-DC30-3F73-A103-0240576C9556> /System/Library/Frameworks/QuartzCore.framework/Versions/A/QuartzCore
    0x7fff8cd74000 -     0x7fff8cda1fff  com.apple.CoreVideo (1.8 - 145.1) <18DB07E0-B927-3260-A234-636F298D1917> /System/Library/Frameworks/CoreVideo.framework/Versions/A/CoreVideo
    0x7fff8cdff000 -     0x7fff8cf2ffff  com.apple.UIFoundation (1.0 - 1) <466BDFA8-0B9F-3AB0-989D-F9779422926A> /System/Library/PrivateFrameworks/UIFoundation.framework/Versions/A/UIFoundation
    0x7fff8cf33000 -     0x7fff8cfb7fff  com.apple.PerformanceAnalysis (1.0 - 1) <095E6B1C-DC20-38DC-8931-16041B0489C7> /System/Library/PrivateFrameworks/PerformanceAnalysis.framework/Versions/A/PerformanceAnalysis
    0x7fff8cfb8000 -     0x7fff8cfc5ff7  com.apple.SpeechRecognitionCore (2.1.2 - 2.1.2) <551322E2-C1E4-3378-A218-F362985E3E3C> /System/Library/PrivateFrameworks/SpeechRecognitionCore.framework/Versions/A/SpeechRecognitionCore
    0x7fff8d926000 -     0x7fff8db0bff7  libicucore.A.dylib (531.50) <CAA7ACE0-4012-3A13-864D-2B56B4B072FD> /usr/lib/libicucore.A.dylib
    0x7fff8de4d000 -     0x7fff8de51ff7  libGIF.dylib (1247) <5EA6D19A-9922-39F6-82DB-DE7A5B8860CF> /System/Library/Frameworks/ImageIO.framework/Versions/A/Resources/libGIF.dylib
    0x7fff8de5d000 -     0x7fff8dfa1ff7  com.apple.QTKit (7.7.3 - 2890.10) <3578818E-5894-3A6B-86D7-C7C817268634> /System/Library/Frameworks/QTKit.framework/Versions/A/QTKit
    0x7fff8dfaa000 -     0x7fff8e0ceff7  com.apple.LaunchServices (644.56 - 644.56) <20AABB1C-9319-3E4D-A024-51B0DD5FCD3B> /System/Library/Frameworks/CoreServices.framework/Versions/A/Frameworks/LaunchServices.framework/Versions/A/LaunchServices
    0x7fff8e208000 -     0x7fff8e232ff7  libdispatch.dylib (442.50.1) <A61E703C-784A-3698-B513-75DD12AAD6DC> /usr/lib/system/libdispatch.dylib
    0x7fff8e233000 -     0x7fff8e236ff7  libdyld.dylib (353.2.4) <224F35C5-6E35-3EC4-A97C-80949CE444E7> /usr/lib/system/libdyld.dylib
    0x7fff8e24c000 -     0x7fff8e270ff7  com.apple.Sharing (328.17 - 328.17) <AD5E243A-B79F-3D7B-800B-A2C99A1CFEF1> /System/Library/PrivateFrameworks/Sharing.framework/Versions/A/Sharing
    0x7fff8e271000 -     0x7fff8e648fe7  com.apple.CoreAUC (211.1.0 - 211.1.0) <12645629-E065-388E-A6B5-094A240578CE> /System/Library/PrivateFrameworks/CoreAUC.framework/Versions/A/CoreAUC
    0x7fff8e64d000 -     0x7fff8e69aff3  com.apple.CoreMediaIO (601.0 - 4760) <546B03BF-A687-36E1-AAFA-58D4B1A732D4> /System/Library/Frameworks/CoreMediaIO.framework/Versions/A/CoreMediaIO
    0x7fff8e6d8000 -     0x7fff8e746ff3  com.apple.Heimdal (4.0 - 2.0) <8D1667CF-D454-3E07-A58E-E15591B5A95E> /System/Library/PrivateFrameworks/Heimdal.framework/Versions/A/Heimdal
    0x7fff8e747000 -     0x7fff8e76cfff  libPng.dylib (1247) <1E8B06AA-1DC5-3845-88D9-B2F8E6E1E540> /System/Library/Frameworks/ImageIO.framework/Versions/A/Resources/libPng.dylib
    0x7fff8e773000 -     0x7fff8e785ff7  com.apple.ImageCapture (9.0 - 9.0) <7FB65DD4-56B5-35C4-862C-7A2DED991D1F> /System/Library/Frameworks/Carbon.framework/Versions/A/Frameworks/ImageCapture.framework/Versions/A/ImageCapture
    0x7fff8e786000 -     0x7fff8e787ff3  libSystem.B.dylib (1213) <4B24B5BE-45F2-355A-9A35-D438A516D140> /usr/lib/libSystem.B.dylib
    0x7fff8e791000 -     0x7fff8e80afe7  libcorecrypto.dylib (233.30.1) <5779FFA0-4D9A-3AD4-B7F2-618227621DC8> /usr/lib/system/libcorecrypto.dylib
    0x7fff8e80b000 -     0x7fff8f04fff7  com.apple.CoreGraphics (1.600.0 - 788.3.6) <3C5D7B35-2EB7-3907-A6B1-9186BDEA2CC8> /System/Library/Frameworks/CoreGraphics.framework/Versions/A/CoreGraphics
    0x7fff8f079000 -     0x7fff8f079fff  com.apple.Carbon (154 - 157) <9BF51672-1684-3FDE-A561-FC59A2864EF8> /System/Library/Frameworks/Carbon.framework/Versions/A/Carbon
    0x7fff8f07a000 -     0x7fff8f093ff3  com.apple.openscripting (1.6.4 - 162.2) <BF79207B-C762-346D-8FF0-3DDCECC9E9E2> /System/Library/Frameworks/Carbon.framework/Versions/A/Frameworks/OpenScripting.framework/Versions/A/OpenScripting
    0x7fff8f126000 -     0x7fff8f12bfff  com.apple.DiskArbitration (2.6 - 2.6) <0DFF4D9B-2AC3-3B82-B5C5-30F4EFBD2DB9> /System/Library/Frameworks/DiskArbitration.framework/Versions/A/DiskArbitration
    0x7fff8f226000 -     0x7fff8f22eff3  com.apple.CoreServices.FSEvents (1210.20.1 - 1210.20.1) <84F79D3E-7B5E-3C93-8479-35794A3F125E> /System/Library/Frameworks/CoreServices.framework/Versions/A/Frameworks/FSEvents.framework/Versions/A/FSEvents
    0x7fff8f28e000 -     0x7fff8f2c7fff  com.apple.AirPlaySupport (2.0 - 215.18) <A7730005-A538-30E8-815B-727957D74C89> /System/Library/PrivateFrameworks/AirPlaySupport.framework/Versions/A/AirPlaySupport
    0x7fff8f41f000 -     0x7fff8f430fff  libcmph.dylib (1) <46EC3997-DB5E-38AE-BBBB-A035A54AD3C0> /usr/lib/libcmph.dylib
    0x7fff8f4b9000 -     0x7fff8f55bfff  com.apple.Bluetooth (4.3.6 - 4.3.6f4) <D9286207-FC6A-36B7-A10D-830F6B1A2E8F> /System/Library/Frameworks/IOBluetooth.framework/Versions/A/IOBluetooth
    0x7fff8f55c000 -     0x7fff8f5afffb  libAVFAudio.dylib (118.6) <2441D4C1-D8FB-3DA9-9DD7-914E03413882> /System/Library/Frameworks/AVFoundation.framework/Versions/A/Resources/libAVFAudio.dylib
    0x7fff8f5d3000 -     0x7fff8f6c7ff7  libFontParser.dylib (134.10) <6CF434A2-91CA-3477-BDE2-124508EDA05D> /System/Library/Frameworks/ApplicationServices.framework/Versions/A/Frameworks/ATS.framework/Versions/A/Resources/libFontParser.dylib
    0x7fff8f6cc000 -     0x7fff8f6f0fef  libJPEG.dylib (1247) <78AA0479-176D-3C69-ADFB-4609A4A676FF> /System/Library/Frameworks/ImageIO.framework/Versions/A/Resources/libJPEG.dylib
    0x7fff8f6f1000 -     0x7fff8f6f2fff  libDiagnosticMessagesClient.dylib (100) <2EE8E436-5CDC-34C5-9959-5BA218D507FB> /usr/lib/libDiagnosticMessagesClient.dylib
    0x7fff8f824000 -     0x7fff8f8d3fe7  libvMisc.dylib (516) <6739E390-46E7-3BFA-9B69-B278562326E6> /System/Library/Frameworks/Accelerate.framework/Versions/A/Frameworks/vecLib.framework/Versions/A/libvMisc.dylib
    0x7fff8f8d4000 -     0x7fff8f8dffff  libGL.dylib (11.1.6) <38B3FF9A-5660-3080-9DB8-1CAE0E8CD739> /System/Library/Frameworks/OpenGL.framework/Versions/A/Libraries/libGL.dylib
    0x7fff8f8e0000 -     0x7fff8f920ff7  libGLImage.dylib (11.1.6) <D6DDC014-2C74-34B3-970A-26F211FF76EF> /System/Library/Frameworks/OpenGL.framework/Versions/A/Libraries/libGLImage.dylib
    0x7fff8f921000 -     0x7fff8f949fff  libxpc.dylib (559.40.1) <5C829202-962E-3744-8B50-00D38CC88E84> /usr/lib/system/libxpc.dylib
    0x7fff8f94a000 -     0x7fff8f959fff  com.apple.LangAnalysis (1.7.0 - 1.7.0) <D1E527E4-C561-352F-9457-E8C50232793C> /System/Library/Frameworks/ApplicationServices.framework/Versions/A/Frameworks/LangAnalysis.framework/Versions/A/LangAnalysis
    0x7fff8f95a000 -     0x7fff8f95cfff  com.apple.loginsupport (1.0 - 1) <DAAD7013-A19D-3858-BFF7-DE1DAF664401> /System/Library/PrivateFrameworks/login.framework/Versions/A/Frameworks/loginsupport.framework/Versions/A/loginsupport
    0x7fff8fa58000 -     0x7fff8fa80fff  libsystem_info.dylib (459.40.1) <2E16C4B3-A327-3957-9C41-143911979A1E> /usr/lib/system/libsystem_info.dylib
    0x7fff8fab5000 -     0x7fff8facbff7  libsystem_asl.dylib (267) <F153AC5B-0542-356E-88C8-20A62CA704E2> /usr/lib/system/libsystem_asl.dylib
    0x7fff8fad1000 -     0x7fff8fad1fff  com.apple.Accelerate (1.10 - Accelerate 1.10) <2C8AF258-4F11-3BEC-A826-22D7199B3975> /System/Library/Frameworks/Accelerate.framework/Versions/A/Accelerate
    0x7fff8fad2000 -     0x7fff8fb21ff7  com.apple.opencl (2.4.2 - 2.4.2) <590504FA-E5D2-37C2-91A7-09F5F039F971> /System/Library/Frameworks/OpenCL.framework/Versions/A/OpenCL
    0x7fff8fe51000 -     0x7fff8fe97ff7  libauto.dylib (186) <A260789B-D4D8-316A-9490-254767B8A5F1> /usr/lib/libauto.dylib
    0x7fff8fefe000 -     0x7fff8ff36fff  libsystem_network.dylib (412.20.3) <6105C134-6722-3C0A-A4CE-5E1261E2E1CC> /usr/lib/system/libsystem_network.dylib
    0x7fff8ff3c000 -     0x7fff901bbff7  com.apple.CoreData (111 - 526.3) <5A27E0D8-5E5A-335B-B3F6-2601C7B976FA> /System/Library/Frameworks/CoreData.framework/Versions/A/CoreData
    0x7fff901bc000 -     0x7fff901c1ff7  com.apple.MediaAccessibility (1.0 - 61) <00A3E0B6-79AC-387E-B282-AADFBD5722F6> /System/Library/Frameworks/MediaAccessibility.framework/Versions/A/MediaAccessibility
    0x7fff901c2000 -     0x7fff90231fff  com.apple.SearchKit (1.4.0 - 1.4.0) <80883BD1-C9BA-3794-A20E-476F94DD89A9> /System/Library/Frameworks/CoreServices.framework/Versions/A/Frameworks/SearchKit.framework/Versions/A/SearchKit
    0x7fff90232000 -     0x7fff90232fff  com.apple.Cocoa (6.8 - 21) <EAC0EA1E-3C62-3B28-A941-5D8B1E085FF8> /System/Library/Frameworks/Cocoa.framework/Versions/A/Cocoa
    0x7fff90233000 -     0x7fff902bffef  libsystem_c.dylib (1044.40.3) <2E673D96-E334-37D2-833A-E57383BBA377> /usr/lib/system/libsystem_c.dylib
    0x7fff9043c000 -     0x7fff90496ff7  com.apple.LanguageModeling (1.0 - 1) <ACA93FE0-A0E3-333E-AE3C-8EB7DE5F362F> /System/Library/PrivateFrameworks/LanguageModeling.framework/Versions/A/LanguageModeling
    0x7fff904f0000 -     0x7fff90520fff  libsystem_m.dylib (3086.1) <1E12AB45-6D96-36D0-A226-F24D9FB0D9D6> /usr/lib/system/libsystem_m.dylib
    0x7fff90c7d000 -     0x7fff91015ff7  com.apple.CoreFoundation (6.9 - 1153.18) <5C0892B8-9691-341F-9279-CA3A74D59AA0> /System/Library/Frameworks/CoreFoundation.framework/Versions/A/CoreFoundation
    0x7fff91019000 -     0x7fff9115ffef  libsqlite3.dylib (168.2) <53F6A294-15D7-3804-9ABF-47D35E15CDFB> /usr/lib/libsqlite3.dylib
    0x7fff9116b000 -     0x7fff91186ff7  libCRFSuite.dylib (34) <D64842BE-7BD4-3D0C-9842-1D202F7C2A51> /usr/lib/libCRFSuite.dylib
    0x7fff911b9000 -     0x7fff911bafff  liblangid.dylib (117) <B54A4AA0-2E53-3671-90F5-AFF711C0EB9E> /usr/lib/liblangid.dylib
    0x7fff911bb000 -     0x7fff91349fff  libBLAS.dylib (1128) <497912C1-A98E-3281-BED7-E9C751552F61> /System/Library/Frameworks/Accelerate.framework/Versions/A/Frameworks/vecLib.framework/Versions/A/libBLAS.dylib
    0x7fff91362000 -     0x7fff91572ff7  com.apple.CFNetwork (720.5.7 - 720.5.7) <A47D7DD2-5903-39D0-8D27-5A7E2D119D84> /System/Library/Frameworks/CFNetwork.framework/Versions/A/CFNetwork
    0x7fff9157f000 -     0x7fff915b9ffb  com.apple.DebugSymbols (115 - 115) <6F03761D-7C3A-3C80-8031-AA1C1AD7C706> /System/Library/PrivateFrameworks/DebugSymbols.framework/Versions/A/DebugSymbols
    0x7fff9187b000 -     0x7fff91882ff7  libcompiler_rt.dylib (35) <BF8FC133-EE10-3DA6-9B90-92039E28678F> /usr/lib/system/libcompiler_rt.dylib
    0x7fff918be000 -     0x7fff918bfffb  libremovefile.dylib (35) <3485B5F4-6CE8-3C62-8DFD-8736ED6E8531> /usr/lib/system/libremovefile.dylib
    0x7fff91925000 -     0x7fff91c58ff7  libmecabra.dylib (666.7) <0ED8AE5E-7A5B-34A6-A2EE-2B852E60E1E2> /usr/lib/libmecabra.dylib
    0x7fff91c81000 -     0x7fff91fecfff  com.apple.VideoToolbox (1.0 - 1562.240) <BEBDEB83-618F-38BE-B7A7-5E096B428DFA> /System/Library/Frameworks/VideoToolbox.framework/Versions/A/VideoToolbox
    0x7fff91fed000 -     0x7fff9202efff  libGLU.dylib (11.1.6) <4BC6579D-A6D0-3A19-880E-E29FAEA698E7> /System/Library/Frameworks/OpenGL.framework/Versions/A/Libraries/libGLU.dylib
    0x7fff9202f000 -     0x7fff9205affb  libarchive.2.dylib (30.50.1) <C140763F-5470-3302-B3E0-651B4B5930ED> /usr/lib/libarchive.2.dylib
    0x7fff92210000 -     0x7fff922a4fff  com.apple.ink.framework (10.9 - 213) <8E029630-1530-3734-A446-13353F0E7AC5> /System/Library/Frameworks/Carbon.framework/Versions/A/Frameworks/Ink.framework/Versions/A/Ink
    0x7fff928cf000 -     0x7fff928daff7  libkxld.dylib (2782.50.9) <D0957933-18F0-3058-B5E4-F33AB3D6FAEC> /usr/lib/system/libkxld.dylib
    0x7fff928db000 -     0x7fff92901fff  com.apple.ChunkingLibrary (2.1 - 163.6) <29D4CB95-42EF-34C6-8182-BDB6F7BB1E79> /System/Library/PrivateFrameworks/ChunkingLibrary.framework/Versions/A/ChunkingLibrary
    0x7fff929c5000 -     0x7fff929fdfff  com.apple.RemoteViewServices (2.0 - 99) <C9A62691-B0D9-34B7-B71C-A48B5F4DC553> /System/Library/PrivateFrameworks/RemoteViewServices.framework/Versions/A/RemoteViewServices
    0x7fff929fe000 -     0x7fff92a0eff7  libbsm.0.dylib (34) <A3A2E56C-2B65-37C7-B43A-A1F926E1A0BB> /usr/lib/libbsm.0.dylib
    0x7fff92a6a000 -     0x7fff92ba5fff  com.apple.ImageIO.framework (3.3.0 - 1247) <F708DED7-DF04-3D82-A88C-FD85D7D29CFF> /System/Library/Frameworks/ImageIO.framework/Versions/A/ImageIO
    0x7fff92ba6000 -     0x7fff92c0dffb  com.apple.datadetectorscore (6.0 - 396.1.2) <E5A147AE-66B5-3D31-A2E0-D3FAB8417E1F> /System/Library/PrivateFrameworks/DataDetectorsCore.framework/Versions/A/DataDetectorsCore
    0x7fff92c0e000 -     0x7fff92c75ff7  com.apple.framework.CoreWiFi (3.0 - 300.4) <19269C1D-EB29-384A-83F3-7DDDEB7D9DAD> /System/Library/PrivateFrameworks/CoreWiFi.framework/Versions/A/CoreWiFi
    0x7fff92c76000 -     0x7fff92ccafff  libc++.1.dylib (120) <1B9530FD-989B-3174-BB1C-BDC159501710> /usr/lib/libc++.1.dylib
    0x7fff92ccb000 -     0x7fff92ccbfff  com.apple.Accelerate.vecLib (3.10 - vecLib 3.10) <9D749502-A228-3BF1-B52F-A182DEEB2C4D> /System/Library/Frameworks/Accelerate.framework/Versions/A/Frameworks/vecLib.framework/Versions/A/vecLib
    0x7fff92d6d000 -     0x7fff92db7fff  com.apple.HIServices (1.22 - 523) <99ADA325-53C8-368E-A5FA-3F913CD2245A> /System/Library/Frameworks/ApplicationServices.framework/Versions/A/Frameworks/HIServices.framework/Versions/A/HIServices
    0x7fff93d7c000 -     0x7fff93d8fff7  com.apple.CoreBluetooth (1.0 - 1) <8D7BA9BA-EB36-307A-9119-0B3D9732C953> /System/Library/Frameworks/CoreBluetooth.framework/Versions/A/CoreBluetooth
    0x7fff93da0000 -     0x7fff93da9ff3  com.apple.CommonAuth (4.0 - 2.0) <9A484EE6-0003-3AB1-AE4F-AA543BBBF53F> /System/Library/PrivateFrameworks/CommonAuth.framework/Versions/A/CommonAuth
    0x7fff93daa000 -     0x7fff93dc5fff  com.apple.AppleVPAFramework (1.4.5 - 1.4.5) <B21714FD-3F2E-36D8-996E-EC74676F933F> /System/Library/PrivateFrameworks/AppleVPA.framework/Versions/A/AppleVPA
    0x7fff93e91000 -     0x7fff93ebdfff  libsandbox.1.dylib (358.20.5) <48D18565-06B6-38CF-8CF5-74215AAE79CA> /usr/lib/libsandbox.1.dylib
    0x7fff93ec9000 -     0x7fff93f3bfff  com.apple.framework.IOKit (2.0.2 - 1050.20.2) <09C0518C-90DF-3FC3-96D6-34D35F72C8EF> /System/Library/Frameworks/IOKit.framework/Versions/A/IOKit
    0x7fff93f7e000 -     0x7fff93f80fff  libCVMSPluginSupport.dylib (11.1.6) <F82BF8C4-12D3-3EAD-AEDE-533AC08AEB4A> /System/Library/Frameworks/OpenGL.framework/Versions/A/Libraries/libCVMSPluginSupport.dylib
    0x7fff93f81000 -     0x7fff93fbcfff  com.apple.QD (301 - 301) <C4D2AD03-B839-350A-AAF0-B4A08F8BED77> /System/Library/Frameworks/ApplicationServices.framework/Versions/A/Frameworks/QD.framework/Versions/A/QD
    0x7fff93fbd000 -     0x7fff940afff7  libiconv.2.dylib (42) <2A06D02F-8B76-3864-8D96-64EF5B40BC6C> /usr/lib/libiconv.2.dylib
    0x7fff940b0000 -     0x7fff940c5ff7  com.apple.AppContainer (4.0 - 238.20.2) <2AA2EF49-9F38-31F6-8B08-8CC7C26F57F3> /System/Library/PrivateFrameworks/AppContainer.framework/Versions/A/AppContainer
    0x7fff94104000 -     0x7fff9413ffff  com.apple.Symbolication (1.4 - 56045) <D64571B1-4483-3FE2-BD67-A91360F79727> /System/Library/PrivateFrameworks/Symbolication.framework/Versions/A/Symbolication
    0x7fff94140000 -     0x7fff94160ff7  com.apple.MultitouchSupport.framework (264.6 - 264.6) <1539F1F6-6334-37F3-9C52-02EFFBF4835D> /System/Library/PrivateFrameworks/MultitouchSupport.framework/Versions/A/MultitouchSupport
    0x7fff941ee000 -     0x7fff94219ff7  com.apple.DictionaryServices (1.2 - 229.1) <62EC3E1B-5A28-3252-90FF-C2E9999C2A2A> /System/Library/Frameworks/CoreServices.framework/Versions/A/Frameworks/DictionaryServices.framework/Versions/A/DictionaryServices
    0x7fff9421a000 -     0x7fff9422bff3  libsystem_coretls.dylib (35.40.1) <155DA0A9-2046-332E-BFA3-D7974A51F731> /usr/lib/system/libsystem_coretls.dylib
    0x7fff9422c000 -     0x7fff9433eff7  libvDSP.dylib (516) <151B3CCB-77D3-3715-A3D0-7C74CD5C7FFC> /System/Library/Frameworks/Accelerate.framework/Versions/A/Frameworks/vecLib.framework/Versions/A/libvDSP.dylib
    0x7fff9433f000 -     0x7fff9444eff3  com.apple.desktopservices (1.9.3 - 1.9.3) <FEE11342-5BC4-37A7-8169-DA48BE17B9C9> /System/Library/PrivateFrameworks/DesktopServicesPriv.framework/Versions/A/DesktopServicesPriv
    0x7fff94d4f000 -     0x7fff94d58fff  libGFXShared.dylib (11.1.6) <CB24B5DA-CB17-3A0B-94E1-5A58DADC3FBD> /System/Library/Frameworks/OpenGL.framework/Versions/A/Libraries/libGFXShared.dylib
    0x7fff94d89000 -     0x7fff94db9ff3  com.apple.GSS (4.0 - 2.0) <97F2A028-44CF-3188-B863-F4EEB39CBDBD> /System/Library/Frameworks/GSS.framework/Versions/A/GSS
    0x7fff94dba000 -     0x7fff94dc2fff  libMatch.1.dylib (24) <C917279D-33C2-38A8-9BDD-18F3B24E6FBD> /usr/lib/libMatch.1.dylib
    0x7fff94e96000 -     0x7fff94ef5fff  com.apple.AE (681.5 - 681.7) <2BF39455-1CDD-392C-824A-9972C6B1FB57> /System/Library/Frameworks/CoreServices.framework/Versions/A/Frameworks/AE.framework/Versions/A/AE
    0x7fff94f75000 -     0x7fff94f7cfff  com.apple.NetFS (6.0 - 4.0) <C263C8F8-F284-3101-AC82-A97A81716063> /System/Library/Frameworks/NetFS.framework/Versions/A/NetFS
    0x7fff94f7d000 -     0x7fff94fc3ff7  libFontRegistry.dylib (134.1) <CE41D8C2-BEED-345C-BC4F-3775CC06C672> /System/Library/Frameworks/ApplicationServices.framework/Versions/A/Frameworks/ATS.framework/Versions/A/Resources/libFontRegistry.dylib
    0x7fff94fc6000 -     0x7fff94fd7ff7  libz.1.dylib (55) <88C7C7DE-04B8-316F-8B74-ACD9F3DE1AA1> /usr/lib/libz.1.dylib
    0x7fff94fd8000 -     0x7fff94fdefff  com.apple.speech.recognition.framework (5.0.9 - 5.0.9) <BB2D573F-0A01-379F-A2BA-3C454EDCB111> /System/Library/Frameworks/Carbon.framework/Versions/A/Frameworks/SpeechRecognition.framework/Versions/A/SpeechRecognition
    0x7fff94fe4000 -     0x7fff9514bffb  com.apple.audio.toolbox.AudioToolbox (1.12 - 1.12) <5678FC94-456A-3F5F-BA9A-10EB6E462997> /System/Library/Frameworks/AudioToolbox.framework/Versions/A/AudioToolbox
    0x7fff95267000 -     0x7fff95297ff3  com.apple.CoreAVCHD (5.7.5 - 5750.4.1) <3E51287C-E97D-3886-BE88-8F6872400876> /System/Library/PrivateFrameworks/CoreAVCHD.framework/Versions/A/CoreAVCHD
    0x7fff95298000 -     0x7fff952b8fff  com.apple.IconServices (47.1 - 47.1) <E83DFE3B-6541-3736-96BB-26DC5D0100F1> /System/Library/PrivateFrameworks/IconServices.framework/Versions/A/IconServices
    0x7fff952fb000 -     0x7fff952fbfff  com.apple.audio.units.AudioUnit (1.12 - 1.12) <E5335492-7EFE-31EA-BE72-4A9CEE68D58E> /System/Library/Frameworks/AudioUnit.framework/Versions/A/AudioUnit
    0x7fff95367000 -     0x7fff95367ff7  libunc.dylib (29) <5676F7EA-C1DF-329F-B006-D2C3022B7D70> /usr/lib/system/libunc.dylib
    0x7fff953cc000 -     0x7fff953cdfff  libsystem_secinit.dylib (18) <581DAD0F-6B63-3A48-B63B-917AF799ABAA> /usr/lib/system/libsystem_secinit.dylib
    0x7fff95442000 -     0x7fff9545cff7  liblzma.5.dylib (7) <1D03E875-A7C0-3028-814C-3C27F7B7C079> /usr/lib/liblzma.5.dylib
    0x7fff9546c000 -     0x7fff954bdfff  com.apple.audio.CoreAudio (4.3.0 - 4.3.0) <8E6AE326-9F3E-3182-BD9E-FDF561211E2E> /System/Library/Frameworks/CoreAudio.framework/Versions/A/CoreAudio
    0x7fff954be000 -     0x7fff95536ff7  com.apple.SystemConfiguration (1.14.4 - 1.14) <3DFFD7F7-BD23-3F4C-A209-C4A0D99F6573> /System/Library/Frameworks/SystemConfiguration.framework/Versions/A/SystemConfiguration
    0x7fff95537000 -     0x7fff9553efff  com.apple.network.statistics.framework (1.2 - 1) <61B311D1-7F15-35B3-80D4-99B8BE90ACD9> /System/Library/PrivateFrameworks/NetworkStatistics.framework/Versions/A/NetworkStatistics
    0x7fff9553f000 -     0x7fff9558bff7  libcups.2.dylib (408.2) <E8AD18F9-61E4-3791-B840-504468C25556> /usr/lib/libcups.2.dylib
    0x7fff9558c000 -     0x7fff95891ff3  com.apple.HIToolbox (2.1.1 - 758.7) <B1188DED-5E71-3AB4-9E57-67F84C116ECE> /System/Library/Frameworks/Carbon.framework/Versions/A/Frameworks/HIToolbox.framework/Versions/A/HIToolbox
    0x7fff95892000 -     0x7fff95930fff  com.apple.Metadata (10.7.0 - 917.36) <00C4CB5D-E723-3612-84E0-439098392CDD> /System/Library/Frameworks/CoreServices.framework/Versions/A/Frameworks/Metadata.framework/Versions/A/Metadata
    0x7fff959d9000 -     0x7fff95a62ff7  com.apple.CoreSymbolication (3.1 - 57020.2) <FDAF88F6-7D11-37BC-B758-4B835FA657BA> /System/Library/PrivateFrameworks/CoreSymbolication.framework/Versions/A/CoreSymbolication
    0x7fff95a63000 -     0x7fff95a67fff  libcache.dylib (69) <45E9A2E7-99C4-36B2-BEE3-0C4E11614AD1> /usr/lib/system/libcache.dylib
    0x7fff95a68000 -     0x7fff95a74fff  com.apple.speech.synthesis.framework (5.3.11 - 5.3.11) <DFC7FD85-F1B0-317C-8513-722570CB8FB9> /System/Library/Frameworks/ApplicationServices.framework/Versions/A/Frameworks/SpeechSynthesis.framework/Versions/A/SpeechSynthesis
    0x7fff95b03000 -     0x7fff95c35ff7  com.apple.MediaControlSender (2.0 - 215.18) <88726256-A71E-33A8-A56C-ABA208951C92> /System/Library/PrivateFrameworks/MediaControlSender.framework/Versions/A/MediaControlSender
    0x7fff95c39000 -     0x7fff95c3bfff  libsystem_configuration.dylib (699.40.2) <56F94DCE-DBDE-3615-8F07-DE6270D9F8BE> /usr/lib/system/libsystem_configuration.dylib
    0x7fff95c3c000 -     0x7fff95c3efff  libRadiance.dylib (1247) <0028A2E3-7928-3479-9BF7-CB64234F85AF> /System/Library/Frameworks/ImageIO.framework/Versions/A/Resources/libRadiance.dylib
    0x7fff95c42000 -     0x7fff95c48ff7  com.apple.XPCService (2.0 - 1) <AA4A5393-1F5D-3465-A417-0414B95DC052> /System/Library/PrivateFrameworks/XPCService.framework/Versions/A/XPCService
    0x7fff95c54000 -     0x7fff95c5afff  libsystem_trace.dylib (72.20.1) <840F5301-B55A-3078-90B9-FEFFD6CD741A> /usr/lib/system/libsystem_trace.dylib
    0x7fff95c5b000 -     0x7fff95c78ffb  libresolv.9.dylib (57) <26B38E61-298A-3C3A-82C1-3B5E98AD5E29> /usr/lib/libresolv.9.dylib
    0x7fff95ca5000 -     0x7fff95cc6fff  com.apple.framework.Apple80211 (10.3 - 1030.71.6) <C0A17391-5C8B-34B1-BD46-8D644AB57DE0> /System/Library/PrivateFrameworks/Apple80211.framework/Versions/A/Apple80211
    0x7fff95ccb000 -     0x7fff95cd3ffb  libcopyfile.dylib (118.1.2) <0C68D3A6-ACDD-3EF3-991A-CC82C32AB836> /usr/lib/system/libcopyfile.dylib
    0x7fff95d42000 -     0x7fff95d4afff  libsystem_dnssd.dylib (576.50.2) <9EC5AF92-D0D2-3BDE-92B6-D3730D3865C8> /usr/lib/system/libsystem_dnssd.dylib
    0x7fff95d56000 -     0x7fff95fccfff  com.apple.security (7.0 - 57031.40.8) <FB238FFF-AA3B-3AB3-80F8-2DA8D2ADA15A> /System/Library/Frameworks/Security.framework/Versions/A/Security
    0x7fff95fcd000 -     0x7fff95fd0ff7  com.apple.Mangrove (1.0 - 1) <6326024D-5C8D-3F59-9468-ACA1E01BC70C> /System/Library/PrivateFrameworks/Mangrove.framework/Versions/A/Mangrove
    0x7fff95fda000 -     0x7fff962c1ffb  com.apple.CoreServices.CarbonCore (1108.6 - 1108.6) <8953580E-7857-33B2-AA64-98296830D3A8> /System/Library/Frameworks/CoreServices.framework/Versions/A/Frameworks/CarbonCore.framework/Versions/A/CarbonCore
    0x7fff962c2000 -     0x7fff962edfff  libc++abi.dylib (125) <88A22A0F-87C6-3002-BFBA-AC0F2808B8B9> /usr/lib/libc++abi.dylib
    0x7fff9641b000 -     0x7fff96438fff  libsystem_kernel.dylib (2782.50.9) <C09DE9E0-DFDC-345A-8CF7-97CCB62168A6> /usr/lib/system/libsystem_kernel.dylib
    0x7fff96439000 -     0x7fff96439ff7  liblaunch.dylib (559.40.1) <4F81CA3A-D2CE-3030-A89D-42F3DAD7BA8F> /usr/lib/system/liblaunch.dylib
    0x7fff965ea000 -     0x7fff965f7ff7  libbz2.1.0.dylib (36) <2DF83FBC-5C08-39E1-94F5-C28653791B5F> /usr/lib/libbz2.1.0.dylib
    0x7fff96648000 -     0x7fff96979fff  com.apple.Foundation (6.9 - 1154) <49EE64E1-9F53-35D1-A481-2EFE2789B254> /System/Library/Frameworks/Foundation.framework/Versions/C/Foundation
    0x7fff969dd000 -     0x7fff969e0fff  com.apple.xpc.ServiceManagement (1.0 - 1) <A95A15CD-3B21-3513-AFF8-1D7DE3DBFA12> /System/Library/Frameworks/ServiceManagement.framework/Versions/A/ServiceManagement
    0x7fff96f30000 -     0x7fff9712a46f  libobjc.A.dylib (647) <759E155D-BC42-3D4E-869B-6F57D477177C> /usr/lib/libobjc.A.dylib
    0x7fff97197000 -     0x7fff971a4fff  libxar.1.dylib (255) <7CD69BB5-97BA-3858-8A8B-2F33F129E6E7> /usr/lib/libxar.1.dylib
    0x7fff971b8000 -     0x7fff971c3ff7  com.apple.CrashReporterSupport (10.10 - 631) <C44259AC-0A1C-3EC5-99AC-48CB520A709D> /System/Library/PrivateFrameworks/CrashReporterSupport.framework/Versions/A/CrashReporterSupport
    0x7fff97251000 -     0x7fff97251fff  libOpenScriptingUtil.dylib (162.2) <D6A2216D-ADB2-3F24-AD30-F6D00829F545> /usr/lib/libOpenScriptingUtil.dylib
    0x7fff97252000 -     0x7fff9727bff3  libxslt.1.dylib (13.12) <19B2D915-DC29-3F79-9756-D7EB9051FEFF> /usr/lib/libxslt.1.dylib
    0x7fff97280000 -     0x7fff97284fff  libpam.2.dylib (20) <E805398D-9A92-31F8-8005-8DC188BD8B6E> /usr/lib/libpam.2.dylib
    0x7fff97285000 -     0x7fff9728aff7  libmacho.dylib (862) <126CA2ED-DE91-308F-8881-B9DAEC3C63B6> /usr/lib/system/libmacho.dylib
    0x7fff9728b000 -     0x7fff9728bfff  com.apple.ApplicationServices (48 - 48) <5BF7910B-C328-3BF8-BA4F-CE52B574CE01> /System/Library/Frameworks/ApplicationServices.framework/Versions/A/ApplicationServices
    0x7fff97297000 -     0x7fff972f2fe7  libTIFF.dylib (1247) <43CB4BDE-84FD-3CCE-96C0-FB33BA2753BD> /System/Library/Frameworks/ImageIO.framework/Versions/A/Resources/libTIFF.dylib
    0x7fff972f3000 -     0x7fff972f5fff  com.apple.SecCodeWrapper (4.0 - 238.20.2) <C6C126F0-6BF4-3E29-A9B7-7BAD8D17EE4F> /System/Library/PrivateFrameworks/SecCodeWrapper.framework/Versions/A/SecCodeWrapper
    0x7fff972f6000 -     0x7fff972fbfff  libsystem_stats.dylib (163.30.2) <CDB327EF-3C80-362F-9BF6-718CBBC5DB24> /usr/lib/system/libsystem_stats.dylib
    0x7fff972fc000 -     0x7fff9772cfff  com.apple.vision.FaceCore (3.1.6 - 3.1.6) <C3B823AA-C261-37D3-B4AC-C59CE91C8241> /System/Library/PrivateFrameworks/FaceCore.framework/Versions/A/FaceCore
    0x7fff9772d000 -     0x7fff979fcff3  com.apple.CoreImage (10.3.5) <0224F5A6-636A-374B-B46C-13E066596725> /System/Library/Frameworks/QuartzCore.framework/Versions/A/Frameworks/CoreImage.framework/Versions/A/CoreImage
    0x7fff97a26000 -     0x7fff97b18ff7  libxml2.2.dylib (26.12) <769FD755-D24A-3A7C-ABEE-9A82BB1196D0> /usr/lib/libxml2.2.dylib
    0x7fff97bd9000 -     0x7fff97be7ff7  com.apple.opengl (11.1.6 - 11.1.6) <DB9F2798-F31F-335E-90A9-992C3AA7ECA8> /System/Library/Frameworks/OpenGL.framework/Versions/A/OpenGL
    0x7fff97bf7000 -     0x7fff97bf9ff7  com.apple.securityhi (9.0 - 55006) <15D38919-9697-3E3A-BCB9-4E3271BC2C7E> /System/Library/Frameworks/Carbon.framework/Versions/A/Frameworks/SecurityHI.framework/Versions/A/SecurityHI
    0x7fff97c10000 -     0x7fff97c14fff  libCoreVMClient.dylib (79.1) <201EF6DF-5074-3CB7-A361-398CF957A264> /System/Library/Frameworks/OpenGL.framework/Versions/A/Libraries/libCoreVMClient.dylib
    0x7fff97c15000 -     0x7fff97cd5ff7  com.apple.backup.framework (1.6.5 - 1.6.5) <86396038-33EA-3046-9F70-093A3D6407D4> /System/Library/PrivateFrameworks/Backup.framework/Versions/A/Backup
    0x7fff97d23000 -     0x7fff97d3cff7  com.apple.CFOpenDirectory (10.10 - 187) <F1805A0F-D5CC-35A8-9349-042D58D128B0> /System/Library/Frameworks/OpenDirectory.framework/Versions/A/Frameworks/CFOpenDirectory.framework/Versions/A/CFOpenDirectory
    0x7fff97d3d000 -     0x7fff97d3dff7  libkeymgr.dylib (28) <77845842-DE70-3CC5-BD01-C3D14227CED5> /usr/lib/system/libkeymgr.dylib
    0x7fff97d3e000 -     0x7fff97d46ff7  com.apple.AppleSRP (5.0 - 1) <68F0C577-ED96-34F2-B701-CE3023367D4D> /System/Library/PrivateFrameworks/AppleSRP.framework/Versions/A/AppleSRP
    0x7fff97ef6000 -     0x7fff97efafff  com.apple.CommonPanels (1.2.6 - 96) <F9ECC8AF-D9CA-3350-AFB4-5113A9B789A5> /System/Library/Frameworks/Carbon.framework/Versions/A/Frameworks/CommonPanels.framework/Versions/A/CommonPanels
    0x7fff98218000 -     0x7fff98220fff  libsystem_platform.dylib (63) <64E34079-D712-3D66-9CE2-418624A5C040> /usr/lib/system/libsystem_platform.dylib
    0x7fff98221000 -     0x7fff9822cfff  com.apple.AppSandbox (4.0 - 238.20.2) <BEFAB7F2-B189-391B-9B2D-FFF3EE2B77B6> /System/Library/PrivateFrameworks/AppSandbox.framework/Versions/A/AppSandbox
    0x7fff982bf000 -     0x7fff982c1fff  libsystem_sandbox.dylib (358.20.5) <3F5E973F-C702-31AC-97BC-05F5C195683C> /usr/lib/system/libsystem_sandbox.dylib
    0x7fff982c2000 -     0x7fff982c3ff7  libsystem_blocks.dylib (65) <9615D10A-FCA7-3BE4-AA1A-1B195DACE1A1> /usr/lib/system/libsystem_blocks.dylib
    0x7fff9861a000 -     0x7fff98634ff7  libextension.dylib (55.2) <3BB019CA-199A-36AC-AA22-14B562138545> /usr/lib/libextension.dylib
    0x7fff98635000 -     0x7fff98637ff7  libsystem_coreservices.dylib (9) <41B7C578-5A53-31C8-A96F-C73E030B0938> /usr/lib/system/libsystem_coreservices.dylib
    0x7fff9870f000 -     0x7fff98714ff7  libunwind.dylib (35.3) <BE7E51A0-B6EA-3A54-9CCA-9D88F683A6D6> /usr/lib/system/libunwind.dylib
    0x7fff98715000 -     0x7fff98c05fff  com.apple.MediaToolbox (1.0 - 1562.240) <756EDFE0-6D9E-3482-AE40-6D2E6A7042F1> /System/Library/Frameworks/MediaToolbox.framework/Versions/A/MediaToolbox
    0x7fff98c06000 -     0x7fff98c10ff7  com.apple.NetAuth (5.2 - 5.2) <2BBD749A-8E18-35B8-8E48-A90347C1CCA7> /System/Library/PrivateFrameworks/NetAuth.framework/Versions/A/NetAuth
    0x7fff98c6c000 -     0x7fff98c86ff7  com.apple.Kerberos (3.0 - 1) <7760E0C2-A222-3709-B2A6-B692D900CEB1> /System/Library/Frameworks/Kerberos.framework/Versions/A/Kerberos
    0x7fff98c87000 -     0x7fff98d1efff  com.apple.CoreMedia (1.0 - 1562.240) <CCAF850F-B2E8-3F3B-9DE9-2BB469403EDF> /System/Library/Frameworks/CoreMedia.framework/Versions/A/CoreMedia
    0x7fff98d63000 -     0x7fff98d68ffb  libheimdal-asn1.dylib (398.40.1) <7D2BE3DE-60F7-3A6E-A92E-DA0EF9D3417E> /usr/lib/libheimdal-asn1.dylib
    0x7fff98d69000 -     0x7fff98d74fff  libcommonCrypto.dylib (60061.30.1) <E789748D-F9A7-3CFF-B317-90DF348B1E95> /usr/lib/system/libcommonCrypto.dylib
    0x7fff98d78000 -     0x7fff98df6fff  com.apple.CoreServices.OSServices (640.4 - 640.4) <9D175CD9-B27F-3529-8269-66D8AA83582E> /System/Library/Frameworks/CoreServices.framework/Versions/A/Frameworks/OSServices.framework/Versions/A/OSServices
    0x7fff98df7000 -     0x7fff98f10ffb  com.apple.CoreText (454.11 - 454.11) <7E5228C8-8657-3B6C-B3A4-98B79A3041EA> /System/Library/Frameworks/CoreText.framework/Versions/A/CoreText
    0x7fff98f18000 -     0x7fff98f1bfff  com.apple.IOSurface (97.4 - 97.4) <AE11CFBC-4D46-30F3-BEEC-4C8131079391> /System/Library/Frameworks/IOSurface.framework/Versions/A/IOSurface
    0x7fff98f52000 -     0x7fff990b3fff  com.apple.avfoundation (2.0 - 889.210) <20132E07-6AF0-378A-B7E2-56696D53C879> /System/Library/Frameworks/AVFoundation.framework/Versions/A/AVFoundation
    0x7fff990b4000 -     0x7fff990b5ff7  com.apple.print.framework.Print (10.0 - 265) <3BC4FE7F-78A0-3E57-8F4C-520E7EFD36FA> /System/Library/Frameworks/Carbon.framework/Versions/A/Frameworks/Print.framework/Versions/A/Print
    0x7fff990f0000 -     0x7fff99106ff7  com.apple.CoreMediaAuthoring (2.2 - 951) <C3E7D4C1-400D-34FA-9FE1-8C68C03CE969> /System/Library/PrivateFrameworks/CoreMediaAuthoring.framework/Versions/A/CoreMediaAuthoring
    0x7fff99107000 -     0x7fff99154ff7  com.apple.print.framework.PrintCore (10.3 - 451.1) <DE992474-0841-38A1-B4F6-46D653E454D5> /System/Library/Frameworks/ApplicationServices.framework/Versions/A/Frameworks/PrintCore.framework/Versions/A/PrintCore
    0x7fff99499000 -     0x7fff9952eff7  com.apple.ColorSync (4.9.0 - 4.9.0) <9150C2B7-2E6E-3509-96EA-7B3F959F049E> /System/Library/Frameworks/ApplicationServices.framework/Versions/A/Frameworks/ColorSync.framework/Versions/A/ColorSync
    0x7fff995df000 -     0x7fff995e3fff  com.apple.TCC (1.0 - 1) <CCA42EE2-3400-3444-9486-BC454E60D944> /System/Library/PrivateFrameworks/TCC.framework/Versions/A/TCC
    0x7fff995e4000 -     0x7fff999f1ff7  libLAPACK.dylib (1128) <F9201AE7-B031-36DB-BCF8-971E994EF7C1> /System/Library/Frameworks/Accelerate.framework/Versions/A/Frameworks/vecLib.framework/Versions/A/libLAPACK.dylib
    0x7fff999f2000 -     0x7fff999f5fff  com.apple.help (1.3.3 - 46) <CA4541F4-CEF5-355C-8F1F-EA65DC1B400F> /System/Library/Frameworks/Carbon.framework/Versions/A/Frameworks/Help.framework/Versions/A/Help
    0x7fff99af7000 -     0x7fff99b03ff7  com.apple.OpenDirectory (10.10 - 187) <22FF4721-03D8-381B-AA83-2B07D690C777> /System/Library/Frameworks/OpenDirectory.framework/Versions/A/OpenDirectory
    0x7fff99b04000 -     0x7fff99b06fff  libquarantine.dylib (76.20.1) <7AF90041-2768-378A-925A-D83161863642> /usr/lib/system/libquarantine.dylib

External Modification Summary:
  Calls made by other processes targeting this process:
    task_for_pid: 0
    thread_create: 0
    thread_set_state: 0
  Calls made by this process:
    task_for_pid: 0
    thread_create: 0
    thread_set_state: 0
  Calls made by all processes on this machine:
    task_for_pid: 3299541
    thread_create: 0
    thread_set_state: 57

VM Region Summary:
ReadOnly portion of Libraries: Total=213.5M resident=146.4M(69%) swapped_out_or_unallocated=67.1M(31%)
Writable regions: Total=49.3M written=2932K(6%) resident=3192K(6%) swapped_out=0K(0%) unallocated=46.2M(94%)
 
REGION TYPE                      VIRTUAL
===========                      =======
Kernel Alloc Once                     4K
MALLOC                             28.5M
MALLOC (admin)                       32K
MALLOC_LARGE (reserved)             132K        reserved VM address space (unallocated)
STACK GUARD                        56.0M
Stack                              12.6M
VM_ALLOCATE                           8K
__DATA                             23.7M
__IMAGE                             528K
__LINKEDIT                         71.5M
__TEXT                            142.1M
__UNICODE                           552K
shared memory                         4K
===========                      =======
TOTAL                             335.5M
TOTAL, minus reserved VM space    335.4M

Attachments (1)

clip.wav (2.1 MB) - added by kylophone 6 months ago.

Change History (6)

Changed 6 months ago by kylophone

comment:1 in reply to: ↑ description Changed 6 months ago by kylophone

I've seen this behavior on MacOS as well as CentOS 6.9.

Last edited 6 months ago by kylophone (previous) (diff)

comment:2 Changed 6 months ago by kylophone

This results in a segfault:

ffmpeg -i clip.wav -af volume -c:a mp3 -f null -

These do not:

ffmpeg -i clip.wav -af volume -c:a libopus -f null -
ffmpeg -i clip.wav -af volume -c:a aac -f null -
ffmpeg -i clip.wav -af volume -c:a flac -f null -

comment:3 Changed 6 months ago by cehoyos

For future tickets: The backtrace only makes sense if you don't use --enable-shared (or if you use --disable-stripping).
Regression since 383057f8e744efeaaa3648a59bc577b25b055835

(gdb) r -i clip.wav -af volume -f null -acodec mp3 -
Starting program: ffmpeg_g -i clip.wav -af volume -f null -acodec mp3 -
[Thread debugging using libthread_db enabled]
Using host libthread_db library "/lib64/libthread_db.so.1".
ffmpeg version N-85642-gdfc4ce5 Copyright (c) 2000-2017 the FFmpeg developers
  built with gcc 4.7 (SUSE Linux)
  configuration: --enable-libmp3lame
  libavutil      55. 61.100 / 55. 61.100
  libavcodec     57. 93.100 / 57. 93.100
  libavformat    57. 72.101 / 57. 72.101
  libavdevice    57.  7.100 / 57.  7.100
  libavfilter     6. 87.100 /  6. 87.100
  libswscale      4.  7.101 /  4.  7.101
  libswresample   2.  8.100 /  2.  8.100
Input #0, wav, from 'clip.wav':
  Metadata:
    date            : 2017-01-0
    encoder         : Lavf57.72.101
    encoded_by      : Pro Tools
  Duration: 00:00:15.02, bitrate: 1152 kb/s
    Stream #0:0: Audio: pcm_s24le ([1][0][0][0] / 0x0001), 48000 Hz, mono, s32 (24 bit), 1152 kb/s
Stream mapping:
  Stream #0:0 -> #0:0 (pcm_s24le (native) -> mp3 (libmp3lame))
Press [q] to stop, [?] for help
[New Thread 0x7ffff4780700 (LWP 11328)]
[New Thread 0x7ffff3f7f700 (LWP 11329)]
[New Thread 0x7ffff377e700 (LWP 11330)]
[New Thread 0x7ffff2f7d700 (LWP 11331)]
[New Thread 0x7ffff277c700 (LWP 11332)]
[New Thread 0x7ffff1f7b700 (LWP 11333)]
[New Thread 0x7ffff177a700 (LWP 11334)]
[New Thread 0x7ffff0f79700 (LWP 11335)]
[New Thread 0x7ffff0778700 (LWP 11336)]
Output #0, null, to 'pipe:':
  Metadata:
    date            : 2017-01-0
    encoded_by      : Pro Tools
    encoder         : Lavf57.72.101
    Stream #0:0: Audio: mp3 (libmp3lame), 48000 Hz, mono, fltp (24 bit)
    Metadata:
      encoder         : Lavc57.93.100 libmp3lame

Program received signal SIGSEGV, Segmentation fault.
ff_vector_fmul_scalar_sse () at libavutil/x86/float_dsp.asm:152
152     VECTOR_FMUL_SCALAR
(gdb) bt full
#0  ff_vector_fmul_scalar_sse () at libavutil/x86/float_dsp.asm:152
No locals.
#1  0x000000000091eeaa in mp3lame_encode_frame (avctx=0x202f800, avpkt=0x204b880, frame=0x1fee8a0, got_packet_ptr=0x7fffffffcd3c) at libavcodec/libmp3lame.c:211
        s = 0x1feda60
        hdr = {frame_size = 33476896, error_protection = 0, layer = 24, sample_rate = 48, sample_rate_index = -1, bit_rate = 32767, nb_channels = -13264, mode = 32767, mode_ext = 192, lsf = 0}
        len = <optimized out>
        ret = <optimized out>
        ch = <optimized out>
        discard_padding = <optimized out>
        lame_result = <optimized out>
        h = 33868596
#2  0x00000000007bfdfc in avcodec_encode_audio2 (avctx=avctx@entry=0x202f800, avpkt=0x204b880, frame=frame@entry=0x1fee8a0, got_packet_ptr=got_packet_ptr@entry=0x7fffffffcd3c) at libavcodec/encode.c:198
        extended_frame = <optimized out>
        padded_frame = 0x0
        ret = <optimized out>
        user_pkt = {buf = 0x0, pts = <optimized out>, dts = <optimized out>, data = 0x0, size = <optimized out>, stream_index = <optimized out>, flags = <optimized out>, side_data = <optimized out>, side_data_elems = <optimized out>, duration = <optimized out>,
          pos = <optimized out>, convergence_duration = <optimized out>}
        needs_realloc = 1
#3  0x00000000007c0805 in do_encode (avctx=0x202f800, frame=0x1fee8a0, got_packet=0x7fffffffcd3c) at libavcodec/encode.c:375
        ret = <optimized out>
#4  0x00000000007c08ef in avcodec_send_frame (avctx=avctx@entry=0x202f800, frame=frame@entry=0x1fee8a0) at libavcodec/encode.c:421
No locals.
#5  0x0000000000498c2d in do_audio_out (frame=0x1fee8a0, ost=0x1fed620, of=0x1fec220) at ffmpeg.c:920
        enc = 0x202f800
        pkt = {buf = 0x0, pts = -9223372036854775808, dts = -9223372036854775808, data = 0x0, size = 0, stream_index = 0, flags = 0, side_data = 0x0, side_data_elems = 0, duration = 0, pos = -1, convergence_duration = 0}
        ret = <optimized out>
#6  reap_filters (flush=flush@entry=0) at ffmpeg.c:1514
        float_pts = <optimized out>
        filter = 0x2034e40
        ret = <optimized out>
        ost = 0x1fed620
        of = 0x1fec220
        enc = 0x202f800
        i = <optimized out>
#7  0x000000000049ce42 in transcode_from_filter (best_ist=<synthetic pointer>, graph=0x20301e0) at ffmpeg.c:4424
        i = <optimized out>
        ret = 0
        nb_requests = <optimized out>
        ifilter = <optimized out>
        nb_requests_max = 0
        ist = <optimized out>
#8  transcode_step () at ffmpeg.c:4488
        ist = 0x0
        ret = <optimized out>
#9  transcode () at ffmpeg.c:4564
        cur_time = 5716902361
        ret = <optimized out>
        i = <optimized out>
        os = <optimized out>
        ost = <optimized out>
        ist = <optimized out>
        timer_start = 5716702776
        total_packets_written = 0
#10 0x000000000047f842 in main (argc=<optimized out>, argv=0x7fffffffdce8) at ffmpeg.c:4769
        ret = <optimized out>
        ti = <optimized out>
(gdb) disass $pc-32,$pc+32
Dump of assembler code from 0x47f822 to 0x47f862:
   0x000000000047f822 <main+258>:       callq  0x407090 <getrusage@plt>
   0x000000000047f827 <main+263>:       mov    (%rsp),%rax
   0x000000000047f82b <main+267>:       imul   $0xf4240,%rax,%rbx
   0x000000000047f832 <main+274>:       add    0x8(%rsp),%rbx
   0x000000000047f837 <main+279>:       mov    %ebx,0x1302367(%rip)        # 0x1781ba4 <current_time>
   0x000000000047f83d <main+285>:       callq  0x49c860 <transcode>
=> 0x000000000047f842 <main+290>:       test   %eax,%eax
   0x000000000047f844 <main+292>:       js     0x47f92a <main+522>
   0x000000000047f84a <main+298>:       xor    %edi,%edi
   0x000000000047f84c <main+300>:       mov    %rsp,%rsi
   0x000000000047f84f <main+303>:       callq  0x407090 <getrusage@plt>
   0x000000000047f854 <main+308>:       cmpl   $0x0,0x1302251(%rip)        # 0x1781aac <do_benchmark>
   0x000000000047f85b <main+315>:       mov    (%rsp),%rdx
   0x000000000047f85f <main+319>:       mov    0x8(%rsp),%rax
End of assembler dump.
(gdb) info all-register
rax            0x2034420        33768480
rbx            0x176f   5999
rcx            0x2d0    720
rdx            0xb30    2864
rsi            0x204cb34        33868596
rdi            0x2065580        33969536
rbp            0x7fffffffdce8   0x7fffffffdce8
rsp            0x7fffffffdb60   0x7fffffffdb60
r8             0x0      0
r9             0x7a120  500000
r10            0x1      1
r11            0x8000000000000001       -9223372036854775807
r12            0x47f990 4716944
r13            0x7fffffffdce0   140737488346336
r14            0x0      0
r15            0x0      0
rip            0x47f842 0x47f842 <main+290>
eflags         0x10202  [ IF RF ]
cs             0x33     51
ss             0x2b     43
ds             0x0      0
es             0x0      0
fs             0x0      0
gs             0x0      0
st0            0        (raw 0x00000000000000000000)
st1            0        (raw 0x00000000000000000000)
st2            0        (raw 0x00000000000000000000)
st3            0        (raw 0x00000000000000000000)
st4            0        (raw 0x00000000000000000000)
st5            0        (raw 0x00000000000000000000)
st6            0        (raw 0x00000000000000000000)
st7            0        (raw 0x00000000000000000000)
fctrl          0x37f    895
fstat          0x0      0
ftag           0xffff   65535
fiseg          0x0      0
fioff          0x0      0
foseg          0x0      0
fooff          0x0      0
fop            0x0      0
mxcsr          0x1fa0   [ PE IM DM ZM OM UM PM ]
ymm0           {v8_float = {0x8000, 0x8000, 0x8000, 0x8000, 0x0, 0x0, 0x0, 0x0}, v4_double = {0x8000000000000000, 0x8000000000000000, 0x0, 0x0}, v32_int8 = {0x0, 0x0, 0x0, 0x47, 0x0, 0x0, 0x0, 0x47, 0x0, 0x0, 0x0, 0x47, 0x0, 0x0, 0x0, 0x47, 0x0 <repeats 16 times>}, v16_int16 = {
    0x0, 0x4700, 0x0, 0x4700, 0x0, 0x4700, 0x0, 0x4700, 0x0, 0x0, 0x0, 0x0, 0x0, 0x0, 0x0, 0x0}, v8_int32 = {0x47000000, 0x47000000, 0x47000000, 0x47000000, 0x0, 0x0, 0x0, 0x0}, v4_int64 = {0x4700000047000000, 0x4700000047000000, 0x0, 0x0}, v2_int128 = {
    0x47000000470000004700000047000000, 0x00000000000000000000000000000000}}
ymm1           {v8_float = {0x0, 0xa, 0x0, 0x0, 0x0, 0x0, 0x0, 0x0}, v4_double = {0xafc80, 0x0, 0x0, 0x0}, v32_int8 = {0x0, 0x0, 0x1, 0x0, 0x0, 0xf9, 0x25, 0x41, 0x0 <repeats 24 times>}, v16_int16 = {0x0, 0x1, 0xf900, 0x4125, 0x0 <repeats 12 times>}, v8_int32 = {0x10000,
    0x4125f900, 0x0, 0x0, 0x0, 0x0, 0x0, 0x0}, v4_int64 = {0x4125f90000010000, 0x0, 0x0, 0x0}, v2_int128 = {0x00000000000000004125f90000010000, 0x00000000000000000000000000000000}}
ymm2           {v8_float = {0x0, 0x0, 0x0, 0x0, 0x0, 0x0, 0x0, 0x0}, v4_double = {0x0, 0x0, 0x0, 0x0}, v32_int8 = {0x0, 0x0, 0x0, 0x0, 0x0, 0x0, 0xe0, 0x3e, 0x0 <repeats 24 times>}, v16_int16 = {0x0, 0x0, 0x0, 0x3ee0, 0x0 <repeats 12 times>}, v8_int32 = {0x0, 0x3ee00000, 0x0,
    0x0, 0x0, 0x0, 0x0, 0x0}, v4_int64 = {0x3ee0000000000000, 0x0, 0x0, 0x0}, v2_int128 = {0x00000000000000003ee0000000000000, 0x00000000000000000000000000000000}}
ymm3           {v8_float = {0x0, 0x0, 0x0, 0x0, 0x0, 0x0, 0x0, 0x0}, v4_double = {0x0, 0x0, 0x0, 0x0}, v32_int8 = {0x0, 0x0, 0x0, 0x0, 0x0, 0x0, 0xe0, 0xbe, 0x0 <repeats 24 times>}, v16_int16 = {0x0, 0x0, 0x0, 0xbee0, 0x0 <repeats 12 times>}, v8_int32 = {0x0, 0xbee00000, 0x0,
    0x0, 0x0, 0x0, 0x0, 0x0}, v4_int64 = {0xbee0000000000000, 0x0, 0x0, 0x0}, v2_int128 = {0x0000000000000000bee0000000000000, 0x00000000000000000000000000000000}}
ymm4           {v8_float = {0x0, 0x0, 0x0, 0x0, 0x0, 0x0, 0x0, 0x0}, v4_double = {0x0, 0x0, 0x0, 0x0}, v32_int8 = {0x63, 0xad, 0x92, 0xad, 0x4, 0xc5, 0x85, 0x0, 0x8b, 0x20, 0x4c, 0x24, 0x2a, 0xe5, 0x4f, 0xa2, 0x0 <repeats 16 times>}, v16_int16 = {0xad63, 0xad92, 0xc504, 0x85,
    0x208b, 0x244c, 0xe52a, 0xa24f, 0x0, 0x0, 0x0, 0x0, 0x0, 0x0, 0x0, 0x0}, v8_int32 = {0xad92ad63, 0x85c504, 0x244c208b, 0xa24fe52a, 0x0, 0x0, 0x0, 0x0}, v4_int64 = {0x85c504ad92ad63, 0xa24fe52a244c208b, 0x0, 0x0}, v2_int128 = {0xa24fe52a244c208b0085c504ad92ad63,
    0x00000000000000000000000000000000}}
ymm5           {v8_float = {0x0, 0x0, 0x0, 0x0, 0x0, 0x0, 0x0, 0x0}, v4_double = {0x8000000000000000, 0x0, 0x0, 0x0}, v32_int8 = {0xc3, 0x47, 0x45, 0x8d, 0x8a, 0x2c, 0x44, 0x71, 0x75, 0x5a, 0x18, 0x92, 0x4f, 0xe7, 0xff, 0x36, 0x0 <repeats 16 times>}, v16_int16 = {0x47c3,
    0x8d45, 0x2c8a, 0x7144, 0x5a75, 0x9218, 0xe74f, 0x36ff, 0x0, 0x0, 0x0, 0x0, 0x0, 0x0, 0x0, 0x0}, v8_int32 = {0x8d4547c3, 0x71442c8a, 0x92185a75, 0x36ffe74f, 0x0, 0x0, 0x0, 0x0}, v4_int64 = {0x71442c8a8d4547c3, 0x36ffe74f92185a75, 0x0, 0x0}, v2_int128 = {
    0x36ffe74f92185a7571442c8a8d4547c3, 0x00000000000000000000000000000000}}
ymm6           {v8_float = {0x0, 0x0, 0x0, 0x0, 0x0, 0x0, 0x0, 0x0}, v4_double = {0x0, 0x0, 0x0, 0x0}, v32_int8 = {0xed, 0xa5, 0x5b, 0xed, 0x77, 0xff, 0xa0, 0x0, 0xd1, 0xb9, 0x47, 0x24, 0x89, 0xbb, 0xea, 0x94, 0x0 <repeats 16 times>}, v16_int16 = {0xa5ed, 0xed5b, 0xff77, 0xa0,
    0xb9d1, 0x2447, 0xbb89, 0x94ea, 0x0, 0x0, 0x0, 0x0, 0x0, 0x0, 0x0, 0x0}, v8_int32 = {0xed5ba5ed, 0xa0ff77, 0x2447b9d1, 0x94eabb89, 0x0, 0x0, 0x0, 0x0}, v4_int64 = {0xa0ff77ed5ba5ed, 0x94eabb892447b9d1, 0x0, 0x0}, v2_int128 = {0x94eabb892447b9d100a0ff77ed5ba5ed,
    0x00000000000000000000000000000000}}
ymm7           {v8_float = {0x0, 0x0, 0x0, 0x0, 0x0, 0x0, 0x0, 0x0}, v4_double = {0x0, 0x0, 0x0, 0x0}, v32_int8 = {0x0, 0x0, 0x1, 0xb8, 0x38, 0x4c, 0xc1, 0x9, 0x15, 0x22, 0xee, 0xb, 0xf0, 0xbe, 0x78, 0xb6, 0x0 <repeats 16 times>}, v16_int16 = {0x0, 0xb801, 0x4c38, 0x9c1,
    0x2215, 0xbee, 0xbef0, 0xb678, 0x0, 0x0, 0x0, 0x0, 0x0, 0x0, 0x0, 0x0}, v8_int32 = {0xb8010000, 0x9c14c38, 0xbee2215, 0xb678bef0, 0x0, 0x0, 0x0, 0x0}, v4_int64 = {0x9c14c38b8010000, 0xb678bef00bee2215, 0x0, 0x0}, v2_int128 = {0xb678bef00bee221509c14c38b8010000,
    0x00000000000000000000000000000000}}
ymm8           {v8_float = {0x0, 0x866c2000, 0x0, 0xffffffe2, 0x0, 0x0, 0x0, 0x0}, v4_double = {0x8000000000000000, 0xfffffffeae9a1020, 0x0, 0x0}, v32_int8 = {0x1b, 0x8b, 0xe3, 0xa1, 0x10, 0x36, 0xc3, 0x4f, 0x14, 0x37, 0x6, 0xfe, 0x5e, 0x16, 0xf5, 0xc1, 0x0 <repeats 16 times>},
  v16_int16 = {0x8b1b, 0xa1e3, 0x3610, 0x4fc3, 0x3714, 0xfe06, 0x165e, 0xc1f5, 0x0, 0x0, 0x0, 0x0, 0x0, 0x0, 0x0, 0x0}, v8_int32 = {0xa1e38b1b, 0x4fc33610, 0xfe063714, 0xc1f5165e, 0x0, 0x0, 0x0, 0x0}, v4_int64 = {0x4fc33610a1e38b1b, 0xc1f5165efe063714, 0x0, 0x0}, v2_int128 = {
    0xc1f5165efe0637144fc33610a1e38b1b, 0x00000000000000000000000000000000}}
ymm9           {v8_float = {0xc7a, 0x0, 0xf2a57a20, 0x0, 0x0, 0x0, 0x0, 0x0}, v4_double = {0x0, 0x0, 0x0, 0x0}, v32_int8 = {0xb8, 0xa8, 0x47, 0x45, 0x86, 0xd7, 0x16, 0x5, 0x5e, 0xa8, 0x55, 0xcd, 0xd0, 0xa2, 0xea, 0x1c, 0x0 <repeats 16 times>}, v16_int16 = {0xa8b8, 0x4547,
    0xd786, 0x516, 0xa85e, 0xcd55, 0xa2d0, 0x1cea, 0x0, 0x0, 0x0, 0x0, 0x0, 0x0, 0x0, 0x0}, v8_int32 = {0x4547a8b8, 0x516d786, 0xcd55a85e, 0x1ceaa2d0, 0x0, 0x0, 0x0, 0x0}, v4_int64 = {0x516d7864547a8b8, 0x1ceaa2d0cd55a85e, 0x0, 0x0}, v2_int128 = {
    0x1ceaa2d0cd55a85e0516d7864547a8b8, 0x00000000000000000000000000000000}}
ymm10          {v8_float = {0x0, 0x0, 0x0, 0x0, 0x0, 0x0, 0x0, 0x0}, v4_double = {0x0, 0x0, 0x0, 0x0}, v32_int8 = {0x97, 0xd3, 0x1b, 0x3f, 0x0 <repeats 28 times>}, v16_int16 = {0xd397, 0x3f1b, 0x0 <repeats 14 times>}, v8_int32 = {0x3f1bd397, 0x0, 0x0, 0x0, 0x0, 0x0, 0x0, 0x0},
  v4_int64 = {0x3f1bd397, 0x0, 0x0, 0x0}, v2_int128 = {0x0000000000000000000000003f1bd397, 0x00000000000000000000000000000000}}
ymm11          {v8_float = {0xffffffd0, 0x0, 0x0, 0x0, 0x0, 0x0, 0x0, 0x0}, v4_double = {0x0, 0x0, 0x0, 0x0}, v32_int8 = {0x70, 0xe5, 0x42, 0xc2, 0x34, 0xf9, 0xb4, 0x3d, 0x0 <repeats 24 times>}, v16_int16 = {0xe570, 0xc242, 0xf934, 0x3db4, 0x0 <repeats 12 times>}, v8_int32 = {
    0xc242e570, 0x3db4f934, 0x0, 0x0, 0x0, 0x0, 0x0, 0x0}, v4_int64 = {0x3db4f934c242e570, 0x0, 0x0, 0x0}, v2_int128 = {0x00000000000000003db4f934c242e570, 0x00000000000000000000000000000000}}
ymm12          {v8_float = {0x0, 0x0, 0x0, 0x0, 0x0, 0x0, 0x0, 0x0}, v4_double = {0x0, 0x0, 0x0, 0x0}, v32_int8 = {0x4f, 0x9c, 0xb1, 0x6c, 0x78, 0xc2, 0xb6, 0x3d, 0x0 <repeats 24 times>}, v16_int16 = {0x9c4f, 0x6cb1, 0xc278, 0x3db6, 0x0 <repeats 12 times>}, v8_int32 = {
    0x6cb19c4f, 0x3db6c278, 0x0, 0x0, 0x0, 0x0, 0x0, 0x0}, v4_int64 = {0x3db6c2786cb19c4f, 0x0, 0x0, 0x0}, v2_int128 = {0x00000000000000003db6c2786cb19c4f, 0x00000000000000000000000000000000}}
ymm13          {v8_float = {0x0, 0x0, 0x0, 0x0, 0x0, 0x0, 0x0, 0x0}, v4_double = {0x0, 0x0, 0x0, 0x0}, v32_int8 = {0xcd, 0x13, 0xd4, 0x3e, 0x0 <repeats 28 times>}, v16_int16 = {0x13cd, 0x3ed4, 0x0 <repeats 14 times>}, v8_int32 = {0x3ed413cd, 0x0, 0x0, 0x0, 0x0, 0x0, 0x0, 0x0},
  v4_int64 = {0x3ed413cd, 0x0, 0x0, 0x0}, v2_int128 = {0x0000000000000000000000003ed413cd, 0x00000000000000000000000000000000}}
ymm14          {v8_float = {0x0, 0x0, 0x0, 0x0, 0x0, 0x0, 0x0, 0x0}, v4_double = {0x0, 0x0, 0x0, 0x0}, v32_int8 = {0x8b, 0x6f, 0x44, 0x3f, 0x0 <repeats 28 times>}, v16_int16 = {0x6f8b, 0x3f44, 0x0 <repeats 14 times>}, v8_int32 = {0x3f446f8b, 0x0, 0x0, 0x0, 0x0, 0x0, 0x0, 0x0},
  v4_int64 = {0x3f446f8b, 0x0, 0x0, 0x0}, v2_int128 = {0x0000000000000000000000003f446f8b, 0x00000000000000000000000000000000}}
ymm15          {v8_float = {0x0, 0x0, 0x0, 0x0, 0x0, 0x0, 0x0, 0x0}, v4_double = {0x0, 0x0, 0x0, 0x0}, v32_int8 = {0xea, 0xcf, 0x6, 0x3e, 0x0 <repeats 28 times>}, v16_int16 = {0xcfea, 0x3e06, 0x0 <repeats 14 times>}, v8_int32 = {0x3e06cfea, 0x0, 0x0, 0x0, 0x0, 0x0, 0x0, 0x0},
  v4_int64 = {0x3e06cfea, 0x0, 0x0, 0x0}, v2_int128 = {0x0000000000000000000000003e06cfea, 0x00000000000000000000000000000000}}

comment:4 Changed 6 months ago by cehoyos

  • Keywords crash SIGSEV regression lame added
  • Reproduced by developer set
  • Status changed from new to open
  • Version changed from unspecified to git-master

comment:5 Changed 2 weeks ago by cehoyos

  • Resolution set to fixed
  • Status changed from open to closed

Fixed by Muhammad Faiz in fc3a03fcf9cd7eafe7342e2508e6128888efa0bb

Note: See TracTickets for help on using tickets.