Opened 5 months ago

#6270 new defect

libxvid duplicates 2 pass log file (and ignores both?)

Reported by: edumj Owned by:
Priority: normal Component: undetermined
Version: unspecified Keywords: libxvid 2pass log
Cc: Blocked By:
Blocking: Reproduced by developer: no
Analyzed by developer: no

Description

Summary of the bug: When I try to make a 2 pass xvid enconding with libxvid (appart form ignoring bitrate, as reported here https://trac.ffmpeg.org/ticket/6217), ffmpeg duplicates log file (wherever i put it, or without specifying log file), names it "xvidff.x..." and puts it in the same folder as the converting file, and stays there also after conversion.

It seems that in 2007 that file was put in Windows "temp" directory https://forum.videohelp.com/threads/275697-New-(advanced)-FFmpeg-GUI-for-Windows-OS-builds/page3, but with -passlogfile option it should put it where we tell it, and use that file for the second pass (that seems to ignore).

Is there a reason for duplicanting that log file? Maybe that's why ffmpeg ignores that file and encodes at a higher bitrate than the specified? It seems to encode every frame with q2 quantizer!

How to reproduce:

"ffmpeg (2017) 64bits.exe" -i "Futurama - 7x01 .mp4" -c:v libxvid -b:v 1111k -vtag XVID -pass 1 -passlogfile "log" -an -f rawvideo -y NUL

"ffmpeg (2017) 64bits.exe" -i "Futurama - 7x01 .mp4" -c:v libxvid -b:v 1111k -vtag XVID -pass 2 -passlogfile "log" -c:a libmp3lame -b:a 128k "Futurama - 7x01 .avi"

ffmpeg version ffmpeg-20170321-db7a05d-win64-static.zip

You can try with any file, or the one used for this example Futurama - 7x01 .mp4

1st pass

ffmpeg version N-84348-gdb7a05d Copyright (c) 2000-2017 the FFmpeg developers
  built with gcc 6.3.0 (GCC)
  configuration: --enable-gpl --enable-version3 --enable-cuda --enable-cuvid --enable-d3d11va --enable-dxva2 --enable-libmfx --enable-nvenc --enable-avisynth --enable-bzlib --enable-fontconfig --enable-frei0r --enable-gnutls --enable-iconv --enable-libass --enable-libbluray --enable-libbs2b --enable-libcaca --enable-libfreetype --enable-libgme --enable-libgsm --enable-libilbc --enable-libmodplug --enable-libmp3lame --enable-libopencore-amrnb --enable-libopencore-amrwb --enable-libopenh264 --enable-libopenjpeg --enable-libopus --enable-librtmp --enable-libsnappy --enable-libsoxr --enable-libspeex --enable-libtheora --enable-libtwolame --enable-libvidstab --enable-libvo-amrwbenc --enable-libvorbis --enable-libvpx --enable-libwavpack --enable-libwebp --enable-libx264 --enable-libx265 --enable-libxavs --enable-libxvid --enable-libzimg --enable-lzma --enable-zlib
  libavutil      55. 50.100 / 55. 50.100
  libavcodec     57. 83.101 / 57. 83.101
  libavformat    57. 66.105 / 57. 66.105
  libavdevice    57.  3.100 / 57.  3.100
  libavfilter     6. 78.100 /  6. 78.100
  libswscale      4.  3.101 /  4.  3.101
  libswresample   2.  4.100 /  2.  4.100
  libpostproc    54.  2.100 / 54.  2.100
Input #0, mov,mp4,m4a,3gp,3g2,mj2, from 'Futurama - 7x01 .mp4':
  Metadata:
    major_brand     : isom
    minor_version   : 1
    compatible_brands: isomavc1
    creation_time   : 2015-01-26T11:04:38.000000Z
  Duration: 00:20:45.31, start: 0.000000, bitrate: 746 kb/s
    Stream #0:0(und): Video: h264 (High) (avc1 / 0x31637661), yuv420p(tv, bt709/unknown/unknown), 720x404, 603 kb/s, 25 fps, 25 tbr, 25k tbn, 50 tbc (default)
    Metadata:
      creation_time   : 2015-01-26T11:04:38.000000Z
      handler_name    : FCC 4ever
    Stream #0:1(spa): Audio: aac (LC) (mp4a / 0x6134706D), 48000 Hz, stereo, fltp, 138 kb/s (default)
    Metadata:
      creation_time   : 2015-01-26T11:04:39.000000Z
      handler_name    : FCC 4ever
Stream mapping:
  Stream #0:0 -> #0:0 (h264 (native) -> mpeg4 (libxvid))
Press [q] to stop, [?] for help
Output #0, rawvideo, to 'NUL':
  Metadata:
    major_brand     : isom
    minor_version   : 1
    compatible_brands: isomavc1
    encoder         : Lavf57.66.105
    Stream #0:0(und): Video: mpeg4 (libxvid) (XVID / 0x44495658), yuv420p, 720x404, q=2-31, 1111 kb/s, 25 fps, 25 tbn, 25 tbc (default)
    Metadata:
      creation_time   : 2015-01-26T11:04:38.000000Z
      handler_name    : FCC 4ever
      encoder         : Lavc57.83.101 libxvid
frame=  206 fps=0.0 q=2.0 size=    6150kB time=00:00:08.24 bitrate=6114.1kbits/s dup=2 drop=0 speed=16.4x    
frame=  369 fps=368 q=2.0 size=   15902kB time=00:00:14.76 bitrate=8826.1kbits/s dup=2 drop=0 speed=14.7x    
frame=  631 fps=419 q=2.0 size=   20887kB time=00:00:25.24 bitrate=6779.3kbits/s dup=2 drop=0 speed=16.8x    
frame=  927 fps=462 q=2.0 size=   24900kB time=00:00:37.08 bitrate=5501.1kbits/s dup=2 drop=0 speed=18.5x    
frame= 1200 fps=478 q=2.0 size=   29509kB time=00:00:48.00 bitrate=5036.3kbits/s dup=2 drop=0 speed=19.1x    
frame= 1439 fps=478 q=2.0 size=   37324kB time=00:00:57.56 bitrate=5312.0kbits/s dup=2 drop=0 speed=19.1x    
frame= 1668 fps=475 q=2.0 size=   43755kB time=00:01:06.72 bitrate=5372.3kbits/s dup=2 drop=0 speed=  19x    
frame= 1872 fps=467 q=2.0 size=   50697kB time=00:01:14.88 bitrate=5546.4kbits/s dup=2 drop=0 speed=18.7x    
frame= 2129 fps=472 q=2.0 size=   57271kB time=00:01:25.16 bitrate=5509.2kbits/s dup=2 drop=0 speed=18.9x    
frame= 2420 fps=483 q=2.0 size=   62753kB time=00:01:36.80 bitrate=5310.6kbits/s dup=2 drop=0 speed=19.3x    
frame= 2712 fps=492 q=2.0 size=   68429kB time=00:01:48.48 bitrate=5167.5kbits/s dup=2 drop=0 speed=19.7x    
frame= 3003 fps=499 q=2.0 size=   74838kB time=00:02:00.12 bitrate=5103.8kbits/s dup=2 drop=0 speed=  20x    
frame= 3337 fps=512 q=2.0 size=   80038kB time=00:02:13.48 bitrate=4912.1kbits/s dup=2 drop=0 speed=20.5x    
frame= 3721 fps=530 q=2.0 size=   83917kB time=00:02:28.84 bitrate=4618.7kbits/s dup=2 drop=0 speed=21.2x    
frame= 4045 fps=538 q=2.0 size=   88554kB time=00:02:41.80 bitrate=4483.5kbits/s dup=2 drop=0 speed=21.5x    
frame= 4380 fps=546 q=2.0 size=   93357kB time=00:02:55.20 bitrate=4365.2kbits/s dup=2 drop=0 speed=21.9x    
frame= 4751 fps=558 q=2.0 size=   97649kB time=00:03:10.04 bitrate=4209.3kbits/s dup=2 drop=0 speed=22.3x    
frame= 5074 fps=563 q=2.0 size=  102042kB time=00:03:22.96 bitrate=4118.7kbits/s dup=2 drop=0 speed=22.5x    
frame= 5306 fps=558 q=2.0 size=  108710kB time=00:03:32.24 bitrate=4196.0kbits/s dup=2 drop=0 speed=22.3x    
frame= 5565 fps=556 q=2.0 size=  113114kB time=00:03:42.60 bitrate=4162.8kbits/s dup=2 drop=0 speed=22.2x    
frame= 5913 fps=562 q=2.0 size=  116597kB time=00:03:56.52 bitrate=4038.4kbits/s dup=2 drop=0 speed=22.5x    
frame= 6255 fps=568 q=2.0 size=  122270kB time=00:04:10.20 bitrate=4003.3kbits/s dup=2 drop=0 speed=22.7x    
frame= 6605 fps=573 q=2.0 size=  126288kB time=00:04:24.20 bitrate=3915.8kbits/s dup=2 drop=0 speed=22.9x    
frame= 6911 fps=575 q=2.0 size=  132978kB time=00:04:36.44 bitrate=3940.6kbits/s dup=2 drop=0 speed=  23x    
frame= 7187 fps=574 q=2.0 size=  139738kB time=00:04:47.48 bitrate=3982.0kbits/s dup=2 drop=0 speed=  23x    
frame= 7542 fps=579 q=2.0 size=  143775kB time=00:05:01.68 bitrate=3904.1kbits/s dup=2 drop=0 speed=23.2x    
frame= 7851 fps=581 q=2.0 size=  148894kB time=00:05:14.04 bitrate=3884.0kbits/s dup=2 drop=0 speed=23.2x    
frame= 8181 fps=584 q=2.0 size=  153085kB time=00:05:27.24 bitrate=3832.3kbits/s dup=2 drop=0 speed=23.3x    
frame= 8546 fps=589 q=2.0 size=  157072kB time=00:05:41.84 bitrate=3764.1kbits/s dup=2 drop=0 speed=23.5x    
frame= 8886 fps=592 q=2.0 size=  161775kB time=00:05:55.44 bitrate=3728.5kbits/s dup=2 drop=0 speed=23.7x    
frame= 9230 fps=595 q=2.0 size=  166118kB time=00:06:09.20 bitrate=3685.9kbits/s dup=2 drop=0 speed=23.8x    
frame= 9614 fps=600 q=2.0 size=  170686kB time=00:06:24.56 bitrate=3636.0kbits/s dup=2 drop=0 speed=  24x    
frame= 9993 fps=605 q=2.0 size=  175066kB time=00:06:39.72 bitrate=3587.9kbits/s dup=2 drop=0 speed=24.2x    
frame=10393 fps=611 q=2.0 size=  178718kB time=00:06:55.72 bitrate=3521.7kbits/s dup=2 drop=0 speed=24.4x    
frame=10692 fps=610 q=2.0 size=  184367kB time=00:07:07.68 bitrate=3531.5kbits/s dup=2 drop=0 speed=24.4x    
frame=11018 fps=611 q=2.0 size=  187793kB time=00:07:20.72 bitrate=3490.7kbits/s dup=2 drop=0 speed=24.5x    
frame=11347 fps=613 q=2.0 size=  191540kB time=00:07:33.88 bitrate=3457.1kbits/s dup=2 drop=0 speed=24.5x    
frame=11671 fps=614 q=2.0 size=  195617kB time=00:07:46.84 bitrate=3432.6kbits/s dup=2 drop=0 speed=24.5x    
frame=12030 fps=616 q=2.0 size=  200159kB time=00:08:01.20 bitrate=3407.5kbits/s dup=2 drop=0 speed=24.6x    
frame=12267 fps=613 q=2.0 size=  206772kB time=00:08:10.68 bitrate=3452.1kbits/s dup=2 drop=0 speed=24.5x    
frame=12617 fps=615 q=2.0 size=  211109kB time=00:08:24.68 bitrate=3426.7kbits/s dup=2 drop=0 speed=24.6x    
frame=12956 fps=616 q=2.0 size=  216403kB time=00:08:38.24 bitrate=3420.8kbits/s dup=2 drop=0 speed=24.6x    
frame=13264 fps=616 q=2.0 size=  222278kB time=00:08:50.56 bitrate=3432.0kbits/s dup=2 drop=0 speed=24.6x    
frame=13629 fps=619 q=2.0 size=  226705kB time=00:09:05.16 bitrate=3406.6kbits/s dup=2 drop=0 speed=24.8x    
frame=13999 fps=621 q=2.0 size=  230930kB time=00:09:19.96 bitrate=3378.4kbits/s dup=2 drop=0 speed=24.9x    
frame=14361 fps=624 q=2.0 size=  234602kB time=00:09:34.44 bitrate=3345.6kbits/s dup=2 drop=0 speed=24.9x    
frame=14669 fps=624 q=2.0 size=  238942kB time=00:09:46.76 bitrate=3336.0kbits/s dup=2 drop=0 speed=24.9x    
frame=14975 fps=623 q=2.0 size=  243423kB time=00:09:59.00 bitrate=3329.1kbits/s dup=2 drop=0 speed=24.9x    
frame=15338 fps=625 q=2.0 size=  246999kB time=00:10:13.52 bitrate=3298.0kbits/s dup=2 drop=0 speed=  25x    
frame=15702 fps=627 q=2.0 size=  250462kB time=00:10:28.08 bitrate=3266.8kbits/s dup=2 drop=0 speed=25.1x    
frame=16023 fps=628 q=2.0 size=  254874kB time=00:10:40.92 bitrate=3257.7kbits/s dup=2 drop=0 speed=25.1x    
frame=16308 fps=627 q=2.0 size=  260592kB time=00:10:52.32 bitrate=3272.6kbits/s dup=2 drop=0 speed=25.1x    
frame=16626 fps=627 q=2.0 size=  266406kB time=00:11:05.04 bitrate=3281.6kbits/s dup=2 drop=0 speed=25.1x    
frame=16949 fps=627 q=2.0 size=  271490kB time=00:11:17.96 bitrate=3280.5kbits/s dup=2 drop=0 speed=25.1x    
frame=17319 fps=629 q=2.0 size=  276116kB time=00:11:32.76 bitrate=3265.1kbits/s dup=2 drop=0 speed=25.2x    
frame=17687 fps=631 q=2.0 size=  279607kB time=00:11:47.48 bitrate=3237.6kbits/s dup=2 drop=0 speed=25.2x    
frame=18058 fps=633 q=2.0 size=  283725kB time=00:12:02.32 bitrate=3217.8kbits/s dup=2 drop=0 speed=25.3x    
frame=18423 fps=635 q=2.0 size=  288132kB time=00:12:16.92 bitrate=3203.0kbits/s dup=2 drop=0 speed=25.4x    
frame=18629 fps=631 q=2.0 size=  295930kB time=00:12:25.16 bitrate=3253.3kbits/s dup=2 drop=0 speed=25.2x    
frame=18961 fps=631 q=2.0 size=  299915kB time=00:12:38.44 bitrate=3239.4kbits/s dup=2 drop=0 speed=25.3x    
frame=19375 fps=635 q=2.0 size=  302713kB time=00:12:55.00 bitrate=3199.8kbits/s dup=2 drop=0 speed=25.4x    
frame=19653 fps=633 q=2.0 size=  308001kB time=00:13:06.12 bitrate=3209.6kbits/s dup=2 drop=0 speed=25.3x    
frame=20021 fps=635 q=2.0 size=  311672kB time=00:13:20.84 bitrate=3188.2kbits/s dup=2 drop=0 speed=25.4x    
frame=20341 fps=635 q=2.0 size=  317868kB time=00:13:33.64 bitrate=3200.4kbits/s dup=2 drop=0 speed=25.4x    
frame=20726 fps=637 q=2.0 size=  321863kB time=00:13:49.04 bitrate=3180.4kbits/s dup=2 drop=0 speed=25.5x    
frame=21063 fps=638 q=2.0 size=  326424kB time=00:14:02.52 bitrate=3173.9kbits/s dup=2 drop=0 speed=25.5x    
frame=21333 fps=636 q=2.0 size=  332454kB time=00:14:13.32 bitrate=3191.6kbits/s dup=2 drop=0 speed=25.5x    
frame=21670 fps=637 q=2.0 size=  336730kB time=00:14:26.80 bitrate=3182.4kbits/s dup=2 drop=0 speed=25.5x    
frame=22016 fps=638 q=2.0 size=  340511kB time=00:14:40.64 bitrate=3167.5kbits/s dup=2 drop=0 speed=25.5x    
frame=22340 fps=638 q=2.0 size=  344283kB time=00:14:53.60 bitrate=3156.2kbits/s dup=2 drop=0 speed=25.5x    
frame=22679 fps=638 q=2.0 size=  347685kB time=00:15:07.16 bitrate=3139.7kbits/s dup=2 drop=0 speed=25.5x    
frame=22936 fps=637 q=2.0 size=  351621kB time=00:15:17.44 bitrate=3139.7kbits/s dup=2 drop=0 speed=25.5x    
frame=23288 fps=637 q=2.0 size=  354670kB time=00:15:31.52 bitrate=3119.1kbits/s dup=2 drop=0 speed=25.5x    
frame=23533 fps=635 q=2.0 size=  359267kB time=00:15:41.32 bitrate=3126.6kbits/s dup=2 drop=0 speed=25.4x    
frame=23795 fps=634 q=2.0 size=  363367kB time=00:15:51.80 bitrate=3127.4kbits/s dup=2 drop=0 speed=25.4x    
frame=24064 fps=633 q=2.0 size=  367832kB time=00:16:02.56 bitrate=3130.5kbits/s dup=2 drop=0 speed=25.3x    
frame=24395 fps=633 q=2.0 size=  370771kB time=00:16:15.80 bitrate=3112.7kbits/s dup=2 drop=0 speed=25.3x    
frame=24667 fps=632 q=2.0 size=  374727kB time=00:16:26.68 bitrate=3111.2kbits/s dup=2 drop=0 speed=25.3x    
frame=24993 fps=632 q=2.0 size=  378109kB time=00:16:39.72 bitrate=3098.3kbits/s dup=2 drop=0 speed=25.3x    
frame=25359 fps=633 q=2.0 size=  381030kB time=00:16:54.36 bitrate=3077.2kbits/s dup=2 drop=0 speed=25.3x    
frame=25706 fps=634 q=2.0 size=  383979kB time=00:17:08.24 bitrate=3059.2kbits/s dup=2 drop=0 speed=25.4x    
frame=26053 fps=635 q=2.0 size=  387106kB time=00:17:22.12 bitrate=3043.0kbits/s dup=2 drop=0 speed=25.4x    
frame=26362 fps=635 q=2.0 size=  391377kB time=00:17:34.48 bitrate=3040.5kbits/s dup=2 drop=0 speed=25.4x    
frame=26731 fps=636 q=2.0 size=  395586kB time=00:17:49.24 bitrate=3030.8kbits/s dup=2 drop=0 speed=25.4x    
frame=27061 fps=636 q=2.0 size=  400311kB time=00:18:02.44 bitrate=3029.6kbits/s dup=2 drop=0 speed=25.4x    
frame=27431 fps=637 q=2.0 size=  404515kB time=00:18:17.24 bitrate=3020.1kbits/s dup=2 drop=0 speed=25.5x    
frame=27739 fps=637 q=2.0 size=  410112kB time=00:18:29.56 bitrate=3027.9kbits/s dup=2 drop=0 speed=25.5x    
frame=28065 fps=637 q=2.0 size=  414627kB time=00:18:42.60 bitrate=3025.7kbits/s dup=2 drop=0 speed=25.5x    
frame=28384 fps=637 q=2.0 size=  419724kB time=00:18:55.36 bitrate=3028.4kbits/s dup=2 drop=0 speed=25.5x    
frame=28720 fps=638 q=2.0 size=  423654kB time=00:19:08.80 bitrate=3021.0kbits/s dup=2 drop=0 speed=25.5x    
frame=29089 fps=639 q=2.0 size=  427630kB time=00:19:23.56 bitrate=3010.7kbits/s dup=2 drop=0 speed=25.5x    
frame=29388 fps=638 q=2.0 size=  430651kB time=00:19:35.52 bitrate=3001.1kbits/s dup=2 drop=0 speed=25.5x    
frame=29696 fps=638 q=2.0 size=  434267kB time=00:19:47.84 bitrate=2994.9kbits/s dup=2 drop=0 speed=25.5x    
frame=29948 fps=637 q=2.0 size=  436793kB time=00:19:57.92 bitrate=2987.0kbits/s dup=2 drop=0 speed=25.5x    
frame=30162 fps=634 q=2.0 size=  440814kB time=00:20:06.48 bitrate=2993.1kbits/s dup=2 drop=0 speed=25.4x    
frame=30622 fps=637 q=2.0 size=  442687kB time=00:20:24.88 bitrate=2960.7kbits/s dup=2 drop=0 speed=25.5x    
frame=31132 fps=641 q=2.0 size=  446683kB time=00:20:45.28 bitrate=2938.5kbits/s dup=2 drop=0 speed=25.7x    
frame=31134 fps=641 q=2.0 Lsize=  446683kB time=00:20:45.36 bitrate=2938.3kbits/s dup=2 drop=0 speed=25.7x    
video:446683kB audio:0kB subtitle:0kB other streams:0kB global headers:0kB muxing overhead: 0.000000%

2nd pass

ffmpeg version N-84348-gdb7a05d Copyright (c) 2000-2017 the FFmpeg developers
  built with gcc 6.3.0 (GCC)
  configuration: --enable-gpl --enable-version3 --enable-cuda --enable-cuvid --enable-d3d11va --enable-dxva2 --enable-libmfx --enable-nvenc --enable-avisynth --enable-bzlib --enable-fontconfig --enable-frei0r --enable-gnutls --enable-iconv --enable-libass --enable-libbluray --enable-libbs2b --enable-libcaca --enable-libfreetype --enable-libgme --enable-libgsm --enable-libilbc --enable-libmodplug --enable-libmp3lame --enable-libopencore-amrnb --enable-libopencore-amrwb --enable-libopenh264 --enable-libopenjpeg --enable-libopus --enable-librtmp --enable-libsnappy --enable-libsoxr --enable-libspeex --enable-libtheora --enable-libtwolame --enable-libvidstab --enable-libvo-amrwbenc --enable-libvorbis --enable-libvpx --enable-libwavpack --enable-libwebp --enable-libx264 --enable-libx265 --enable-libxavs --enable-libxvid --enable-libzimg --enable-lzma --enable-zlib
  libavutil      55. 50.100 / 55. 50.100
  libavcodec     57. 83.101 / 57. 83.101
  libavformat    57. 66.105 / 57. 66.105
  libavdevice    57.  3.100 / 57.  3.100
  libavfilter     6. 78.100 /  6. 78.100
  libswscale      4.  3.101 /  4.  3.101
  libswresample   2.  4.100 /  2.  4.100
  libpostproc    54.  2.100 / 54.  2.100
Input #0, mov,mp4,m4a,3gp,3g2,mj2, from 'Futurama - 7x01 .mp4':
  Metadata:
    major_brand     : isom
    minor_version   : 1
    compatible_brands: isomavc1
    creation_time   : 2015-01-26T11:04:38.000000Z
  Duration: 00:20:45.31, start: 0.000000, bitrate: 746 kb/s
    Stream #0:0(und): Video: h264 (High) (avc1 / 0x31637661), yuv420p(tv, bt709/unknown/unknown), 720x404, 603 kb/s, 25 fps, 25 tbr, 25k tbn, 50 tbc (default)
    Metadata:
      creation_time   : 2015-01-26T11:04:38.000000Z
      handler_name    : FCC 4ever
    Stream #0:1(spa): Audio: aac (LC) (mp4a / 0x6134706D), 48000 Hz, stereo, fltp, 138 kb/s (default)
    Metadata:
      creation_time   : 2015-01-26T11:04:39.000000Z
      handler_name    : FCC 4ever
Stream mapping:
  Stream #0:0 -> #0:0 (h264 (native) -> mpeg4 (libxvid))
  Stream #0:1 -> #0:1 (aac (native) -> mp3 (libmp3lame))
Press [q] to stop, [?] for help
frame=    2 fps=0.0 q=0.0 size=       0kB time=-577014:32:22.77 bitrate=  -0.0kbits/s speed=N/A    
Output #0, avi, to 'Futurama - 7x01 .avi':
  Metadata:
    major_brand     : isom
    minor_version   : 1
    compatible_brands: isomavc1
    ISFT            : Lavf57.66.105
    Stream #0:0(und): Video: mpeg4 (libxvid) (XVID / 0x44495658), yuv420p(progressive), 720x404, q=2-31, 1111 kb/s, 25 fps, 25 tbn, 25 tbc (default)
    Metadata:
      creation_time   : 2015-01-26T11:04:38.000000Z
      handler_name    : FCC 4ever
      encoder         : Lavc57.83.101 libxvid
    Stream #0:1(spa): Audio: mp3 (libmp3lame) (U[0][0][0] / 0x0055), 48000 Hz, stereo, fltp, 128 kb/s (default)
    Metadata:
      creation_time   : 2015-01-26T11:04:39.000000Z
      handler_name    : FCC 4ever
      encoder         : Lavc57.83.101 libmp3lame
frame=  145 fps=132 q=2.0 size=    2838kB time=00:00:05.88 bitrate=3954.5kbits/s speed=5.35x    
frame=  243 fps=152 q=2.0 size=    8219kB time=00:00:09.80 bitrate=6870.2kbits/s speed=6.12x    
frame=  346 fps=165 q=2.0 size=   14412kB time=00:00:14.13 bitrate=8351.9kbits/s speed=6.72x    
frame=  471 fps=181 q=2.0 size=   18968kB time=00:00:19.46 bitrate=7983.2kbits/s speed=7.48x    
frame=  631 fps=203 q=2.0 size=   20776kB time=00:00:25.84 bitrate=6584.5kbits/s speed=8.33x    
frame=  792 fps=220 q=2.0 size=   22893kB time=00:00:32.11 bitrate=5840.2kbits/s speed=8.91x    
frame=  951 fps=232 q=2.0 size=   25172kB time=00:00:38.76 bitrate=5320.2kbits/s speed=9.44x    
frame= 1129 fps=245 q=2.0 size=   28112kB time=00:00:45.55 bitrate=5055.6kbits/s speed=9.89x    
frame= 1307 fps=256 q=2.0 size=   31059kB time=00:00:52.72 bitrate=4825.4kbits/s speed=10.3x    
frame= 1435 fps=256 q=2.0 size=   36876kB time=00:00:58.03 bitrate=5205.5kbits/s speed=10.4x    
frame= 1587 fps=260 q=2.0 size=   41724kB time=00:01:04.00 bitrate=5340.0kbits/s speed=10.5x    
frame= 1731 fps=262 q=2.0 size=   45373kB time=00:01:09.55 bitrate=5344.1kbits/s speed=10.5x    
frame= 1870 fps=263 q=2.0 size=   50140kB time=00:01:15.31 bitrate=5454.0kbits/s speed=10.6x    
frame= 2025 fps=266 q=2.0 size=   54811kB time=00:01:21.52 bitrate=5507.4kbits/s speed=10.7x    
frame= 2204 fps=272 q=2.0 size=   58662kB time=00:01:28.75 bitrate=5414.6kbits/s speed=10.9x    
frame= 2379 fps=276 q=2.0 size=   61929kB time=00:01:35.49 bitrate=5312.5kbits/s speed=11.1x    
frame= 2567 fps=282 q=2.0 size=   65017kB time=00:01:43.15 bitrate=5163.5kbits/s speed=11.3x    
frame= 2739 fps=285 q=2.0 size=   68831kB time=00:01:49.87 bitrate=5132.0kbits/s speed=11.4x    
frame= 2919 fps=289 q=2.0 size=   72971kB time=00:01:57.28 bitrate=5096.7kbits/s speed=11.6x    
frame= 3118 fps=294 q=2.0 size=   76250kB time=00:02:05.23 bitrate=4987.9kbits/s speed=11.8x    
frame= 3312 fps=298 q=2.0 size=   79311kB time=00:02:12.91 bitrate=4888.3kbits/s speed=  12x    
frame= 3526 fps=304 q=2.0 size=   81501kB time=00:02:21.55 bitrate=4716.7kbits/s speed=12.2x    
frame= 3735 fps=308 q=2.0 size=   84117kB time=00:02:30.02 bitrate=4593.2kbits/s speed=12.4x    
frame= 3934 fps=312 q=2.0 size=   87094kB time=00:02:37.87 bitrate=4519.3kbits/s speed=12.5x    
frame= 4131 fps=315 q=2.0 size=   90464kB time=00:02:45.57 bitrate=4475.8kbits/s speed=12.6x    
frame= 4335 fps=318 q=2.0 size=   93021kB time=00:02:54.12 bitrate=4376.5kbits/s speed=12.8x    
frame= 4551 fps=322 q=2.0 size=   95631kB time=00:03:02.40 bitrate=4295.0kbits/s speed=12.9x    
frame= 4759 fps=326 q=2.0 size=   97991kB time=00:03:10.96 bitrate=4203.5kbits/s speed=13.1x    
frame= 4971 fps=329 q=2.0 size=  100452kB time=00:03:19.15 bitrate=4132.0kbits/s speed=13.2x    
frame= 5138 fps=329 q=2.0 size=  104146kB time=00:03:25.87 bitrate=4144.2kbits/s speed=13.2x    
frame= 5291 fps=328 q=2.0 size=  108817kB time=00:03:32.08 bitrate=4203.1kbits/s speed=13.2x    
frame= 5457 fps=328 q=2.0 size=  112168kB time=00:03:38.80 bitrate=4199.5kbits/s speed=13.2x    
frame= 5638 fps=329 q=2.0 size=  114652kB time=00:03:46.03 bitrate=4155.3kbits/s speed=13.2x    
frame= 5839 fps=331 q=2.0 size=  116558kB time=00:03:54.16 bitrate=4077.6kbits/s speed=13.3x    
frame= 6051 fps=334 q=2.0 size=  119538kB time=00:04:02.35 bitrate=4040.6kbits/s speed=13.4x    
frame= 6244 fps=335 q=2.0 size=  122844kB time=00:04:10.48 bitrate=4017.5kbits/s speed=13.5x    
frame= 6454 fps=338 q=2.0 size=  125463kB time=00:04:18.67 bitrate=3973.4kbits/s speed=13.5x    
frame= 6663 fps=340 q=2.0 size=  127881kB time=00:04:26.88 bitrate=3925.4kbits/s speed=13.6x    
frame= 6867 fps=341 q=2.0 size=  131148kB time=00:04:34.99 bitrate=3906.9kbits/s speed=13.7x    
frame= 7004 fps=340 q=2.0 size=  136915kB time=00:04:40.75 bitrate=3995.0kbits/s speed=13.6x    
frame= 7191 fps=341 q=2.0 size=  140768kB time=00:04:48.24 bitrate=4000.7kbits/s speed=13.6x    
frame= 7401 fps=342 q=2.0 size=  143262kB time=00:04:56.56 bitrate=3957.3kbits/s speed=13.7x    
frame= 7611 fps=344 q=2.0 size=  145947kB time=00:05:04.99 bitrate=3920.1kbits/s speed=13.8x    
frame= 7791 fps=344 q=2.0 size=  149165kB time=00:05:12.24 bitrate=3913.5kbits/s speed=13.8x    
frame= 7995 fps=346 q=2.0 size=  151441kB time=00:05:20.30 bitrate=3873.2kbits/s speed=13.9x    
frame= 8187 fps=347 q=2.0 size=  154129kB time=00:05:28.03 bitrate=3849.1kbits/s speed=13.9x    
frame= 8395 fps=348 q=2.0 size=  156725kB time=00:05:36.43 bitrate=3816.2kbits/s speed=13.9x    
frame= 8607 fps=350 q=2.0 size=  158940kB time=00:05:44.73 bitrate=3776.9kbits/s speed=  14x    
frame= 8810 fps=351 q=2.0 size=  161643kB time=00:05:52.75 bitrate=3753.8kbits/s speed=  14x    
frame= 9004 fps=351 q=2.0 size=  164829kB time=00:06:00.88 bitrate=3741.5kbits/s speed=14.1x    
frame= 9207 fps=353 q=2.0 size=  167470kB time=00:06:08.78 bitrate=3720.1kbits/s speed=14.1x    
frame= 9443 fps=355 q=2.0 size=  170233kB time=00:06:18.16 bitrate=3687.6kbits/s speed=14.2x    
frame= 9651 fps=356 q=2.0 size=  172803kB time=00:06:26.66 bitrate=3661.1kbits/s speed=14.3x    
frame= 9855 fps=357 q=2.0 size=  175650kB time=00:06:34.58 bitrate=3646.7kbits/s speed=14.3x    
frame=10082 fps=359 q=2.0 size=  177750kB time=00:06:43.63 bitrate=3607.6kbits/s speed=14.4x    
frame=10298 fps=360 q=2.0 size=  179978kB time=00:06:52.27 bitrate=3576.2kbits/s speed=14.4x    
frame=10489 fps=360 q=2.0 size=  182814kB time=00:06:59.95 bitrate=3566.2kbits/s speed=14.4x    
frame=10683 fps=361 q=2.0 size=  186385kB time=00:07:07.63 bitrate=3570.5kbits/s speed=14.4x    
frame=10883 fps=361 q=2.0 size=  188649kB time=00:07:15.76 bitrate=3546.4kbits/s speed=14.5x    
frame=11079 fps=362 q=2.0 size=  190767kB time=00:07:23.44 bitrate=3524.1kbits/s speed=14.5x    
frame=11282 fps=363 q=2.0 size=  193078kB time=00:07:31.63 bitrate=3502.2kbits/s speed=14.5x    
frame=11461 fps=362 q=2.0 size=  195625kB time=00:07:38.80 bitrate=3492.9kbits/s speed=14.5x    
frame=11658 fps=363 q=2.0 size=  198107kB time=00:07:46.99 bitrate=3475.2kbits/s speed=14.5x    
frame=11885 fps=364 q=2.0 size=  199688kB time=00:07:56.08 bitrate=3436.0kbits/s speed=14.6x    
frame=12053 fps=364 q=2.0 size=  205675kB time=00:08:02.80 bitrate=3489.8kbits/s speed=14.6x    
frame=12218 fps=363 q=2.0 size=  208991kB time=00:08:09.07 bitrate=3500.6kbits/s speed=14.5x    
frame=12405 fps=364 q=2.0 size=  211566kB time=00:08:16.75 bitrate=3489.0kbits/s speed=14.6x    
frame=12615 fps=364 q=2.0 size=  213911kB time=00:08:25.12 bitrate=3469.1kbits/s speed=14.6x    
frame=12807 fps=365 q=2.0 size=  217509kB time=00:08:32.64 bitrate=3475.8kbits/s speed=14.6x    
frame=13023 fps=366 q=2.0 size=  220137kB time=00:08:41.30 bitrate=3459.3kbits/s speed=14.6x    
frame=13197 fps=365 q=2.0 size=  224275kB time=00:08:48.43 bitrate=3476.8kbits/s speed=14.6x    
frame=13399 fps=366 q=2.0 size=  227038kB time=00:08:56.56 bitrate=3466.3kbits/s speed=14.6x    
frame=13611 fps=367 q=2.0 size=  229727kB time=00:09:04.92 bitrate=3453.6kbits/s speed=14.7x    
frame=13822 fps=367 q=2.0 size=  232163kB time=00:09:13.39 bitrate=3436.8kbits/s speed=14.7x    
frame=14031 fps=368 q=2.0 size=  234562kB time=00:09:21.64 bitrate=3421.2kbits/s speed=14.7x    
frame=14231 fps=368 q=2.0 size=  236894kB time=00:09:29.71 bitrate=3406.3kbits/s speed=14.7x    
frame=14427 fps=369 q=2.0 size=  238910kB time=00:09:37.80 bitrate=3387.2kbits/s speed=14.8x    
frame=14610 fps=369 q=2.0 size=  241668kB time=00:09:45.07 bitrate=3383.8kbits/s speed=14.8x    
frame=14777 fps=368 q=2.0 size=  244793kB time=00:09:51.79 bitrate=3388.6kbits/s speed=14.7x    
frame=14979 fps=369 q=2.0 size=  247105kB time=00:09:59.47 bitrate=3376.8kbits/s speed=14.8x    
frame=15182 fps=369 q=2.0 size=  249071kB time=00:10:07.60 bitrate=3358.1kbits/s speed=14.8x    
frame=15375 fps=369 q=2.0 size=  251485kB time=00:10:15.31 bitrate=3348.2kbits/s speed=14.8x    
frame=15593 fps=370 q=2.0 size=  253070kB time=00:10:24.43 bitrate=3320.1kbits/s speed=14.8x    
frame=15785 fps=370 q=2.0 size=  255467kB time=00:10:32.11 bitrate=3310.8kbits/s speed=14.8x    
frame=15985 fps=371 q=2.0 size=  258181kB time=00:10:39.79 bitrate=3305.8kbits/s speed=14.8x    
frame=16167 fps=371 q=2.0 size=  261283kB time=00:10:47.01 bitrate=3308.2kbits/s speed=14.8x    
frame=16329 fps=370 q=2.0 size=  265067kB time=00:10:53.68 bitrate=3321.8kbits/s speed=14.8x    
frame=16505 fps=370 q=2.0 size=  268694kB time=00:11:00.91 bitrate=3330.5kbits/s speed=14.8x    
frame=16701 fps=370 q=2.0 size=  272184kB time=00:11:08.59 bitrate=3335.0kbits/s speed=14.8x    
frame=16887 fps=370 q=2.0 size=  275102kB time=00:11:16.17 bitrate=3332.9kbits/s speed=14.8x    
frame=17091 fps=370 q=2.0 size=  277804kB time=00:11:24.38 bitrate=3325.3kbits/s speed=14.8x    
frame=17297 fps=371 q=2.0 size=  280388kB time=00:11:32.59 bitrate=3316.4kbits/s speed=14.9x    
frame=17499 fps=371 q=2.0 size=  282544kB time=00:11:40.29 bitrate=3305.2kbits/s speed=14.9x    
frame=17710 fps=372 q=2.0 size=  284576kB time=00:11:48.91 bitrate=3288.5kbits/s speed=14.9x    
frame=17919 fps=372 q=2.0 size=  287147kB time=00:11:57.55 bitrate=3278.2kbits/s speed=14.9x    
frame=18138 fps=373 q=2.0 size=  289586kB time=00:12:06.19 bitrate=3266.7kbits/s speed=14.9x    
frame=18347 fps=373 q=2.0 size=  292132kB time=00:12:14.32 bitrate=3259.0kbits/s speed=14.9x    
frame=18507 fps=373 q=2.0 size=  297357kB time=00:12:20.61 bitrate=3289.1kbits/s speed=14.9x    
frame=18651 fps=372 q=2.0 size=  301904kB time=00:12:26.49 bitrate=3313.1kbits/s speed=14.9x    
frame=18854 fps=372 q=2.0 size=  304369kB time=00:12:34.48 bitrate=3304.7kbits/s speed=14.9x    
frame=19077 fps=373 q=2.0 size=  306425kB time=00:12:43.63 bitrate=3287.2kbits/s speed=14.9x    
frame=19311 fps=374 q=2.0 size=  307867kB time=00:12:52.77 bitrate=3263.6kbits/s speed=  15x    
frame=19503 fps=374 q=2.0 size=  310712kB time=00:13:00.40 bitrate=3261.6kbits/s speed=  15x    
frame=19683 fps=374 q=2.0 size=  314149kB time=00:13:07.63 bitrate=3267.4kbits/s speed=  15x    
frame=19887 fps=374 q=2.0 size=  316504kB time=00:13:16.10 bitrate=3256.9kbits/s speed=  15x    
frame=20141 fps=376 q=2.0 size=  318436kB time=00:13:26.32 bitrate=3235.2kbits/s speed=  15x    
frame=20313 fps=375 q=2.0 size=  323305kB time=00:13:33.04 bitrate=3257.5kbits/s speed=  15x    
frame=20535 fps=376 q=2.0 size=  325572kB time=00:13:41.71 bitrate=3245.8kbits/s speed=  15x    
frame=20747 fps=376 q=2.0 size=  328314kB time=00:13:50.32 bitrate=3239.1kbits/s speed=15.1x    
frame=20959 fps=377 q=2.0 size=  330827kB time=00:13:58.96 bitrate=3230.3kbits/s speed=15.1x    
frame=21123 fps=376 q=2.0 size=  334956kB time=00:14:05.56 bitrate=3245.1kbits/s speed=15.1x    
frame=21301 fps=376 q=2.0 size=  338790kB time=00:14:12.40 bitrate=3255.9kbits/s speed=  15x    
frame=21505 fps=376 q=2.0 size=  340985kB time=00:14:20.59 bitrate=3245.8kbits/s speed=15.1x    
frame=21696 fps=376 q=2.0 size=  343761kB time=00:14:28.27 bitrate=3243.3kbits/s speed=15.1x    
frame=21891 fps=377 q=2.0 size=  345940kB time=00:14:36.31 bitrate=3233.9kbits/s speed=15.1x    
frame=22083 fps=377 q=2.0 size=  348508kB time=00:14:43.96 bitrate=3229.7kbits/s speed=15.1x    
frame=22287 fps=377 q=2.0 size=  351022kB time=00:14:52.12 bitrate=3223.3kbits/s speed=15.1x    
frame=22506 fps=377 q=2.0 size=  352412kB time=00:15:00.91 bitrate=3204.5kbits/s speed=15.1x    
frame=22694 fps=377 q=2.0 size=  355241kB time=00:15:08.08 bitrate=3204.7kbits/s speed=15.1x    
frame=22849 fps=377 q=2.0 size=  357778kB time=00:15:14.35 bitrate=3205.5kbits/s speed=15.1x    
frame=23033 fps=377 q=2.0 size=  359604kB time=00:15:22.03 bitrate=3195.0kbits/s speed=15.1x    
frame=23235 fps=377 q=2.0 size=  361588kB time=00:15:29.83 bitrate=3185.7kbits/s speed=15.1x    
frame=23405 fps=377 q=2.0 size=  363756kB time=00:15:36.88 bitrate=3180.6kbits/s speed=15.1x    
frame=23559 fps=376 q=2.0 size=  367191kB time=00:15:42.64 bitrate=3191.0kbits/s speed=  15x    
frame=23726 fps=376 q=2.0 size=  369820kB time=00:15:49.36 bitrate=3191.1kbits/s speed=  15x    
frame=23895 fps=375 q=2.0 size=  372484kB time=00:15:56.42 bitrate=3190.4kbits/s speed=  15x    
frame=24057 fps=375 q=2.0 size=  375179kB time=00:16:02.80 bitrate=3192.2kbits/s speed=  15x    
frame=24244 fps=375 q=2.0 size=  377157kB time=00:16:10.48 bitrate=3183.6kbits/s speed=  15x    
frame=24447 fps=375 q=2.0 size=  379120kB time=00:16:18.26 bitrate=3174.8kbits/s speed=  15x    
frame=24619 fps=375 q=2.0 size=  381595kB time=00:16:25.39 bitrate=3172.4kbits/s speed=  15x    
frame=24805 fps=375 q=2.0 size=  384109kB time=00:16:32.56 bitrate=3170.2kbits/s speed=  15x    
frame=25002 fps=375 q=2.0 size=  386064kB time=00:16:40.75 bitrate=3160.3kbits/s speed=  15x    
frame=25227 fps=376 q=2.0 size=  388041kB time=00:16:49.39 bitrate=3149.3kbits/s speed=  15x    
frame=25440 fps=376 q=2.0 size=  389725kB time=00:16:58.03 bitrate=3136.1kbits/s speed=  15x    
frame=25644 fps=376 q=2.0 size=  391514kB time=00:17:06.16 bitrate=3125.5kbits/s speed=15.1x    
frame=25839 fps=376 q=2.0 size=  393654kB time=00:17:14.28 bitrate=3117.9kbits/s speed=15.1x    
frame=26051 fps=377 q=2.0 size=  395472kB time=00:17:22.48 bitrate=3107.7kbits/s speed=15.1x    
frame=26259 fps=377 q=2.0 size=  397446kB time=00:17:30.69 bitrate=3098.8kbits/s speed=15.1x    
frame=26421 fps=377 q=2.0 size=  400935kB time=00:17:37.39 bitrate=3106.2kbits/s speed=15.1x    
frame=26642 fps=377 q=2.0 size=  403483kB time=00:17:46.03 bitrate=3100.6kbits/s speed=15.1x    
frame=26859 fps=378 q=2.0 size=  405678kB time=00:17:55.08 bitrate=3091.2kbits/s speed=15.1x    
frame=27044 fps=377 q=2.0 size=  408748kB time=00:18:02.35 bitrate=3093.7kbits/s speed=15.1x    
frame=27243 fps=378 q=2.0 size=  411582kB time=00:18:10.34 bitrate=3092.3kbits/s speed=15.1x    
frame=27467 fps=378 q=2.0 size=  413898kB time=00:18:19.12 bitrate=3084.9kbits/s speed=15.1x    
frame=27656 fps=378 q=2.0 size=  417406kB time=00:18:26.80 bitrate=3089.4kbits/s speed=15.1x    
frame=27847 fps=378 q=2.0 size=  420707kB time=00:18:34.48 bitrate=3092.4kbits/s speed=15.1x    
frame=28037 fps=378 q=2.0 size=  423191kB time=00:18:42.16 bitrate=3089.4kbits/s speed=15.1x    
frame=28227 fps=378 q=2.0 size=  426254kB time=00:18:49.48 bitrate=3091.6kbits/s speed=15.1x    
frame=28414 fps=378 q=2.0 size=  429444kB time=00:18:57.07 bitrate=3093.9kbits/s speed=15.1x    
frame=28619 fps=378 q=2.0 size=  432082kB time=00:19:05.20 bitrate=3090.8kbits/s speed=15.1x    
frame=28819 fps=378 q=2.0 size=  434213kB time=00:19:13.39 bitrate=3084.0kbits/s speed=15.1x    
frame=29041 fps=379 q=2.0 size=  436538kB time=00:19:22.03 bitrate=3077.5kbits/s speed=15.2x    
frame=29223 fps=379 q=2.0 size=  438868kB time=00:19:29.37 bitrate=3074.5kbits/s speed=15.2x    
frame=29417 fps=379 q=2.0 size=  440771kB time=00:19:37.39 bitrate=3066.8kbits/s speed=15.2x    
frame=29619 fps=379 q=2.0 size=  443110kB time=00:19:45.36 bitrate=3062.3kbits/s speed=15.2x    
frame=29765 fps=378 q=2.0 size=  445154kB time=00:19:51.28 bitrate=3061.1kbits/s speed=15.1x    
frame=29932 fps=378 q=2.0 size=  446713kB time=00:19:58.00 bitrate=3054.6kbits/s speed=15.1x    
frame=30075 fps=378 q=2.0 size=  448684kB time=00:20:03.33 bitrate=3054.5kbits/s speed=15.1x    
frame=30201 fps=377 q=2.0 size=  451777kB time=00:20:08.56 bitrate=3062.3kbits/s speed=15.1x    
frame=30435 fps=377 q=2.0 size=  452602kB time=00:20:17.83 bitrate=3044.5kbits/s speed=15.1x    
frame=30783 fps=379 q=2.0 size=  453420kB time=00:20:31.65 bitrate=3015.8kbits/s speed=15.2x    
frame=31036 fps=380 q=2.0 size=  456236kB time=00:20:42.16 bitrate=3008.8kbits/s speed=15.2x    
frame=31132 fps=380 q=2.0 Lsize=  458482kB time=00:20:45.36 bitrate=3015.9kbits/s speed=15.2x    
video:437053kB audio:19458kB subtitle:0kB other streams:0kB global headers:0kB muxing overhead: 0.431675%

It creats "log-0.log" file and then duplicates it with a file named "xvidff.8KZX71".

Instead, with an older version from 2014:

1st pass

ffmpeg version N-65201-gd0f56ca Copyright (c) 2000-2014 the FFmpeg developers
  built on Aug  3 2014 02:06:42 with gcc 4.8.3 (GCC)
  configuration: --enable-gpl --enable-version3 --disable-w32threads --enable-avisynth --enable-bzlib --enable-fontconfig --enable-frei0r --enable-gnutls --enable-iconv --enable-libass --enable-libbluray --enable-libbs2b --enable-libcaca --enable-libfreetype --enable-libgme --enable-libgsm --enable-libilbc --enable-libmodplug --enable-libmp3lame --enable-libopencore-amrnb --enable-libopencore-amrwb --enable-libopenjpeg --enable-libopus --enable-librtmp --enable-libschroedinger --enable-libsoxr --enable-libspeex --enable-libtheora --enable-libtwolame --enable-libvidstab --enable-libvo-aacenc --enable-libvo-amrwbenc --enable-libvorbis --enable-libvpx --enable-libwavpack --enable-libwebp --enable-libx264 --enable-libx265 --enable-libxavs --enable-libxvid --enable-decklink --enable-zlib
  libavutil      52. 94.100 / 52. 94.100
  libavcodec     55. 71.100 / 55. 71.100
  libavformat    55. 50.100 / 55. 50.100
  libavdevice    55. 13.102 / 55. 13.102
  libavfilter     4. 11.102 /  4. 11.102
  libswscale      2.  6.100 /  2.  6.100
  libswresample   0. 19.100 /  0. 19.100
  libpostproc    52.  3.100 / 52.  3.100
Input #0, mov,mp4,m4a,3gp,3g2,mj2, from 'Futurama - 7x01 .mp4':
  Metadata:
    major_brand     : isom
    minor_version   : 1
    compatible_brands: isomavc1
    creation_time   : 2015-01-26 11:04:38
  Duration: 00:20:45.31, start: 0.000000, bitrate: 746 kb/s
    Stream #0:0(und): Video: h264 (High) (avc1 / 0x31637661), yuv420p(tv, bt709), 720x404, 603 kb/s, 25 fps, 25 tbr, 25k tbn, 50 tbc (default)
    Metadata:
      creation_time   : 2015-01-26 11:04:38
      handler_name    : FCC 4ever
    Stream #0:1(spa): Audio: aac (mp4a / 0x6134706D), 48000 Hz, stereo, fltp, 138 kb/s (default)
    Metadata:
      creation_time   : 2015-01-26 11:04:39
      handler_name    : FCC 4ever
Output #0, rawvideo, to 'NUL':
  Metadata:
    major_brand     : isom
    minor_version   : 1
    compatible_brands: isomavc1
    encoder         : Lavf55.50.100
    Stream #0:0(und): Video: mpeg4 (libxvid) (XVID / 0x44495658), yuv420p, 720x404, q=2-31, pass 1, 1111 kb/s, 25 fps, 25 tbn, 25 tbc (default)
    Metadata:
      creation_time   : 2015-01-26 11:04:38
      handler_name    : FCC 4ever
      encoder         : Lavc55.71.100 libxvid
Stream mapping:
  Stream #0:0 -> #0:0 (h264 (native) -> mpeg4 (libxvid))
Press [q] to stop, [?] for help
frame=  181 fps=0.0 q=2.0 size=    4124kB time=00:00:07.24 bitrate=4666.8kbits/s dup=2 drop=0    
frame=  317 fps=317 q=2.0 size=   12779kB time=00:00:12.68 bitrate=8256.0kbits/s dup=2 drop=0    
frame=  505 fps=336 q=2.0 size=   19368kB time=00:00:20.20 bitrate=7854.4kbits/s dup=2 drop=0    
frame=  747 fps=373 q=2.0 size=   22087kB time=00:00:29.88 bitrate=6055.3kbits/s dup=2 drop=0    
frame=  985 fps=394 q=2.0 size=   26108kB time=00:00:39.40 bitrate=5428.4kbits/s dup=2 drop=0    
frame= 1243 fps=414 q=2.0 size=   30022kB time=00:00:49.72 bitrate=4946.5kbits/s dup=2 drop=0    
frame= 1437 fps=410 q=2.0 size=   37238kB time=00:00:57.48 bitrate=5307.1kbits/s dup=2 drop=0    
frame= 1646 fps=411 q=2.0 size=   43218kB time=00:01:05.84 bitrate=5377.3kbits/s dup=2 drop=0    
frame= 1818 fps=404 q=2.0 size=   49100kB time=00:01:12.72 bitrate=5531.2kbits/s dup=2 drop=0    
frame= 2011 fps=402 q=2.0 size=   54952kB time=00:01:20.44 bitrate=5596.3kbits/s dup=2 drop=0    
frame= 2249 fps=409 q=2.0 size=   60601kB time=00:01:29.96 bitrate=5518.5kbits/s dup=2 drop=0    
frame= 2543 fps=423 q=2.0 size=   64359kB time=00:01:41.72 bitrate=5183.1kbits/s dup=2 drop=0    
frame= 2786 fps=428 q=2.0 size=   69549kB time=00:01:51.44 bitrate=5112.6kbits/s dup=2 drop=0    
frame= 3038 fps=434 q=2.0 size=   75683kB time=00:02:01.52 bitrate=5102.0kbits/s dup=2 drop=0    
frame= 3334 fps=444 q=2.0 size=   79998kB time=00:02:13.36 bitrate=4914.1kbits/s dup=2 drop=0    
frame= 3680 fps=460 q=2.0 size=   83046kB time=00:02:27.20 bitrate=4621.7kbits/s dup=2 drop=0    
frame= 3972 fps=467 q=2.0 size=   87540kB time=00:02:38.88 bitrate=4513.7kbits/s dup=2 drop=0    
frame= 4250 fps=472 q=2.0 size=   92157kB time=00:02:50.00 bitrate=4440.9kbits/s dup=2 drop=0    
frame= 4593 fps=483 q=2.0 size=   95725kB time=00:03:03.72 bitrate=4268.3kbits/s dup=2 drop=0    
frame= 4908 fps=490 q=2.0 size=   99449kB time=00:03:16.32 bitrate=4149.8kbits/s dup=2 drop=0    
frame= 5147 fps=490 q=2.0 size=  103848kB time=00:03:25.88 bitrate=4132.1kbits/s dup=2 drop=0    
frame= 5353 fps=486 q=2.0 size=  109574kB time=00:03:34.12 bitrate=4192.2kbits/s dup=2 drop=0    
frame= 5577 fps=485 q=2.0 size=  113404kB time=00:03:43.08 bitrate=4164.5kbits/s dup=2 drop=0    
frame= 5885 fps=490 q=2.0 size=  116321kB time=00:03:55.40 bitrate=4048.0kbits/s dup=2 drop=0    
frame= 6196 fps=495 q=2.0 size=  120734kB time=00:04:07.84 bitrate=3990.7kbits/s dup=2 drop=0    
frame= 6492 fps=499 q=2.0 size=  124843kB time=00:04:19.68 bitrate=3938.4kbits/s dup=2 drop=0    
frame= 6807 fps=504 q=2.0 size=  128281kB time=00:04:32.28 bitrate=3859.5kbits/s dup=2 drop=0    
frame= 7006 fps=500 q=2.0 size=  136024kB time=00:04:40.24 bitrate=3976.3kbits/s dup=2 drop=0    
frame= 7287 fps=502 q=2.0 size=  141038kB time=00:04:51.48 bitrate=3963.8kbits/s dup=2 drop=0    
frame= 7607 fps=507 q=2.0 size=  144658kB time=00:05:04.28 bitrate=3894.6kbits/s dup=2 drop=0    
frame= 7876 fps=508 q=2.0 size=  149131kB time=00:05:15.04 bitrate=3877.9kbits/s dup=2 drop=0    
frame= 8160 fps=510 q=2.0 size=  152787kB time=00:05:26.40 bitrate=3834.7kbits/s dup=2 drop=0    
frame= 8474 fps=513 q=2.0 size=  156422kB time=00:05:38.96 bitrate=3780.4kbits/s dup=2 drop=0    
frame= 8781 fps=516 q=2.0 size=  160038kB time=00:05:51.24 bitrate=3732.6kbits/s dup=2 drop=0    
frame= 9072 fps=518 q=2.0 size=  164210kB time=00:06:02.88 bitrate=3707.0kbits/s dup=2 drop=0    
frame= 9401 fps=522 q=2.0 size=  167777kB time=00:06:16.04 bitrate=3655.0kbits/s dup=2 drop=0    
frame= 9713 fps=525 q=2.0 size=  172307kB time=00:06:28.52 bitrate=3633.1kbits/s dup=2 drop=0    
frame=10054 fps=529 q=2.0 size=  175717kB time=00:06:42.16 bitrate=3579.4kbits/s dup=2 drop=0    
frame=10403 fps=533 q=2.0 size=  178850kB time=00:06:56.12 bitrate=3521.0kbits/s dup=2 drop=0    
frame=10654 fps=532 q=2.0 size=  183972kB time=00:07:06.16 bitrate=3536.5kbits/s dup=2 drop=0    
frame=10949 fps=534 q=2.0 size=  187045kB time=00:07:17.96 bitrate=3498.7kbits/s dup=2 drop=0    
frame=11237 fps=535 q=2.0 size=  190012kB time=00:07:29.48 bitrate=3463.1kbits/s dup=2 drop=0    
frame=11497 fps=534 q=2.0 size=  193647kB time=00:07:39.88 bitrate=3449.5kbits/s dup=2 drop=0    
frame=11821 fps=537 q=2.0 size=  196574kB time=00:07:52.84 bitrate=3405.7kbits/s dup=2 drop=0    
frame=12067 fps=536 q=2.0 size=  203783kB time=00:08:02.68 bitrate=3458.6kbits/s dup=2 drop=0    
frame=12320 fps=535 q=2.0 size=  207199kB time=00:08:12.80 bitrate=3444.3kbits/s dup=2 drop=0    
frame=12629 fps=537 q=2.0 size=  211271kB time=00:08:25.16 bitrate=3426.1kbits/s dup=2 drop=0    
frame=12925 fps=538 q=2.0 size=  215941kB time=00:08:37.00 bitrate=3421.6kbits/s dup=2 drop=0    
frame=13196 fps=538 q=2.0 size=  221214kB time=00:08:47.84 bitrate=3433.2kbits/s dup=2 drop=0    
frame=13510 fps=540 q=2.0 size=  225322kB time=00:09:00.40 bitrate=3415.7kbits/s dup=2 drop=0    
frame=13840 fps=542 q=2.0 size=  229169kB time=00:09:13.60 bitrate=3391.2kbits/s dup=2 drop=0    
frame=14152 fps=544 q=2.0 size=  232867kB time=00:09:26.08 bitrate=3369.9kbits/s dup=2 drop=0    
frame=14475 fps=546 q=2.0 size=  235840kB time=00:09:39.00 bitrate=3336.8kbits/s dup=2 drop=0    
frame=14724 fps=545 q=2.0 size=  239582kB time=00:09:48.96 bitrate=3332.4kbits/s dup=2 drop=0    
frame=14986 fps=544 q=2.0 size=  243488kB time=00:09:59.44 bitrate=3327.5kbits/s dup=2 drop=0    
frame=15300 fps=546 q=2.0 size=  246590kB time=00:10:12.00 bitrate=3300.8kbits/s dup=2 drop=0    
frame=15622 fps=548 q=2.0 size=  249416kB time=00:10:24.88 bitrate=3269.8kbits/s dup=2 drop=0    
frame=15929 fps=549 q=2.0 size=  252533kB time=00:10:37.16 bitrate=3246.8kbits/s dup=2 drop=0    
frame=16189 fps=548 q=2.0 size=  257428kB time=00:10:47.56 bitrate=3256.6kbits/s dup=2 drop=0    
frame=16415 fps=547 q=2.0 size=  263488kB time=00:10:56.60 bitrate=3287.4kbits/s dup=2 drop=0    
frame=16705 fps=547 q=2.0 size=  267941kB time=00:11:08.20 bitrate=3284.9kbits/s dup=2 drop=0    
frame=16992 fps=548 q=2.0 size=  272086kB time=00:11:19.68 bitrate=3279.4kbits/s dup=2 drop=0    
frame=17312 fps=549 q=2.0 size=  276003kB time=00:11:32.48 bitrate=3265.1kbits/s dup=2 drop=0    
frame=17636 fps=551 q=2.0 size=  279066kB time=00:11:45.44 bitrate=3240.7kbits/s dup=2 drop=0    
frame=17948 fps=552 q=2.0 size=  282538kB time=00:11:57.92 bitrate=3224.0kbits/s dup=2 drop=0    
frame=18253 fps=553 q=2.0 size=  286101kB time=00:12:10.12 bitrate=3210.1kbits/s dup=2 drop=0    
frame=18503 fps=552 q=2.0 size=  292108kB time=00:12:20.12 bitrate=3233.2kbits/s dup=2 drop=0    
frame=18689 fps=549 q=2.0 size=  297893kB time=00:12:27.56 bitrate=3264.4kbits/s dup=2 drop=0    
frame=19001 fps=550 q=2.0 size=  300492kB time=00:12:40.04 bitrate=3238.8kbits/s dup=2 drop=0    
frame=19364 fps=553 q=2.0 size=  302540kB time=00:12:54.56 bitrate=3199.8kbits/s dup=2 drop=0    
frame=19599 fps=552 q=2.0 size=  307251kB time=00:13:03.96 bitrate=3210.6kbits/s dup=2 drop=0    
frame=19899 fps=552 q=2.0 size=  310703kB time=00:13:15.96 bitrate=3197.8kbits/s dup=2 drop=0    
frame=20197 fps=553 q=2.0 size=  315359kB time=00:13:27.88 bitrate=3197.8kbits/s dup=2 drop=0    
frame=20479 fps=553 q=2.0 size=  318999kB time=00:13:39.16 bitrate=3190.1kbits/s dup=2 drop=0    
frame=20784 fps=554 q=2.0 size=  322690kB time=00:13:51.36 bitrate=3179.7kbits/s dup=2 drop=0    
frame=21050 fps=553 q=2.0 size=  326008kB time=00:14:02.00 bitrate=3171.8kbits/s dup=2 drop=0    
frame=21220 fps=551 q=2.0 size=  331395kB time=00:14:08.80 bitrate=3198.4kbits/s dup=2 drop=0    
frame=21511 fps=551 q=2.0 size=  334448kB time=00:14:20.44 bitrate=3184.2kbits/s dup=2 drop=0    
frame=21772 fps=551 q=2.0 size=  337885kB time=00:14:30.88 bitrate=3178.3kbits/s dup=2 drop=0    
frame=22035 fps=550 q=2.0 size=  340844kB time=00:14:41.40 bitrate=3167.9kbits/s dup=2 drop=0    
frame=22300 fps=550 q=2.0 size=  344164kB time=00:14:52.00 bitrate=3160.7kbits/s dup=2 drop=0    
frame=22601 fps=551 q=2.0 size=  346695kB time=00:15:04.04 bitrate=3141.6kbits/s dup=2 drop=0    
frame=22830 fps=550 q=2.0 size=  350503kB time=00:15:13.20 bitrate=3144.2kbits/s dup=2 drop=0    
frame=23113 fps=550 q=2.0 size=  352959kB time=00:15:24.52 bitrate=3127.5kbits/s dup=2 drop=0    
frame=23382 fps=550 q=2.0 size=  355864kB time=00:15:35.28 bitrate=3117.0kbits/s dup=2 drop=0    
frame=23579 fps=548 q=2.0 size=  360266kB time=00:15:43.16 bitrate=3129.2kbits/s dup=2 drop=0    
frame=23808 fps=547 q=2.0 size=  363603kB time=00:15:52.32 bitrate=3127.8kbits/s dup=2 drop=0    
frame=24037 fps=546 q=2.0 size=  367537kB time=00:16:01.48 bitrate=3131.5kbits/s dup=2 drop=0    
frame=24308 fps=546 q=2.0 size=  370142kB time=00:16:12.32 bitrate=3118.5kbits/s dup=2 drop=0    
frame=24568 fps=545 q=2.0 size=  373144kB time=00:16:22.72 bitrate=3110.5kbits/s dup=2 drop=0    
frame=24812 fps=545 q=2.0 size=  376428kB time=00:16:32.48 bitrate=3107.1kbits/s dup=2 drop=0    
frame=25114 fps=545 q=2.0 size=  379143kB time=00:16:44.56 bitrate=3091.8kbits/s dup=2 drop=0    
frame=25419 fps=546 q=2.0 size=  381397kB time=00:16:56.76 bitrate=3072.9kbits/s dup=2 drop=0    
frame=25708 fps=546 q=2.0 size=  384046kB time=00:17:08.32 bitrate=3059.5kbits/s dup=2 drop=0    
frame=26012 fps=547 q=2.0 size=  386552kB time=00:17:20.48 bitrate=3043.4kbits/s dup=2 drop=0    
frame=26298 fps=547 q=2.0 size=  389600kB time=00:17:31.92 bitrate=3034.1kbits/s dup=2 drop=0    
frame=26564 fps=547 q=2.0 size=  394104kB time=00:17:42.56 bitrate=3038.4kbits/s dup=2 drop=0    
frame=26895 fps=548 q=2.0 size=  397385kB time=00:17:55.80 bitrate=3026.0kbits/s dup=2 drop=0    
frame=27165 fps=548 q=2.0 size=  401763kB time=00:18:06.60 bitrate=3028.9kbits/s dup=2 drop=0    
frame=27495 fps=549 q=2.0 size=  405077kB time=00:18:19.80 bitrate=3017.3kbits/s dup=2 drop=0    
frame=27756 fps=549 q=2.0 size=  410324kB time=00:18:30.24 bitrate=3027.6kbits/s dup=2 drop=0    
frame=28041 fps=549 q=2.0 size=  414081kB time=00:18:41.64 bitrate=3024.3kbits/s dup=2 drop=0    
frame=28307 fps=549 q=2.0 size=  418686kB time=00:18:52.28 bitrate=3029.2kbits/s dup=2 drop=0    
frame=28609 fps=550 q=2.0 size=  422642kB time=00:19:04.36 bitrate=3025.5kbits/s dup=2 drop=0    
frame=28897 fps=550 q=2.0 size=  425336kB time=00:19:15.88 bitrate=3014.5kbits/s dup=2 drop=0    
frame=29198 fps=550 q=2.0 size=  428806kB time=00:19:27.92 bitrate=3007.7kbits/s dup=2 drop=0    
frame=29458 fps=550 q=2.0 size=  431278kB time=00:19:38.32 bitrate=2998.4kbits/s dup=2 drop=0    
frame=29705 fps=549 q=2.0 size=  434483kB time=00:19:48.20 bitrate=2995.5kbits/s dup=2 drop=0    
frame=29918 fps=548 q=2.0 size=  436501kB time=00:19:56.72 bitrate=2988.0kbits/s dup=2 drop=0    
frame=30110 fps=547 q=2.0 size=  439567kB time=00:20:04.40 bitrate=2989.8kbits/s dup=2 drop=0    
frame=30325 fps=546 q=2.0 size=  442435kB time=00:20:13.00 bitrate=2988.0kbits/s dup=2 drop=0    
frame=30968 fps=552 q=2.0 size=  444063kB time=00:20:38.72 bitrate=2936.7kbits/s dup=2 drop=0    
frame=31134 fps=552 q=2.0 Lsize=  446683kB time=00:20:45.36 bitrate=2938.3kbits/s dup=2 drop=0    

video:446683kB audio:0kB subtitle:0kB other streams:0kB global headers:0kB muxing overhead: 0.000000%

2nd pass

ffmpeg version N-65201-gd0f56ca Copyright (c) 2000-2014 the FFmpeg developers
  built on Aug  3 2014 02:06:42 with gcc 4.8.3 (GCC)
  configuration: --enable-gpl --enable-version3 --disable-w32threads --enable-avisynth --enable-bzlib --enable-fontconfig --enable-frei0r --enable-gnutls --enable-iconv --enable-libass --enable-libbluray --enable-libbs2b --enable-libcaca --enable-libfreetype --enable-libgme --enable-libgsm --enable-libilbc --enable-libmodplug --enable-libmp3lame --enable-libopencore-amrnb --enable-libopencore-amrwb --enable-libopenjpeg --enable-libopus --enable-librtmp --enable-libschroedinger --enable-libsoxr --enable-libspeex --enable-libtheora --enable-libtwolame --enable-libvidstab --enable-libvo-aacenc --enable-libvo-amrwbenc --enable-libvorbis --enable-libvpx --enable-libwavpack --enable-libwebp --enable-libx264 --enable-libx265 --enable-libxavs --enable-libxvid --enable-decklink --enable-zlib
  libavutil      52. 94.100 / 52. 94.100
  libavcodec     55. 71.100 / 55. 71.100
  libavformat    55. 50.100 / 55. 50.100
  libavdevice    55. 13.102 / 55. 13.102
  libavfilter     4. 11.102 /  4. 11.102
  libswscale      2.  6.100 /  2.  6.100
  libswresample   0. 19.100 /  0. 19.100
  libpostproc    52.  3.100 / 52.  3.100
Input #0, mov,mp4,m4a,3gp,3g2,mj2, from 'Futurama - 7x01 .mp4':
  Metadata:
    major_brand     : isom
    minor_version   : 1
    compatible_brands: isomavc1
    creation_time   : 2015-01-26 11:04:38
  Duration: 00:20:45.31, start: 0.000000, bitrate: 746 kb/s
    Stream #0:0(und): Video: h264 (High) (avc1 / 0x31637661), yuv420p(tv, bt709), 720x404, 603 kb/s, 25 fps, 25 tbr, 25k tbn, 50 tbc (default)
    Metadata:
      creation_time   : 2015-01-26 11:04:38
      handler_name    : FCC 4ever
    Stream #0:1(spa): Audio: aac (mp4a / 0x6134706D), 48000 Hz, stereo, fltp, 138 kb/s (default)
    Metadata:
      creation_time   : 2015-01-26 11:04:39
      handler_name    : FCC 4ever
Output #0, avi, to 'Futurama - 7x01 .avi':
  Metadata:
    major_brand     : isom
    minor_version   : 1
    compatible_brands: isomavc1
    ISFT            : Lavf55.50.100
    Stream #0:0(und): Video: mpeg4 (libxvid) (XVID / 0x44495658), yuv420p, 720x404, q=2-31, pass 2, 1111 kb/s, 25 fps, 25 tbn, 25 tbc (default)
    Metadata:
      creation_time   : 2015-01-26 11:04:38
      handler_name    : FCC 4ever
      encoder         : Lavc55.71.100 libxvid
    Stream #0:1(spa): Audio: mp3 (libmp3lame) (U[0][0][0] / 0x0055), 48000 Hz, stereo, fltp, 128 kb/s (default)
    Metadata:
      creation_time   : 2015-01-26 11:04:39
      handler_name    : FCC 4ever
      encoder         : Lavc55.71.100 libmp3lame
Stream mapping:
  Stream #0:0 -> #0:0 (h264 (native) -> mpeg4 (libxvid))
  Stream #0:1 -> #0:1 (aac (native) -> mp3 (libmp3lame))
Press [q] to stop, [?] for help
frame=  151 fps=0.0 q=6.0 size=    1371kB time=00:00:06.28 bitrate=1786.3kbits/s    
frame=  262 fps=261 q=6.0 size=    3880kB time=00:00:10.70 bitrate=2969.5kbits/s    
frame=  397 fps=264 q=6.0 size=    6655kB time=00:00:16.10 bitrate=3385.3kbits/s    
frame=  567 fps=283 q=5.0 size=    7888kB time=00:00:22.99 bitrate=2810.5kbits/s    
frame=  731 fps=292 q=5.0 size=    8782kB time=00:00:29.68 bitrate=2423.1kbits/s    
frame=  901 fps=300 q=6.0 size=   10053kB time=00:00:36.40 bitrate=2261.9kbits/s    
frame= 1073 fps=306 q=5.0 size=   11238kB time=00:00:43.63 bitrate=2110.0kbits/s    
frame= 1235 fps=308 q=6.0 size=   12610kB time=00:00:49.84 bitrate=2072.4kbits/s    
frame= 1391 fps=309 q=6.0 size=   14617kB time=00:00:56.11 bitrate=2133.9kbits/s    
frame= 1523 fps=304 q=6.0 size=   16946kB time=00:01:01.36 bitrate=2262.1kbits/s    
frame= 1695 fps=308 q=6.0 size=   18411kB time=00:01:08.23 bitrate=2210.4kbits/s    
frame= 1831 fps=305 q=5.0 size=   20396kB time=00:01:13.84 bitrate=2262.5kbits/s    
frame= 1993 fps=306 q=6.0 size=   22227kB time=00:01:20.11 bitrate=2272.8kbits/s    
frame= 2163 fps=309 q=4.0 size=   23984kB time=00:01:26.83 bitrate=2262.7kbits/s    
frame= 2331 fps=310 q=6.0 size=   25510kB time=00:01:33.57 bitrate=2233.2kbits/s    
frame= 2522 fps=315 q=6.0 size=   26742kB time=00:01:41.23 bitrate=2164.1kbits/s    
frame= 2679 fps=315 q=6.0 size=   28471kB time=00:01:47.95 bitrate=2160.5kbits/s    
frame= 2847 fps=316 q=7.0 size=   30727kB time=00:01:54.21 bitrate=2203.8kbits/s    
frame= 3024 fps=318 q=6.0 size=   32557kB time=00:02:01.39 bitrate=2197.1kbits/s    
frame= 3207 fps=320 q=6.0 size=   33985kB time=00:02:09.02 bitrate=2157.8kbits/s    
frame= 3389 fps=322 q=5.0 size=   35590kB time=00:02:16.24 bitrate=2139.9kbits/s    
frame= 3581 fps=325 q=4.0 size=   36878kB time=00:02:23.92 bitrate=2099.0kbits/s    
frame= 3768 fps=327 q=6.0 size=   38430kB time=00:02:31.15 bitrate=2082.8kbits/s    
frame= 3951 fps=329 q=5.0 size=   39964kB time=00:02:38.61 bitrate=2064.0kbits/s    
frame= 4122 fps=329 q=6.0 size=   41506kB time=00:02:45.55 bitrate=2053.8kbits/s    
frame= 4306 fps=331 q=4.0 size=   43088kB time=00:02:52.72 bitrate=2043.6kbits/s    
frame= 4482 fps=332 q=3.0 size=   44325kB time=00:02:59.95 bitrate=2017.8kbits/s    
frame= 4673 fps=333 q=2.0 size=   45635kB time=00:03:07.63 bitrate=1992.4kbits/s    
frame= 4858 fps=335 q=6.0 size=   47213kB time=00:03:14.80 bitrate=1985.4kbits/s    
frame= 5043 fps=336 q=6.0 size=   48692kB time=00:03:22.12 bitrate=1973.4kbits/s    
frame= 5199 fps=335 q=6.0 size=   50379kB time=00:03:28.46 bitrate=1979.7kbits/s    
frame= 5357 fps=334 q=5.0 size=   52057kB time=00:03:34.96 bitrate=1983.8kbits/s    
frame= 5515 fps=334 q=5.0 size=   53451kB time=00:03:41.23 bitrate=1979.2kbits/s    
frame= 5702 fps=335 q=2.0 size=   54505kB time=00:03:48.40 bitrate=1954.8kbits/s    
frame= 5880 fps=336 q=6.0 size=   55695kB time=00:03:55.63 bitrate=1936.3kbits/s    
frame= 6057 fps=336 q=5.0 size=   57474kB time=00:04:02.80 bitrate=1939.1kbits/s    
frame= 6237 fps=337 q=7.0 size=   59131kB time=00:04:10.03 bitrate=1937.3kbits/s    
frame= 6423 fps=338 q=5.0 size=   60525kB time=00:04:17.47 bitrate=1925.7kbits/s    
frame= 6612 fps=339 q=5.0 size=   61834kB time=00:04:24.88 bitrate=1912.3kbits/s    
frame= 6802 fps=340 q=5.0 size=   63189kB time=00:04:32.56 bitrate=1899.1kbits/s    
frame= 6937 fps=338 q=5.0 size=   66063kB time=00:04:37.87 bitrate=1947.6kbits/s    
frame= 7106 fps=338 q=6.0 size=   68006kB time=00:04:44.59 bitrate=1957.5kbits/s    
frame= 7283 fps=338 q=6.0 size=   69683kB time=00:04:51.76 bitrate=1956.5kbits/s    
frame= 7479 fps=340 q=5.0 size=   71058kB time=00:04:59.44 bitrate=1943.9kbits/s    
frame= 7655 fps=340 q=6.0 size=   72699kB time=00:05:06.67 bitrate=1942.0kbits/s    
frame= 7821 fps=340 q=5.0 size=   74019kB time=00:05:13.39 bitrate=1934.9kbits/s    
frame= 8009 fps=340 q=6.0 size=   75159kB time=00:05:21.07 bitrate=1917.7kbits/s    
frame= 8189 fps=341 q=4.0 size=   76447kB time=00:05:28.24 bitrate=1907.9kbits/s    
frame= 8379 fps=342 q=7.0 size=   77777kB time=00:05:35.52 bitrate=1899.0kbits/s    
frame= 8559 fps=342 q=4.0 size=   79174kB time=00:05:42.91 bitrate=1891.4kbits/s    
frame= 8739 fps=342 q=4.0 size=   80590kB time=00:05:50.25 bitrate=1884.9kbits/s    
frame= 8919 fps=343 q=5.0 size=   82275kB time=00:05:57.12 bitrate=1887.3kbits/s    
frame= 9101 fps=343 q=6.0 size=   83678kB time=00:06:04.72 bitrate=1879.5kbits/s    
frame= 9291 fps=344 q=5.0 size=   85009kB time=00:06:12.38 bitrate=1870.1kbits/s    
frame= 9499 fps=345 q=4.0 size=   86537kB time=00:06:20.59 bitrate=1862.7kbits/s    
frame= 9679 fps=345 q=6.0 size=   88220kB time=00:06:27.76 bitrate=1863.7kbits/s    
frame= 9879 fps=346 q=4.0 size=   89473kB time=00:06:35.44 bitrate=1853.5kbits/s    
frame=10085 fps=347 q=7.0 size=   90742kB time=00:06:44.08 bitrate=1839.6kbits/s    
frame=10281 fps=348 q=4.0 size=   91994kB time=00:06:51.76 bitrate=1830.2kbits/s    
frame=10461 fps=348 q=6.0 size=   93388kB time=00:06:58.99 bitrate=1825.9kbits/s    
frame=10635 fps=348 q=6.0 size=   95146kB time=00:07:05.92 bitrate=1830.0kbits/s    
frame=10826 fps=349 q=4.0 size=   96774kB time=00:07:13.39 bitrate=1829.2kbits/s    
frame=11007 fps=349 q=5.0 size=   97607kB time=00:07:20.73 bitrate=1814.2kbits/s    
frame=11193 fps=349 q=2.0 size=   98835kB time=00:07:28.24 bitrate=1806.3kbits/s    
frame=11379 fps=350 q=6.0 size=  100068kB time=00:07:35.52 bitrate=1799.6kbits/s    
frame=11549 fps=350 q=5.0 size=  101324kB time=00:07:42.64 bitrate=1794.1kbits/s    
frame=11737 fps=350 q=6.0 size=  102604kB time=00:07:49.87 bitrate=1788.9kbits/s    
frame=11931 fps=351 q=4.0 size=  103680kB time=00:07:57.98 bitrate=1776.9kbits/s    
frame=12081 fps=350 q=6.0 size=  106733kB time=00:08:03.76 bitrate=1807.4kbits/s    
frame=12246 fps=350 q=5.0 size=  108138kB time=00:08:10.48 bitrate=1806.1kbits/s    
frame=12440 fps=350 q=4.0 size=  109421kB time=00:08:18.16 bitrate=1799.3kbits/s    
frame=12627 fps=350 q=4.0 size=  110998kB time=00:08:25.46 bitrate=1798.9kbits/s    
frame=12805 fps=351 q=5.0 size=  112813kB time=00:08:32.56 bitrate=1803.0kbits/s    
frame=12999 fps=351 q=5.0 size=  114378kB time=00:08:40.27 bitrate=1800.9kbits/s    
frame=13167 fps=351 q=6.0 size=  116119kB time=00:08:47.08 bitrate=1804.7kbits/s    
frame=13354 fps=351 q=5.0 size=  117569kB time=00:08:54.64 bitrate=1801.4kbits/s    
frame=13537 fps=351 q=7.0 size=  119172kB time=00:09:01.87 bitrate=1801.6kbits/s    
frame=13730 fps=352 q=7.0 size=  120580kB time=00:09:09.55 bitrate=1797.5kbits/s    
frame=13911 fps=352 q=6.0 size=  122125kB time=00:09:16.89 bitrate=1796.5kbits/s    
frame=14099 fps=352 q=6.0 size=  123558kB time=00:09:24.40 bitrate=1793.4kbits/s    
frame=14283 fps=352 q=4.0 size=  124669kB time=00:09:32.06 bitrate=1785.3kbits/s    
frame=14475 fps=353 q=4.0 size=  125952kB time=00:09:39.31 bitrate=1781.1kbits/s    
frame=14643 fps=353 q=6.0 size=  127165kB time=00:09:46.32 bitrate=1776.7kbits/s    
frame=14811 fps=352 q=5.0 size=  128533kB time=00:09:53.18 bitrate=1775.1kbits/s    
frame=15003 fps=353 q=6.0 size=  129663kB time=00:10:00.45 bitrate=1769.0kbits/s    
frame=15187 fps=353 q=7.0 size=  130784kB time=00:10:08.11 bitrate=1761.8kbits/s    
frame=15354 fps=353 q=4.0 size=  131861kB time=00:10:14.83 bitrate=1756.9kbits/s    
frame=15544 fps=353 q=7.0 size=  132989kB time=00:10:22.51 bitrate=1750.1kbits/s    
frame=15734 fps=353 q=5.0 size=  134149kB time=00:10:29.68 bitrate=1745.2kbits/s    
frame=15915 fps=353 q=3.0 size=  135218kB time=00:10:36.91 bitrate=1739.2kbits/s    
frame=16085 fps=353 q=6.0 size=  136766kB time=00:10:44.08 bitrate=1739.5kbits/s    
frame=16245 fps=353 q=6.0 size=  138584kB time=00:10:50.35 bitrate=1745.6kbits/s    
frame=16410 fps=353 q=6.0 size=  140536kB time=00:10:57.07 bitrate=1752.1kbits/s    
frame=16591 fps=353 q=5.0 size=  141958kB time=00:11:04.24 bitrate=1750.7kbits/s    
frame=16770 fps=353 q=5.0 size=  143512kB time=00:11:11.47 bitrate=1750.8kbits/s    
frame=16947 fps=353 q=6.0 size=  145014kB time=00:11:18.55 bitrate=1750.7kbits/s    
frame=17142 fps=353 q=5.0 size=  146406kB time=00:11:26.32 bitrate=1747.5kbits/s    
frame=17333 fps=353 q=6.0 size=  147843kB time=00:11:34.00 bitrate=1745.1kbits/s    
frame=17514 fps=353 q=5.0 size=  149095kB time=00:11:41.23 bitrate=1741.8kbits/s    
frame=17703 fps=354 q=6.0 size=  150337kB time=00:11:48.57 bitrate=1738.1kbits/s    
frame=17895 fps=354 q=4.0 size=  151728kB time=00:11:56.18 bitrate=1735.5kbits/s    
frame=18087 fps=354 q=4.0 size=  153173kB time=00:12:04.10 bitrate=1732.9kbits/s    
frame=18279 fps=355 q=4.0 size=  154600kB time=00:12:11.64 bitrate=1731.0kbits/s    
frame=18459 fps=355 q=7.0 size=  156507kB time=00:12:18.91 bitrate=1735.1kbits/s    
frame=18591 fps=354 q=6.0 size=  158333kB time=00:12:24.07 bitrate=1743.2kbits/s    
frame=18759 fps=354 q=3.0 size=  159924kB time=00:12:30.64 bitrate=1745.3kbits/s    
frame=18951 fps=354 q=6.0 size=  161135kB time=00:12:38.37 bitrate=1740.6kbits/s    
frame=19148 fps=354 q=4.0 size=  162361kB time=00:12:46.51 bitrate=1735.2kbits/s    
frame=19354 fps=355 q=4.0 size=  163237kB time=00:12:54.64 bitrate=1726.3kbits/s    
frame=19530 fps=355 q=7.0 size=  164530kB time=00:13:01.87 bitrate=1723.8kbits/s    
frame=19719 fps=355 q=6.0 size=  165891kB time=00:13:09.14 bitrate=1722.1kbits/s    
frame=19906 fps=355 q=4.0 size=  167150kB time=00:13:16.72 bitrate=1718.6kbits/s    
frame=20103 fps=355 q=2.0 size=  168568kB time=00:13:24.62 bitrate=1716.2kbits/s    
frame=20281 fps=355 q=5.0 size=  170680kB time=00:13:31.63 bitrate=1722.7kbits/s    
frame=20460 fps=356 q=4.0 size=  172392kB time=00:13:38.80 bitrate=1724.7kbits/s    
frame=20652 fps=356 q=2.0 size=  173747kB time=00:13:46.48 bitrate=1722.1kbits/s    
frame=20828 fps=356 q=6.0 size=  175451kB time=00:13:53.71 bitrate=1724.0kbits/s    
frame=21007 fps=356 q=5.0 size=  176859kB time=00:14:00.88 bitrate=1723.0kbits/s    
frame=21168 fps=355 q=6.0 size=  178672kB time=00:14:07.15 bitrate=1727.8kbits/s    
frame=21346 fps=355 q=4.0 size=  180028kB time=00:14:14.32 bitrate=1726.3kbits/s    
frame=21531 fps=356 q=6.0 size=  181283kB time=00:14:21.79 bitrate=1723.2kbits/s    
frame=21711 fps=356 q=6.0 size=  182695kB time=00:14:29.23 bitrate=1721.8kbits/s    
frame=21893 fps=356 q=6.0 size=  183969kB time=00:14:36.40 bitrate=1719.6kbits/s    
frame=22081 fps=356 q=4.0 size=  185029kB time=00:14:43.63 bitrate=1715.4kbits/s    
frame=22254 fps=356 q=4.0 size=  186522kB time=00:14:50.80 bitrate=1715.3kbits/s    
frame=22455 fps=356 q=6.0 size=  187351kB time=00:14:58.65 bitrate=1707.9kbits/s    
frame=22638 fps=356 q=6.0 size=  188423kB time=00:15:06.16 bitrate=1703.4kbits/s    
frame=22788 fps=356 q=4.0 size=  189751kB time=00:15:11.92 bitrate=1704.6kbits/s    
frame=22959 fps=356 q=6.0 size=  190466kB time=00:15:18.72 bitrate=1698.3kbits/s    
frame=23151 fps=356 q=5.0 size=  191423kB time=00:15:26.32 bitrate=1692.8kbits/s    
frame=23326 fps=356 q=6.0 size=  192241kB time=00:15:33.55 bitrate=1686.9kbits/s    
frame=23478 fps=355 q=6.0 size=  193344kB time=00:15:39.76 bitrate=1685.4kbits/s    
frame=23618 fps=355 q=5.0 size=  194674kB time=00:15:45.07 bitrate=1687.5kbits/s    
frame=23775 fps=355 q=6.0 size=  195659kB time=00:15:51.79 bitrate=1684.0kbits/s    
frame=23937 fps=354 q=6.0 size=  197061kB time=00:15:58.00 bitrate=1685.1kbits/s    
frame=24101 fps=354 q=5.0 size=  197907kB time=00:16:04.72 bitrate=1680.5kbits/s    
frame=24291 fps=354 q=5.0 size=  198911kB time=00:16:12.16 bitrate=1676.1kbits/s    
frame=24483 fps=355 q=6.0 size=  199855kB time=00:16:19.82 bitrate=1670.9kbits/s    
frame=24653 fps=354 q=6.0 size=  200905kB time=00:16:26.80 bitrate=1667.8kbits/s    
frame=24843 fps=355 q=4.0 size=  201926kB time=00:16:34.20 bitrate=1663.8kbits/s    
frame=25030 fps=355 q=6.0 size=  202840kB time=00:16:41.71 bitrate=1658.8kbits/s    
frame=25227 fps=355 q=5.0 size=  203946kB time=00:16:49.56 bitrate=1654.9kbits/s    
frame=25419 fps=355 q=4.0 size=  204904kB time=00:16:57.43 bitrate=1649.8kbits/s    
frame=25607 fps=355 q=6.0 size=  205877kB time=00:17:04.75 bitrate=1645.8kbits/s    
frame=25791 fps=355 q=5.0 size=  206900kB time=00:17:12.21 bitrate=1642.0kbits/s    
frame=25983 fps=356 q=5.0 size=  207796kB time=00:17:20.11 bitrate=1636.6kbits/s    
frame=26175 fps=356 q=5.0 size=  208660kB time=00:17:27.76 bitrate=1631.4kbits/s    
frame=26347 fps=356 q=6.0 size=  210028kB time=00:17:34.51 bitrate=1631.6kbits/s    
frame=26523 fps=356 q=6.0 size=  211887kB time=00:17:41.35 bitrate=1635.4kbits/s    
frame=26718 fps=356 q=6.0 size=  213266kB time=00:17:49.36 bitrate=1633.7kbits/s    
frame=26907 fps=356 q=6.0 size=  214840kB time=00:17:56.76 bitrate=1634.5kbits/s    
frame=27080 fps=356 q=6.0 size=  216514kB time=00:18:03.76 bitrate=1636.6kbits/s    
frame=27273 fps=356 q=5.0 size=  218108kB time=00:18:11.44 bitrate=1637.0kbits/s    
frame=27467 fps=356 q=5.0 size=  219636kB time=00:18:19.12 bitrate=1637.0kbits/s    
frame=27651 fps=356 q=4.0 size=  221337kB time=00:18:26.37 bitrate=1638.9kbits/s    
frame=27831 fps=356 q=6.0 size=  222919kB time=00:18:33.55 bitrate=1639.9kbits/s    
frame=28011 fps=357 q=5.0 size=  224229kB time=00:18:40.94 bitrate=1638.7kbits/s    
frame=28191 fps=357 q=6.0 size=  225682kB time=00:18:47.95 bitrate=1639.1kbits/s    
frame=28369 fps=357 q=3.0 size=  227014kB time=00:18:55.15 bitrate=1638.3kbits/s    
frame=28553 fps=357 q=5.0 size=  228328kB time=00:19:02.83 bitrate=1636.7kbits/s    
frame=28732 fps=357 q=4.0 size=  229470kB time=00:19:10.00 bitrate=1634.6kbits/s    
frame=28925 fps=357 q=4.0 size=  230842kB time=00:19:17.68 bitrate=1633.5kbits/s    
frame=29114 fps=357 q=5.0 size=  232443kB time=00:19:24.91 bitrate=1634.6kbits/s    
frame=29271 fps=357 q=4.0 size=  233500kB time=00:19:31.34 bitrate=1633.0kbits/s    
frame=29463 fps=357 q=6.0 size=  234687kB time=00:19:38.83 bitrate=1630.9kbits/s    
frame=29639 fps=357 q=5.0 size=  235853kB time=00:19:46.03 bitrate=1629.1kbits/s    
frame=29793 fps=357 q=4.0 size=  236743kB time=00:19:52.24 bitrate=1626.7kbits/s    
frame=29955 fps=356 q=5.0 size=  237567kB time=00:19:58.56 bitrate=1623.7kbits/s    
frame=30093 fps=356 q=6.0 size=  238599kB time=00:20:04.27 bitrate=1623.1kbits/s    
frame=30242 fps=355 q=5.0 size=  239675kB time=00:20:10.03 bitrate=1622.6kbits/s    
frame=30507 fps=357 q=2.0 size=  240238kB time=00:20:20.80 bitrate=1612.1kbits/s    
frame=30835 fps=358 q=2.0 size=  241159kB time=00:20:34.03 bitrate=1600.9kbits/s    
frame=31059 fps=359 q=6.0 size=  242725kB time=00:20:43.03 bitrate=1599.6kbits/s    
frame=31132 fps=359 q=2.0 Lsize=  244235kB time=00:20:45.36 bitrate=1606.6kbits/s    

video:222806kB audio:19458kB subtitle:0kB other streams:0kB global headers:0kB muxing overhead: 0.813366%

In last version I see the missing words "pass 1" in first pass and "pass 2" in 2nd pass, in this line:
"Stream #0:0(und): Video: mpeg4 (libxvid) (XVID / 0x44495658), yuv420p(progressive), 720x404, q=2-31, 1111 kb/s, 25 fps, 25 tbn, 25 tbc (default)"
But in 2014:
"Stream #0:0(und): Video: mpeg4 (libxvid) (XVID / 0x44495658), yuv420p, 720x404, q=2-31, pass 2, 1111 kb/s, 25 fps, 25 tbn, 25 tbc (default)"

And in 2nd pass, before the
Output line, there's this strange line:
"frame= 2 fps=0.0 q=0.0 size= 0kB time=-577014:32:22.77 bitrate= -0.0kbits/s speed=N/A"

Thanks.

Change History (0)

Note: See TracTickets for help on using tickets.