Opened 2 years ago

Closed 2 years ago

#6022 closed defect (duplicate)

*.tak file with the cover doesn't open

Reported by: skymaverick Owned by:
Priority: normal Component: undetermined
Version: unspecified Keywords:
Cc: Blocked By:
Blocking: Reproduced by developer: no
Analyzed by developer: no

Description

Summary of the bug:
*.tak file contains multiple WAV tracks, CUE and cover doesn't open ffplay with error

[tak @ 0x7ff4440120a0] unsupported codec: 0

Maybe it's because cover is parsed as a video stream

  Duration: 01:12:30.35, start: 0.000000, bitrate: 767 kb/s
    Stream #0:0: Audio: tak, 44100 Hz, 2 channels, s16p
    Stream #0:1: Video: mjpeg, yuvj444p(pc, bt470bg/unknown/unknown), 500x500 [SAR 300:300 DAR 1:1], 90k tbr, 90k tbn, 90k tbc
    Metadata:
      Cover Art (Front): Cover Art (Front).jpg

Full log on pastebin

How to reproduce:

% ffplay -i <file>

Programs using the original tak_deco_lib.dll works correctly.

P.S. Sorry for my bad English.

Change History (2)

comment:1 Changed 2 years ago by skymaverick

  • Summary changed from *.tak file with with the cover doesn't open to *.tak file with the cover doesn't open

comment:2 Changed 2 years ago by richardpl

  • Component changed from ffmpeg to undetermined
  • Resolution set to duplicate
  • Status changed from new to closed

Duplicate of #2837.

Feel free to add bounty if you want it fixed.

Note: See TracTickets for help on using tickets.