Changes between Initial Version and Version 1 of Ticket #58, comment 2


Ignore:
Timestamp:
Apr 21, 2011, 1:25:07 PM (9 years ago)
Author:
ami_stuff
Comment:

Legend:

Unmodified
Added
Removed
Modified
  • Ticket #58, comment 2

    initial v1  
    11another problematic file uploaded to incoming as "ticket58.mov"
    22
     3{{{
     4C:\>ffmpeg -i C:\ticket58.mov
     5FFmpeg version git-N-29181-ga304071, Copyright (c) 2000-2011 the FFmpeg develope
     6rs
     7  built on Apr 18 2011 21:24:03 with gcc 4.5.2
     8  configuration: --enable-gpl --enable-version3 --enable-runtime-cpudetect --ena
     9ble-memalign-hack --enable-avisynth --enable-bzlib --enable-frei0r --enable-libo
     10pencore-amrnb --enable-libopencore-amrwb --enable-libfreetype --enable-libgsm --
     11enable-libmp3lame --enable-libopenjpeg --enable-librtmp --enable-libschroedinger
     12 --enable-libspeex --enable-libtheora --enable-libvorbis --enable-libvpx --enabl
     13e-libx264 --enable-libxavs --enable-libxvid --enable-zlib --cross-prefix=i686-w6
     144-mingw32- --target-os=mingw32 --arch=x86_32 --extra-cflags=-I/home/kyle/softwar
     15e/ffmpeg/external-libraries/win32/include --extra-ldflags=-L/home/kyle/software/
     16ffmpeg/external-libraries/win32/lib --pkg-config=pkg-config
     17  libavutil    50. 40. 1 / 50. 40. 1
     18  libavcodec   52.120. 0 / 52.120. 0
     19  libavformat  52.108. 0 / 52.108. 0
     20  libavdevice  52.  4. 0 / 52.  4. 0
     21  libavfilter   1. 79. 0 /  1. 79. 0
     22  libswscale    0. 13. 0 /  0. 13. 0
    323
    4 
    5 
     24Seems stream 1 codec frame rate differs from container frame rate: 30000.00 (300
     2500/1) -> 29.97 (30000/1001)
     26Input #0, mov,mp4,m4a,3gp,3g2,mj2, from 'C:\ticket58.mov':
     27  Metadata:
     28    creation_time   : 2004-06-14 12:15:14
     29  Duration: 00:00:58.88, start: 0.000000, bitrate: 498 kb/s
     30    Stream #0.0(eng): Audio: qdm2, 44100 Hz, 2 channels, s16, 40 kb/s
     31    Metadata:
     32      creation_time   : 2004-06-14 12:15:14
     33    Stream #0.1(eng): Video: svq3, yuvj420p, 320x240, 457 kb/s, 29.77 fps, 29.97
     34 tbr, 30k tbn, 30k tbc
     35    Metadata:
     36      creation_time   : 2004-06-14 12:15:14
     37At least one output file must be specified
     38}}}