Opened 3 years ago

Closed 3 years ago

#5645 closed defect (fixed)

Timecode of mp4 file from Sony A7S camera not recognized

Reported by: rmk Owned by:
Priority: normal Component: avformat
Version: git-master Keywords: mov timecode
Cc: Blocked By:
Blocking: Reproduced by developer: no
Analyzed by developer: no

Description

See subject. Timecode of the uploaded sample displayed in Adobe Premiere Pro is 00:06:06:19

krueger@Roberts-MacBook-Pro ~/eclipse-workspaces/lp/c/ffmpeg (master)*$ ./ffprobe -show_format -show_streams /Users/krueger/lesspain/samples/cameras/sony/a7s/sony_a7s_XAVC_S_1080_25p_10s.MP4 
ffprobe version N-80341-gaec96e2 Copyright (c) 2007-2016 the FFmpeg developers
  built with Apple LLVM version 7.0.2 (clang-700.1.81)
  configuration: 
  libavutil      55. 24.100 / 55. 24.100
  libavcodec     57. 46.100 / 57. 46.100
  libavformat    57. 38.100 / 57. 38.100
  libavdevice    57.  0.101 / 57.  0.101
  libavfilter     6. 46.101 /  6. 46.101
  libswscale      4.  1.100 /  4.  1.100
  libswresample   2.  1.100 /  2.  1.100
Input #0, mov,mp4,m4a,3gp,3g2,mj2, from '/Users/krueger/lesspain/samples/cameras/sony/a7s/sony_a7s_XAVC_S_1080_25p_10s.MP4':
  Metadata:
    major_brand     : XAVC
    minor_version   : 16785407
    compatible_brands: XAVCmp42iso2
    creation_time   : 2016-03-05 14:17:25
  Duration: 00:00:10.08, start: 0.000000, bitrate: 49084 kb/s
    Stream #0:0(und): Video: h264 (High) (avc1 / 0x31637661), yuv420p(tv), 1920x1080 [SAR 1:1 DAR 16:9], 47339 kb/s, 25 fps, 25 tbr, 25k tbn, 50 tbc (default)
    Metadata:
      creation_time   : 2016-03-05 14:17:25
      handler_name    : Video Media Handler
      encoder         : AVC Coding
    Stream #0:1(und): Audio: pcm_s16be (twos / 0x736F7774), 48000 Hz, 2 channels, s16, 1536 kb/s (default)
    Metadata:
      creation_time   : 2016-03-05 14:17:25
      handler_name    : Sound Media Handler
    Stream #0:2(und): Data: none (rtmd / 0x646D7472), 204 kb/s (default)
    Metadata:
      creation_time   : 2016-03-05 14:17:25
      handler_name    : Timed Metadata Media Handler
Unsupported codec with id 0 for input stream 2
[STREAM]
index=0
codec_name=h264
codec_long_name=H.264 / AVC / MPEG-4 AVC / MPEG-4 part 10
profile=High
codec_type=video
codec_time_base=1/50
codec_tag_string=avc1
codec_tag=0x31637661
width=1920
height=1080
coded_width=1920
coded_height=1080
has_b_frames=1
sample_aspect_ratio=1:1
display_aspect_ratio=16:9
pix_fmt=yuv420p
level=41
color_range=tv
color_space=unknown
color_transfer=unknown
color_primaries=unknown
chroma_location=left
timecode=N/A
refs=1
is_avc=true
nal_length_size=4
id=N/A
r_frame_rate=25/1
avg_frame_rate=25/1
time_base=1/25000
start_pts=0
start_time=0.000000
duration_ts=252000
duration=10.080000
bit_rate=47339953
max_bit_rate=N/A
bits_per_raw_sample=8
nb_frames=252
nb_read_frames=N/A
nb_read_packets=N/A
DISPOSITION:default=1
DISPOSITION:dub=0
DISPOSITION:original=0
DISPOSITION:comment=0
DISPOSITION:lyrics=0
DISPOSITION:karaoke=0
DISPOSITION:forced=0
DISPOSITION:hearing_impaired=0
DISPOSITION:visual_impaired=0
DISPOSITION:clean_effects=0
DISPOSITION:attached_pic=0
TAG:creation_time=2016-03-05 14:17:25
TAG:language=und
TAG:handler_name=Video Media Handler
TAG:encoder=AVC Coding
[/STREAM]
[STREAM]
index=1
codec_name=pcm_s16be
codec_long_name=PCM signed 16-bit big-endian
profile=unknown
codec_type=audio
codec_time_base=1/48000
codec_tag_string=twos
codec_tag=0x736f7774
sample_fmt=s16
sample_rate=48000
channels=2
channel_layout=unknown
bits_per_sample=16
id=N/A
r_frame_rate=0/0
avg_frame_rate=0/0
time_base=1/48000
start_pts=0
start_time=0.000000
duration_ts=483840
duration=10.080000
bit_rate=1536000
max_bit_rate=N/A
bits_per_raw_sample=N/A
nb_frames=483840
nb_read_frames=N/A
nb_read_packets=N/A
DISPOSITION:default=1
DISPOSITION:dub=0
DISPOSITION:original=0
DISPOSITION:comment=0
DISPOSITION:lyrics=0
DISPOSITION:karaoke=0
DISPOSITION:forced=0
DISPOSITION:hearing_impaired=0
DISPOSITION:visual_impaired=0
DISPOSITION:clean_effects=0
DISPOSITION:attached_pic=0
TAG:creation_time=2016-03-05 14:17:25
TAG:language=und
TAG:handler_name=Sound Media Handler
[/STREAM]
[STREAM]
index=2
codec_name=unknown
codec_long_name=unknown
profile=unknown
codec_type=data
codec_tag_string=rtmd
codec_tag=0x646d7472
id=N/A
r_frame_rate=0/0
avg_frame_rate=0/0
time_base=1/25000
start_pts=0
start_time=0.000000
duration_ts=252000
duration=10.080000
bit_rate=204800
max_bit_rate=N/A
bits_per_raw_sample=N/A
nb_frames=252
nb_read_frames=N/A
nb_read_packets=N/A
DISPOSITION:default=1
DISPOSITION:dub=0
DISPOSITION:original=0
DISPOSITION:comment=0
DISPOSITION:lyrics=0
DISPOSITION:karaoke=0
DISPOSITION:forced=0
DISPOSITION:hearing_impaired=0
DISPOSITION:visual_impaired=0
DISPOSITION:clean_effects=0
DISPOSITION:attached_pic=0
TAG:creation_time=2016-03-05 14:17:25
TAG:language=und
TAG:handler_name=Timed Metadata Media Handler
[/STREAM]
[FORMAT]
filename=/Users/krueger/lesspain/samples/cameras/sony/a7s/sony_a7s_XAVC_S_1080_25p_10s.MP4
nb_streams=3
nb_programs=0
format_name=mov,mp4,m4a,3gp,3g2,mj2
format_long_name=QuickTime / MOV
start_time=0.000000
duration=10.080000
size=61846133
bit_rate=49084232
probe_score=100
TAG:major_brand=XAVC
TAG:minor_version=16785407
TAG:compatible_brands=XAVCmp42iso2
TAG:creation_time=2016-03-05 14:17:25
[/FORMAT]

Change History (4)

comment:1 Changed 3 years ago by cehoyos

Please provide a sample.

comment:2 Changed 3 years ago by rmk

ftp seems to be down. attaching the sample this way.

https://www.dropbox.com/s/lty8q897o9noqn4/sony_a7s_XAVC_S_1080_25p_10s.MP4?dl=1

comment:3 Changed 3 years ago by cehoyos

  • Component changed from undetermined to avformat
  • Keywords mov timecode added
  • Version changed from unspecified to git-master

comment:4 Changed 3 years ago by cehoyos

  • Resolution set to fixed
  • Status changed from new to closed

Fixed by Paul in d693392886b8454c818e384c816b9ede53c570d8 - thank you for the sample!

Note: See TracTickets for help on using tickets.