Changes between Initial Version and Version 1 of Ticket #5407, comment 4


Ignore:
Timestamp:
Apr 6, 2016, 12:19:31 PM (3 years ago)
Author:
cehoyos
Comment:

Legend:

Unmodified
Added
Removed
Modified
  • Ticket #5407, comment 4

    initial v1  
    11{{{
    2 $ ffmpeg -i lossy.wv -i lossy.wvc out.wav
     2$ ffmpeg -i lossy.wv -i lossy.wvc -acodec pcm_s24le out.wav
    33ffmpeg version N-79254-g3749748 Copyright (c) 2000-2016 the FFmpeg developers
    44  built with gcc 4.7 (SUSE Linux)
     
    1515  Duration: 00:00:23.00, start: 0.000000, bitrate: 874 kb/s
    1616    Stream #0:0: Audio: wavpack, 48000 Hz, stereo, s32p (24 bit)
    17 [wavpack @ 0x2d965a0] No block with decorrelation terms
     17[wavpack @ 0x34c65c0] No block with decorrelation terms
    1818Input #1, wv, from 'lossy.wvc':
    1919  Duration: 00:00:23.00, start: 0.000000, bitrate: 871 kb/s
     
    2222  Metadata:
    2323    ISFT            : Lavf57.30.100
    24     Stream #0:0: Audio: pcm_s16le ([1][0][0][0] / 0x0001), 48000 Hz, stereo, s16 (24 bit), 1536 kb/s
     24    Stream #0:0: Audio: pcm_s24le ([1][0][0][0] / 0x0001), 48000 Hz, stereo, s32 (24 bit), 2304 kb/s
    2525    Metadata:
    26       encoder         : Lavc57.34.100 pcm_s16le
     26      encoder         : Lavc57.34.100 pcm_s24le
    2727Stream mapping:
    28   Stream #0:0 -> #0:0 (wavpack (native) -> pcm_s16le (native))
     28  Stream #0:0 -> #0:0 (wavpack (native) -> pcm_s24le (native))
    2929Press [q] to stop, [?] for help
    30 size=    4313kB time=00:00:23.00 bitrate=1536.0kbits/s speed= 267x
    31 video:0kB audio:4312kB subtitle:0kB other streams:0kB global headers:0kB muxing overhead: 0.001766%
     30size=    6469kB time=00:00:23.00 bitrate=2304.0kbits/s speed= 265x
     31video:0kB audio:6469kB subtitle:0kB other streams:0kB global headers:0kB muxing overhead: 0.001540%
    3232}}}