Opened 19 months ago

Closed 8 months ago

#5322 closed defect (needs_more_info)

HLS3 stream recording does not save last segment fully

Reported by: dmodi Owned by:
Priority: normal Component: undetermined
Version: unspecified Keywords: hls
Cc: Blocked By:
Blocking: Reproduced by developer: no
Analyzed by developer: no

Description (last modified by cehoyos)

ffmpeg version N-77556-g4160900

FFMPEG CLI command (Modified to h_t_t_p)

ffmpeg.exe -report -v 9 -loglevel 99 -re -i h_t_t_p://admin:admin@10.0.0.236:8082/stre ... /live.m3u8 -codec copy "astream200_20160302064045.566.mp3"

The complete streaming was from audio_0 to audio_37 for a total of about 35 seconds. Each segment file was about 0.936 seconds

We find that although the last segment is 0.936 seconds long, it saves only about half of this segment and the last 500 msecs of the stream is lost. Streaming only the last segment file (audio_37) separately saves that file fully.

If required I can submit the complete folder from where we are streaming.
Ffmpeg report below -

ffmpeg started on 2016-03-02 at 06:40:45
Report written to "ffmpeg-20160302-064045.log"
Command line:
"C:\\ffmpeg-20151231-git-4160900-win64-static\\bin\\ffmpeg.exe" -report -v 9 -loglevel 99 -re -i h_t_t_p://admin:admin@10.0.0.236:8082/stre ... /live.m3u8 -codec copy "C:\\LCS\\Deploy\\bin\\astream200_20160302064045.566.mp3"
ffmpeg version N-77556-g4160900 Copyright (c) 2000-2015 the FFmpeg developers
built with gcc 5.2.0 (GCC)
configuration: --enable-gpl --enable-version3 --disable-w32threads --enable-avisynth --enable-bzlib --enable-fontconfig --enable-frei0r --enable-gnutls --enable-iconv --enable-libass --enable-libbluray --enable-libbs2b --enable-libcaca --enable-libdcadec --enable-libfreetype --enable-libgme --enable-libgsm --enable-libilbc --enable-libmodplug --enable-libmp3lame --enable-libopencore-amrnb --enable-libopencore-amrwb --enable-libopenjpeg --enable-libopus --enable-librtmp --enable-libschroedinger --enable-libsoxr --enable-libspeex --enable-libtheora --enable-libtwolame --enable-libvidstab --enable-libvo-aacenc --enable-libvo-amrwbenc --enable-libvorbis --enable-libvpx --enable-libwavpack --enable-libwebp --enable-libx264 --enable-libx265 --enable-libxavs --enable-libxvid --enable-libzimg --enable-lzma --enable-decklink --enable-zlib
libavutil 55. 11.100 / 55. 11.100
libavcodec 57. 20.100 / 57. 20.100
libavformat 57. 21.100 / 57. 21.100
libavdevice 57. 0.100 / 57. 0.100
libavfilter 6. 22.100 / 6. 22.100
libswscale 4. 0.100 / 4. 0.100
libswresample 2. 0.101 / 2. 0.101
libpostproc 54. 0.100 / 54. 0.100
Splitting the commandline.
Reading option '-report' ... matched as option 'report' (generate a report) with argument '1'.
Reading option '-v' ... matched as option 'v' (set logging level) with argument '9'.
Reading option '-loglevel' ... matched as option 'loglevel' (set logging level) with argument '99'.
Reading option '-re' ... matched as option 're' (read input at native frame rate) with argument '1'.
Reading option '-i' ... matched as input file with argument 'h_t_t_p://admin:admin@10.0.0.236:8082/stream/live/media/live/200/live.m3u8'.
Reading option '-codec' ... matched as option 'codec' (codec name) with argument 'copy'.
Reading option 'C:\LCS\Deploy\bin\astream200_20160302064045.566.mp3' ... matched as output file.
Finished splitting the commandline.
Parsing a group of options: global .
Applying option report (generate a report) with argument 1.
Applying option v (set logging level) with argument 9.
Applying option loglevel (set logging level) with argument 99.
Successfully parsed a group of options.
Parsing a group of options: input file h_t_t_p://admin:admin@10.0.0.236:8082/stre ... /live.m3u8.
Applying option re (read input at native frame rate) with argument 1.
Successfully parsed a group of options.
Opening an input file: h_t_t_p://admin:admin@10.0.0.236:8082/stre ... /live.m3u8.
[h_t_t_p @ 00000073e6e8c9e0] request: GET /stream/live/media/live/200/live.m3u8 h_t_t_p/1.1

User-Agent: Lavf/57.21.100

Accept: */*

Range: bytes=0-

Connection: close

Host: 10.0.0.236:8082

Icy-MetaData: 1




[h_t_t_p @ 00000073e6e8c9e0] request: GET /stream/live/media/live/200/live.m3u8 h_t_t_p/1.1

User-Agent: Lavf/57.21.100

Accept: */*

Range: bytes=0-

Connection: close

Host: 10.0.0.236:8082

Icy-MetaData: 1

Authorization: Basic YWRtaW46YWRtaW4=




[hls,appleh_t_t_p @ 00000073e6e8bb60] Format hls,appleh_t_t_p probed with size=2048 and score=100
[hls,appleh_t_t_p @ 00000073e6e8bb60] HLS request for url 'h_t_t_p://admin:admin@10.0.0.236:8082/stream/live/media/live/200/audio_0.mp3', offset 0, playlist 0
[h_t_t_p @ 00000073e6ea96a0] request: GET /stream/live/media/live/200/audio_0.mp3 h_t_t_p/1.1

User-Agent: Lavf/57.21.100

Accept: */*

Connection: close

Host: 10.0.0.236:8082

Cookie: JSESSIONIDSSO=iWtT-4rSCimRzSoFRJJUjpzH; JSESSIONID=+eS05wtfOkUR3emv3jSKaWT3

Icy-MetaData: 1




[h_t_t_p @ 00000073e6ea9700] request: GET /stream/live/media/live/200/live.m3u8 h_t_t_p/1.1

User-Agent: Lavf/57.21.100

Accept: */*

Connection: close

Host: 10.0.0.236:8082

Cookie: JSESSIONIDSSO=iWtT-4rSCimRzSoFRJJUjpzH; JSESSIONID=+eS05wtfOkUR3emv3jSKaWT3

Icy-MetaData: 1




[AVIOContext @ 00000073e6ea9860] Statistics: 209 bytes read, 0 seeks
[hls,appleh_t_t_p @ 00000073e6e8bb60] HLS request for url 'h_t_t_p://admin:admin@10.0.0.236:8082/stream/live/media/live/200/audio_1.mp3', offset 0, playlist 0
[h_t_t_p @ 00000073e6eb1ce0] request: GET /stream/live/media/live/200/audio_1.mp3 h_t_t_p/1.1

User-Agent: Lavf/57.21.100

Accept: */*

Connection: close

Host: 10.0.0.236:8082

Cookie: JSESSIONIDSSO=iWtT-4rSCimRzSoFRJJUjpzH; JSESSIONID=+eS05wtfOkUR3emv3jSKaWT3

Icy-MetaData: 1




Format mp3 probed with size=2048 and score=51
[mp3 @ 00000073e6e9f680] Skipping 0 bytes of junk at 0.
[mp3 @ 00000073e6e9f680] Before avformat_find_stream_info() pos: 0 bytes read:3744 seeks:0
[h_t_t_p @ 00000073e6eb1cc0] request: GET /stream/live/media/live/200/live.m3u8 h_t_t_p/1.1

User-Agent: Lavf/57.21.100

Accept: */*

Connection: close

Host: 10.0.0.236:8082

Cookie: JSESSIONIDSSO=iWtT-4rSCimRzSoFRJJUjpzH; JSESSIONID=+eS05wtfOkUR3emv3jSKaWT3

Icy-MetaData: 1




[AVIOContext @ 00000073e6eb1d80] Statistics: 238 bytes read, 0 seeks
[hls,appleh_t_t_p @ 00000073e6e8bb60] HLS request for url 'h_t_t_p://admin:admin@10.0.0.236:8082/stream/live/media/live/200/audio_2.mp3', offset 0, playlist 0
[h_t_t_p @ 00000073e6ebaec0] request: GET /stream/live/media/live/200/audio_2.mp3 h_t_t_p/1.1

User-Agent: Lavf/57.21.100

Accept: */*

Connection: close

Host: 10.0.0.236:8082

Cookie: JSESSIONIDSSO=iWtT-4rSCimRzSoFRJJUjpzH; JSESSIONID=+eS05wtfOkUR3emv3jSKaWT3

Icy-MetaData: 1




[h_t_t_p @ 00000073e6e970e0] request: GET /stream/live/media/live/200/live.m3u8 h_t_t_p/1.1

User-Agent: Lavf/57.21.100

Accept: */*

Connection: close

Host: 10.0.0.236:8082

Cookie: JSESSIONIDSSO=iWtT-4rSCimRzSoFRJJUjpzH; JSESSIONID=+eS05wtfOkUR3emv3jSKaWT3

Icy-MetaData: 1




[AVIOContext @ 00000073e6eb1f80] Statistics: 267 bytes read, 0 seeks
[hls,appleh_t_t_p @ 00000073e6e8bb60] HLS request for url 'h_t_t_p://admin:admin@10.0.0.236:8082/stream/live/media/live/200/audio_3.mp3', offset 0, playlist 0
[h_t_t_p @ 00000073e6ec4080] request: GET /stream/live/media/live/200/audio_3.mp3 h_t_t_p/1.1

User-Agent: Lavf/57.21.100

Accept: */*

Connection: close

Host: 10.0.0.236:8082

Cookie: JSESSIONIDSSO=iWtT-4rSCimRzSoFRJJUjpzH; JSESSIONID=+eS05wtfOkUR3emv3jSKaWT3

Icy-MetaData: 1




[h_t_t_p @ 00000073e6e970e0] request: GET /stream/live/media/live/200/live.m3u8 h_t_t_p/1.1

User-Agent: Lavf/57.21.100

Accept: */*

Connection: close

Host: 10.0.0.236:8082

Cookie: JSESSIONIDSSO=iWtT-4rSCimRzSoFRJJUjpzH; JSESSIONID=+eS05wtfOkUR3emv3jSKaWT3

Icy-MetaData: 1




[AVIOContext @ 00000073e6eb1f80] Statistics: 296 bytes read, 0 seeks
[hls,appleh_t_t_p @ 00000073e6e8bb60] HLS request for url 'h_t_t_p://admin:admin@10.0.0.236:8082/stream/live/media/live/200/audio_4.mp3', offset 0, playlist 0
[h_t_t_p @ 00000073e6ec4180] request: GET /stream/live/media/live/200/audio_4.mp3 h_t_t_p/1.1

User-Agent: Lavf/57.21.100

Accept: */*

Connection: close

Host: 10.0.0.236:8082

Cookie: JSESSIONIDSSO=iWtT-4rSCimRzSoFRJJUjpzH; JSESSIONID=+eS05wtfOkUR3emv3jSKaWT3

Icy-MetaData: 1




[mp3 @ 00000073e6e9f680] All info found
[mp3 @ 00000073e6e9f680] After avformat_find_stream_info() pos: 8192 bytes read:9360 seeks:0 frames:50
[hls,appleh_t_t_p @ 00000073e6e8bb60] Before avformat_find_stream_info() pos: 180 bytes read:180 seeks:0
[hls,appleh_t_t_p @ 00000073e6e8bb60] All info found
[hls,appleh_t_t_p @ 00000073e6e8bb60] After avformat_find_stream_info() pos: 180 bytes read:180 seeks:0 frames:1
Input #0, hls,appleh_t_t_p, from 'h_t_t_p://admin:admin@10.0.0.236:8082/stream/live/media/live/200/live.m3u8':
Duration: N/A, start: 0.000000, bitrate: 16 kb/s
Program 0 
Metadata:
variant_bitrate : 0
Stream #0:0, 1, 1/14112000: Audio: mp3, 8000 Hz, mono, s16p, 16 kb/s
Successfully opened the file.
Parsing a group of options: output file C:\LCS\Deploy\bin\astream200_20160302064045.566.mp3.
Applying option codec (codec name) with argument copy.
Successfully parsed a group of options.
Opening an output file: C:\LCS\Deploy\bin\astream200_20160302064045.566.mp3.
Successfully opened the file.
Output #0, mp3, to 'C:\LCS\Deploy\bin\astream200_20160302064045.566.mp3':
Metadata:
TSSE : Lavf57.21.100
Stream #0:0, 0, 1/8000: Audio: mp3, 8000 Hz, mono, 16 kb/s
Stream mapping:
Stream #0:0 -> #0:0 (copy)
Press [q] to stop, [?] for help
cur_dts is invalid (this is harmless if it occurs once at the start per stream)
size= 1kB time=00:00:00.57 bitrate= 19.6kbits/s speed=1.15x 
size= 3kB time=00:00:01.15 bitrate= 17.8kbits/s speed=1.13x 
size= 3kB time=00:00:01.65 bitrate= 17.3kbits/s speed=1.08x 
size= 4kB time=00:00:02.16 bitrate= 17.0kbits/s speed=1.06x 
size= 5kB time=00:00:02.66 bitrate= 16.8kbits/s speed=1.05x 
size= 6kB time=00:00:03.16 bitrate= 16.7kbits/s speed=1.04x 
size= 7kB time=00:00:03.67 bitrate= 16.6kbits/s speed=1.04x 
size= 8kB time=00:00:04.17 bitrate= 16.5kbits/s speed=1.03x 
[h_t_t_p @ 00000073e6ec4180] request: GET /stream/live/media/live/200/live.m3u8 h_t_t_p/1.1

User-Agent: Lavf/57.21.100

Accept: */*

Connection: close

Host: 10.0.0.236:8082

Cookie: JSESSIONIDSSO=iWtT-4rSCimRzSoFRJJUjpzH; JSESSIONID=+eS05wtfOkUR3emv3jSKaWT3

Icy-MetaData: 1




[AVIOContext @ 00000073e6eb1f20] Statistics: 296 bytes read, 0 seeks
[hls,appleh_t_t_p @ 00000073e6e8bb60] HLS request for url 'h_t_t_p://admin:admin@10.0.0.236:8082/stream/live/media/live/200/audio_5.mp3', offset 0, playlist 0
[h_t_t_p @ 00000073e6ea7fe0] request: GET /stream/live/media/live/200/audio_5.mp3 h_t_t_p/1.1

User-Agent: Lavf/57.21.100

Accept: */*

Connection: close

Host: 10.0.0.236:8082

Cookie: JSESSIONIDSSO=iWtT-4rSCimRzSoFRJJUjpzH; JSESSIONID=+eS05wtfOkUR3emv3jSKaWT3

Icy-MetaData: 1




size= 9kB time=00:00:04.68 bitrate= 16.4kbits/s speed=1.02x 
[hls,appleh_t_t_p @ 00000073e6e8bb60] HLS request for url 'h_t_t_p://admin:admin@10.0.0.236:8082/stream/live/media/live/200/audio_6.mp3', offset 0, playlist 0
[h_t_t_p @ 00000073e6ea7fe0] request: GET /stream/live/media/live/200/audio_6.mp3 h_t_t_p/1.1

User-Agent: Lavf/57.21.100

Accept: */*

Connection: close

Host: 10.0.0.236:8082

Cookie: JSESSIONIDSSO=iWtT-4rSCimRzSoFRJJUjpzH; JSESSIONID=+eS05wtfOkUR3emv3jSKaWT3

Icy-MetaData: 1




size= 10kB time=00:00:05.18 bitrate= 16.4kbits/s speed=1.02x 
size= 11kB time=00:00:05.68 bitrate= 16.4kbits/s speed=1.02x 
[h_t_t_p @ 00000073e6ea7fe0] request: GET /stream/live/media/live/200/live.m3u8 h_t_t_p/1.1

User-Agent: Lavf/57.21.100

Accept: */*

Connection: close

Host: 10.0.0.236:8082

Cookie: JSESSIONIDSSO=iWtT-4rSCimRzSoFRJJUjpzH; JSESSIONID=+eS05wtfOkUR3emv3jSKaWT3

Icy-MetaData: 1




[AVIOContext @ 00000073e6eb1a80] Statistics: 298 bytes read, 0 seeks
[hls,appleh_t_t_p @ 00000073e6e8bb60] HLS request for url 'h_t_t_p://admin:admin@10.0.0.236:8082/stream/live/media/live/200/audio_7.mp3', offset 0, playlist 0
[h_t_t_p @ 00000073e6ea7fe0] request: GET /stream/live/media/live/200/audio_7.mp3 h_t_t_p/1.1

User-Agent: Lavf/57.21.100

Accept: */*

Connection: close

Host: 10.0.0.236:8082

Cookie: JSESSIONIDSSO=iWtT-4rSCimRzSoFRJJUjpzH; JSESSIONID=+eS05wtfOkUR3emv3jSKaWT3

Icy-MetaData: 1




size= 12kB time=00:00:06.19 bitrate= 16.3kbits/s speed=1.01x 
size= 13kB time=00:00:06.69 bitrate= 16.3kbits/s speed=1.01x 
[h_t_t_p @ 00000073e6ea7fe0] request: GET /stream/live/media/live/200/live.m3u8 h_t_t_p/1.1

User-Agent: Lavf/57.21.100

Accept: */*

Connection: close

Host: 10.0.0.236:8082

Cookie: JSESSIONIDSSO=iWtT-4rSCimRzSoFRJJUjpzH; JSESSIONID=+eS05wtfOkUR3emv3jSKaWT3

Icy-MetaData: 1




[AVIOContext @ 00000073e6e9f4e0] Statistics: 299 bytes read, 0 seeks
[hls,appleh_t_t_p @ 00000073e6e8bb60] HLS request for url 'h_t_t_p://admin:admin@10.0.0.236:8082/stream/live/media/live/200/audio_8.mp3', offset 0, playlist 0
[h_t_t_p @ 00000073e6ea7fe0] request: GET /stream/live/media/live/200/audio_8.mp3 h_t_t_p/1.1

User-Agent: Lavf/57.21.100

Accept: */*

Connection: close

Host: 10.0.0.236:8082

Cookie: JSESSIONIDSSO=iWtT-4rSCimRzSoFRJJUjpzH; JSESSIONID=+eS05wtfOkUR3emv3jSKaWT3

Icy-MetaData: 1




size= 14kB time=00:00:07.20 bitrate= 16.3kbits/s speed=1.01x 
size= 15kB time=00:00:07.77 bitrate= 16.3kbits/s speed=1.02x 
[h_t_t_p @ 00000073e6ea7fe0] request: GET /stream/live/media/live/200/live.m3u8 h_t_t_p/1.1

User-Agent: Lavf/57.21.100

Accept: */*

Connection: close

Host: 10.0.0.236:8082

Cookie: JSESSIONIDSSO=iWtT-4rSCimRzSoFRJJUjpzH; JSESSIONID=+eS05wtfOkUR3emv3jSKaWT3

Icy-MetaData: 1




[AVIOContext @ 00000073e6eb1a80] Statistics: 300 bytes read, 0 seeks
[hls,appleh_t_t_p @ 00000073e6e8bb60] HLS request for url 'h_t_t_p://admin:admin@10.0.0.236:8082/stream/live/media/live/200/audio_9.mp3', offset 0, playlist 0
[h_t_t_p @ 00000073e6ea7fe0] request: GET /stream/live/media/live/200/audio_9.mp3 h_t_t_p/1.1

User-Agent: Lavf/57.21.100

Accept: */*

Connection: close

Host: 10.0.0.236:8082

Cookie: JSESSIONIDSSO=iWtT-4rSCimRzSoFRJJUjpzH; JSESSIONID=+eS05wtfOkUR3emv3jSKaWT3

Icy-MetaData: 1




size= 16kB time=00:00:08.28 bitrate= 16.3kbits/s speed=1.02x 
size= 17kB time=00:00:08.78 bitrate= 16.2kbits/s speed=1.01x 
[h_t_t_p @ 00000073e6ea7fe0] request: GET /stream/live/media/live/200/live.m3u8 h_t_t_p/1.1

User-Agent: Lavf/57.21.100

Accept: */*

Connection: close

Host: 10.0.0.236:8082

Cookie: JSESSIONIDSSO=iWtT-4rSCimRzSoFRJJUjpzH; JSESSIONID=+eS05wtfOkUR3emv3jSKaWT3

Icy-MetaData: 1




[AVIOContext @ 00000073e6e9f4e0] Statistics: 302 bytes read, 0 seeks
[hls,appleh_t_t_p @ 00000073e6e8bb60] HLS request for url 'h_t_t_p://admin:admin@10.0.0.236:8082/stream/live/media/live/200/audio_10.mp3', offset 0, playlist 0
[h_t_t_p @ 00000073e6ea7fe0] request: GET /stream/live/media/live/200/audio_10.mp3 h_t_t_p/1.1

User-Agent: Lavf/57.21.100

Accept: */*

Connection: close

Host: 10.0.0.236:8082

Cookie: JSESSIONIDSSO=iWtT-4rSCimRzSoFRJJUjpzH; JSESSIONID=+eS05wtfOkUR3emv3jSKaWT3

Icy-MetaData: 1




size= 18kB time=00:00:09.28 bitrate= 16.2kbits/s speed=1.01x 
size= 19kB time=00:00:09.79 bitrate= 16.2kbits/s speed=1.01x 
[h_t_t_p @ 00000073e6ea7fe0] request: GET /stream/live/media/live/200/live.m3u8 h_t_t_p/1.1

User-Agent: Lavf/57.21.100

Accept: */*

Connection: close

Host: 10.0.0.236:8082

Cookie: JSESSIONIDSSO=iWtT-4rSCimRzSoFRJJUjpzH; JSESSIONID=+eS05wtfOkUR3emv3jSKaWT3

Icy-MetaData: 1




[AVIOContext @ 00000073e6eb1a80] Statistics: 302 bytes read, 0 seeks
[hls,appleh_t_t_p @ 00000073e6e8bb60] HLS request for url 'h_t_t_p://admin:admin@10.0.0.236:8082/stream/live/media/live/200/audio_11.mp3', offset 0, playlist 0
[h_t_t_p @ 00000073e6ea7fe0] request: GET /stream/live/media/live/200/audio_11.mp3 h_t_t_p/1.1

User-Agent: Lavf/57.21.100

Accept: */*

Connection: close

Host: 10.0.0.236:8082

Cookie: JSESSIONIDSSO=iWtT-4rSCimRzSoFRJJUjpzH; JSESSIONID=+eS05wtfOkUR3emv3jSKaWT3

Icy-MetaData: 1




size= 20kB time=00:00:10.29 bitrate= 16.2kbits/s speed=1.01x 
[hls,appleh_t_t_p @ 00000073e6e8bb60] HLS request for url 'h_t_t_p://admin:admin@10.0.0.236:8082/stream/live/media/live/200/audio_12.mp3', offset 0, playlist 0
[h_t_t_p @ 00000073e6ea7fe0] request: GET /stream/live/media/live/200/audio_12.mp3 h_t_t_p/1.1

User-Agent: Lavf/57.21.100

Accept: */*

Connection: close

Host: 10.0.0.236:8082

Cookie: JSESSIONIDSSO=iWtT-4rSCimRzSoFRJJUjpzH; JSESSIONID=+eS05wtfOkUR3emv3jSKaWT3

Icy-MetaData: 1




size= 21kB time=00:00:10.80 bitrate= 16.2kbits/s speed=1.01x 
size= 22kB time=00:00:11.30 bitrate= 16.2kbits/s speed=1.01x 
[h_t_t_p @ 00000073e6ea7fe0] request: GET /stream/live/media/live/200/live.m3u8 h_t_t_p/1.1

User-Agent: Lavf/57.21.100

Accept: */*

Connection: close

Host: 10.0.0.236:8082

Cookie: JSESSIONIDSSO=iWtT-4rSCimRzSoFRJJUjpzH; JSESSIONID=+eS05wtfOkUR3emv3jSKaWT3

Icy-MetaData: 1




[AVIOContext @ 00000073e6eb1a80] Statistics: 302 bytes read, 0 seeks
[hls,appleh_t_t_p @ 00000073e6e8bb60] HLS request for url 'h_t_t_p://admin:admin@10.0.0.236:8082/stream/live/media/live/200/audio_13.mp3', offset 0, playlist 0
[h_t_t_p @ 00000073e6ea7fe0] request: GET /stream/live/media/live/200/audio_13.mp3 h_t_t_p/1.1

User-Agent: Lavf/57.21.100

Accept: */*

Connection: close

Host: 10.0.0.236:8082

Cookie: JSESSIONIDSSO=iWtT-4rSCimRzSoFRJJUjpzH; JSESSIONID=+eS05wtfOkUR3emv3jSKaWT3

Icy-MetaData: 1




size= 23kB time=00:00:11.80 bitrate= 16.2kbits/s speed=1.01x 
size= 24kB time=00:00:12.38 bitrate= 16.2kbits/s speed=1.01x 
[h_t_t_p @ 00000073e6ea7fe0] request: GET /stream/live/media/live/200/live.m3u8 h_t_t_p/1.1

User-Agent: Lavf/57.21.100

Accept: */*

Connection: close

Host: 10.0.0.236:8082

Cookie: JSESSIONIDSSO=iWtT-4rSCimRzSoFRJJUjpzH; JSESSIONID=+eS05wtfOkUR3emv3jSKaWT3

Icy-MetaData: 1




[AVIOContext @ 00000073e6e9f4e0] Statistics: 302 bytes read, 0 seeks
[hls,appleh_t_t_p @ 00000073e6e8bb60] HLS request for url 'h_t_t_p://admin:admin@10.0.0.236:8082/stream/live/media/live/200/audio_14.mp3', offset 0, playlist 0
[h_t_t_p @ 00000073e6e9f4e0] request: GET /stream/live/media/live/200/audio_14.mp3 h_t_t_p/1.1

User-Agent: Lavf/57.21.100

Accept: */*

Connection: close

Host: 10.0.0.236:8082

Cookie: JSESSIONIDSSO=iWtT-4rSCimRzSoFRJJUjpzH; JSESSIONID=+eS05wtfOkUR3emv3jSKaWT3

Icy-MetaData: 1




size= 25kB time=00:00:12.88 bitrate= 16.2kbits/s speed=1.01x 
size= 26kB time=00:00:13.39 bitrate= 16.2kbits/s speed=1.01x 
[h_t_t_p @ 00000073e6ea7fe0] request: GET /stream/live/media/live/200/live.m3u8 h_t_t_p/1.1

User-Agent: Lavf/57.21.100

Accept: */*

Connection: close

Host: 10.0.0.236:8082

Cookie: JSESSIONIDSSO=iWtT-4rSCimRzSoFRJJUjpzH; JSESSIONID=+eS05wtfOkUR3emv3jSKaWT3

Icy-MetaData: 1




[AVIOContext @ 00000073e6e9f4e0] Statistics: 302 bytes read, 0 seeks
[hls,appleh_t_t_p @ 00000073e6e8bb60] HLS request for url 'h_t_t_p://admin:admin@10.0.0.236:8082/stream/live/media/live/200/audio_15.mp3', offset 0, playlist 0
[h_t_t_p @ 00000073e6ea7fe0] request: GET /stream/live/media/live/200/audio_15.mp3 h_t_t_p/1.1

User-Agent: Lavf/57.21.100

Accept: */*

Connection: close

Host: 10.0.0.236:8082

Cookie: JSESSIONIDSSO=iWtT-4rSCimRzSoFRJJUjpzH; JSESSIONID=+eS05wtfOkUR3emv3jSKaWT3

Icy-MetaData: 1




size= 27kB time=00:00:13.89 bitrate= 16.2kbits/s speed=1.01x 
size= 28kB time=00:00:14.40 bitrate= 16.1kbits/s speed=1.01x 
[h_t_t_p @ 00000073e6ea7fe0] request: GET /stream/live/media/live/200/live.m3u8 h_t_t_p/1.1

User-Agent: Lavf/57.21.100

Accept: */*

Connection: close

Host: 10.0.0.236:8082

Cookie: JSESSIONIDSSO=iWtT-4rSCimRzSoFRJJUjpzH; JSESSIONID=+eS05wtfOkUR3emv3jSKaWT3

Icy-MetaData: 1




[AVIOContext @ 00000073e6eb1a80] Statistics: 302 bytes read, 0 seeks
[hls,appleh_t_t_p @ 00000073e6e8bb60] HLS request for url 'h_t_t_p://admin:admin@10.0.0.236:8082/stream/live/media/live/200/audio_16.mp3', offset 0, playlist 0
[h_t_t_p @ 00000073e6ea7fe0] request: GET /stream/live/media/live/200/audio_16.mp3 h_t_t_p/1.1

User-Agent: Lavf/57.21.100

Accept: */*

Connection: close

Host: 10.0.0.236:8082

Cookie: JSESSIONIDSSO=iWtT-4rSCimRzSoFRJJUjpzH; JSESSIONID=+eS05wtfOkUR3emv3jSKaWT3

Icy-MetaData: 1




size= 29kB time=00:00:14.90 bitrate= 16.1kbits/s speed=1.01x 
size= 30kB time=00:00:15.40 bitrate= 16.1kbits/s speed=1.01x 
[h_t_t_p @ 00000073e6ea7fe0] request: GET /stream/live/media/live/200/live.m3u8 h_t_t_p/1.1

User-Agent: Lavf/57.21.100

Accept: */*

Connection: close

Host: 10.0.0.236:8082

Cookie: JSESSIONIDSSO=iWtT-4rSCimRzSoFRJJUjpzH; JSESSIONID=+eS05wtfOkUR3emv3jSKaWT3

Icy-MetaData: 1




[AVIOContext @ 00000073e6e9f4e0] Statistics: 302 bytes read, 0 seeks
[hls,appleh_t_t_p @ 00000073e6e8bb60] HLS request for url 'h_t_t_p://admin:admin@10.0.0.236:8082/stream/live/media/live/200/audio_17.mp3', offset 0, playlist 0
[h_t_t_p @ 00000073e6ea7fe0] request: GET /stream/live/media/live/200/audio_17.mp3 h_t_t_p/1.1

User-Agent: Lavf/57.21.100

Accept: */*

Connection: close

Host: 10.0.0.236:8082

Cookie: JSESSIONIDSSO=iWtT-4rSCimRzSoFRJJUjpzH; JSESSIONID=+eS05wtfOkUR3emv3jSKaWT3

Icy-MetaData: 1




size= 31kB time=00:00:15.91 bitrate= 16.1kbits/s speed=1.01x 
[hls,appleh_t_t_p @ 00000073e6e8bb60] HLS request for url 'h_t_t_p://admin:admin@10.0.0.236:8082/stream/live/media/live/200/audio_18.mp3', offset 0, playlist 0
[h_t_t_p @ 00000073e6ea7fe0] request: GET /stream/live/media/live/200/audio_18.mp3 h_t_t_p/1.1

User-Agent: Lavf/57.21.100

Accept: */*

Connection: close

Host: 10.0.0.236:8082

Cookie: JSESSIONIDSSO=iWtT-4rSCimRzSoFRJJUjpzH; JSESSIONID=+eS05wtfOkUR3emv3jSKaWT3

Icy-MetaData: 1




size= 32kB time=00:00:16.41 bitrate= 16.1kbits/s speed=1.01x 
size= 33kB time=00:00:16.92 bitrate= 16.1kbits/s speed= 1x 
[h_t_t_p @ 00000073e6ea7fe0] request: GET /stream/live/media/live/200/live.m3u8 h_t_t_p/1.1

User-Agent: Lavf/57.21.100

Accept: */*

Connection: close

Host: 10.0.0.236:8082

Cookie: JSESSIONIDSSO=iWtT-4rSCimRzSoFRJJUjpzH; JSESSIONID=+eS05wtfOkUR3emv3jSKaWT3

Icy-MetaData: 1




[AVIOContext @ 00000073e6e9f4e0] Statistics: 302 bytes read, 0 seeks
[hls,appleh_t_t_p @ 00000073e6e8bb60] HLS request for url 'h_t_t_p://admin:admin@10.0.0.236:8082/stream/live/media/live/200/audio_19.mp3', offset 0, playlist 0
[h_t_t_p @ 00000073e6ea7fe0] request: GET /stream/live/media/live/200/audio_19.mp3 h_t_t_p/1.1

User-Agent: Lavf/57.21.100

Accept: */*

Connection: close

Host: 10.0.0.236:8082

Cookie: JSESSIONIDSSO=iWtT-4rSCimRzSoFRJJUjpzH; JSESSIONID=+eS05wtfOkUR3emv3jSKaWT3

Icy-MetaData: 1




size= 34kB time=00:00:17.49 bitrate= 16.1kbits/s speed=1.01x 
size= 35kB time=00:00:18.00 bitrate= 16.1kbits/s speed=1.01x 
[h_t_t_p @ 00000073e6ea7fe0] request: GET /stream/live/media/live/200/live.m3u8 h_t_t_p/1.1

User-Agent: Lavf/57.21.100

Accept: */*

Connection: close

Host: 10.0.0.236:8082

Cookie: JSESSIONIDSSO=iWtT-4rSCimRzSoFRJJUjpzH; JSESSIONID=+eS05wtfOkUR3emv3jSKaWT3

Icy-MetaData: 1




[AVIOContext @ 00000073e6eb1a80] Statistics: 302 bytes read, 0 seeks
[hls,appleh_t_t_p @ 00000073e6e8bb60] HLS request for url 'h_t_t_p://admin:admin@10.0.0.236:8082/stream/live/media/live/200/audio_20.mp3', offset 0, playlist 0
[h_t_t_p @ 00000073e6ea7fe0] request: GET /stream/live/media/live/200/audio_20.mp3 h_t_t_p/1.1

User-Agent: Lavf/57.21.100

Accept: */*

Connection: close

Host: 10.0.0.236:8082

Cookie: JSESSIONIDSSO=iWtT-4rSCimRzSoFRJJUjpzH; JSESSIONID=+eS05wtfOkUR3emv3jSKaWT3

Icy-MetaData: 1




size= 36kB time=00:00:18.50 bitrate= 16.1kbits/s speed=1.01x 
size= 37kB time=00:00:19.00 bitrate= 16.1kbits/s speed=1.01x 
[h_t_t_p @ 00000073e6ea7fe0] request: GET /stream/live/media/live/200/live.m3u8 h_t_t_p/1.1

User-Agent: Lavf/57.21.100

Accept: */*

Connection: close

Host: 10.0.0.236:8082

Cookie: JSESSIONIDSSO=iWtT-4rSCimRzSoFRJJUjpzH; JSESSIONID=+eS05wtfOkUR3emv3jSKaWT3

Icy-MetaData: 1




[AVIOContext @ 00000073e6e9f4e0] Statistics: 302 bytes read, 0 seeks
[hls,appleh_t_t_p @ 00000073e6e8bb60] HLS request for url 'h_t_t_p://admin:admin@10.0.0.236:8082/stream/live/media/live/200/audio_21.mp3', offset 0, playlist 0
[h_t_t_p @ 00000073e6ea7fe0] request: GET /stream/live/media/live/200/audio_21.mp3 h_t_t_p/1.1

User-Agent: Lavf/57.21.100

Accept: */*

Connection: close

Host: 10.0.0.236:8082

Cookie: JSESSIONIDSSO=iWtT-4rSCimRzSoFRJJUjpzH; JSESSIONID=+eS05wtfOkUR3emv3jSKaWT3

Icy-MetaData: 1




size= 38kB time=00:00:19.51 bitrate= 16.1kbits/s speed=1.01x 
size= 39kB time=00:00:20.01 bitrate= 16.1kbits/s speed= 1x 
[h_t_t_p @ 00000073e6ea7fe0] request: GET /stream/live/media/live/200/live.m3u8 h_t_t_p/1.1

User-Agent: Lavf/57.21.100

Accept: */*

Connection: close

Host: 10.0.0.236:8082

Cookie: JSESSIONIDSSO=iWtT-4rSCimRzSoFRJJUjpzH; JSESSIONID=+eS05wtfOkUR3emv3jSKaWT3

Icy-MetaData: 1




[AVIOContext @ 00000073e6eb1a80] Statistics: 302 bytes read, 0 seeks
[hls,appleh_t_t_p @ 00000073e6e8bb60] HLS request for url 'h_t_t_p://admin:admin@10.0.0.236:8082/stream/live/media/live/200/audio_22.mp3', offset 0, playlist 0
[h_t_t_p @ 00000073e6ea7fe0] request: GET /stream/live/media/live/200/audio_22.mp3 h_t_t_p/1.1

User-Agent: Lavf/57.21.100

Accept: */*

Connection: close

Host: 10.0.0.236:8082

Cookie: JSESSIONIDSSO=iWtT-4rSCimRzSoFRJJUjpzH; JSESSIONID=+eS05wtfOkUR3emv3jSKaWT3

Icy-MetaData: 1




size= 40kB time=00:00:20.52 bitrate= 16.1kbits/s speed= 1x 
size= 41kB time=00:00:21.09 bitrate= 16.1kbits/s speed=1.01x 
[h_t_t_p @ 00000073e6ea7fe0] request: GET /stream/live/media/live/200/live.m3u8 h_t_t_p/1.1

User-Agent: Lavf/57.21.100

Accept: */*

Connection: close

Host: 10.0.0.236:8082

Cookie: JSESSIONIDSSO=iWtT-4rSCimRzSoFRJJUjpzH; JSESSIONID=+eS05wtfOkUR3emv3jSKaWT3

Icy-MetaData: 1




[AVIOContext @ 00000073e6e9f4e0] Statistics: 302 bytes read, 0 seeks
[hls,appleh_t_t_p @ 00000073e6e8bb60] HLS request for url 'h_t_t_p://admin:admin@10.0.0.236:8082/stream/live/media/live/200/audio_23.mp3', offset 0, playlist 0
[h_t_t_p @ 00000073e6ea7fe0] request: GET /stream/live/media/live/200/audio_23.mp3 h_t_t_p/1.1

User-Agent: Lavf/57.21.100

Accept: */*

Connection: close

Host: 10.0.0.236:8082

Cookie: JSESSIONIDSSO=iWtT-4rSCimRzSoFRJJUjpzH; JSESSIONID=+eS05wtfOkUR3emv3jSKaWT3

Icy-MetaData: 1




size= 42kB time=00:00:21.52 bitrate= 16.1kbits/s speed= 1x 
[hls,appleh_t_t_p @ 00000073e6e8bb60] HLS request for url 'h_t_t_p://admin:admin@10.0.0.236:8082/stream/live/media/live/200/audio_24.mp3', offset 0, playlist 0
[h_t_t_p @ 00000073e6ebabc0] request: GET /stream/live/media/live/200/audio_24.mp3 h_t_t_p/1.1

User-Agent: Lavf/57.21.100

Accept: */*

Connection: close

Host: 10.0.0.236:8082

Cookie: JSESSIONIDSSO=iWtT-4rSCimRzSoFRJJUjpzH; JSESSIONID=+eS05wtfOkUR3emv3jSKaWT3

Icy-MetaData: 1




size= 43kB time=00:00:22.10 bitrate= 16.1kbits/s speed=1.01x 
size= 44kB time=00:00:22.60 bitrate= 16.1kbits/s speed=1.01x 
[h_t_t_p @ 00000073e6ea7fe0] request: GET /stream/live/media/live/200/live.m3u8 h_t_t_p/1.1

User-Agent: Lavf/57.21.100

Accept: */*

Connection: close

Host: 10.0.0.236:8082

Cookie: JSESSIONIDSSO=iWtT-4rSCimRzSoFRJJUjpzH; JSESSIONID=+eS05wtfOkUR3emv3jSKaWT3

Icy-MetaData: 1




[AVIOContext @ 00000073e6ecd4c0] Statistics: 302 bytes read, 0 seeks
[hls,appleh_t_t_p @ 00000073e6e8bb60] HLS request for url 'h_t_t_p://admin:admin@10.0.0.236:8082/stream/live/media/live/200/audio_25.mp3', offset 0, playlist 0
[h_t_t_p @ 00000073e6ebafe0] request: GET /stream/live/media/live/200/audio_25.mp3 h_t_t_p/1.1

User-Agent: Lavf/57.21.100

Accept: */*

Connection: close

Host: 10.0.0.236:8082

Cookie: JSESSIONIDSSO=iWtT-4rSCimRzSoFRJJUjpzH; JSESSIONID=+eS05wtfOkUR3emv3jSKaWT3

Icy-MetaData: 1




size= 45kB time=00:00:23.11 bitrate= 16.1kbits/s speed= 1x 
size= 46kB time=00:00:23.61 bitrate= 16.1kbits/s speed= 1x 
[h_t_t_p @ 00000073e6ea7fe0] request: GET /stream/live/media/live/200/live.m3u8 h_t_t_p/1.1

User-Agent: Lavf/57.21.100

Accept: */*

Connection: close

Host: 10.0.0.236:8082

Cookie: JSESSIONIDSSO=iWtT-4rSCimRzSoFRJJUjpzH; JSESSIONID=+eS05wtfOkUR3emv3jSKaWT3

Icy-MetaData: 1




[AVIOContext @ 00000073e6ecde20] Statistics: 302 bytes read, 0 seeks
[hls,appleh_t_t_p @ 00000073e6e8bb60] HLS request for url 'h_t_t_p://admin:admin@10.0.0.236:8082/stream/live/media/live/200/audio_26.mp3', offset 0, playlist 0
[h_t_t_p @ 00000073e6ebb240] request: GET /stream/live/media/live/200/audio_26.mp3 h_t_t_p/1.1

User-Agent: Lavf/57.21.100

Accept: */*

Connection: close

Host: 10.0.0.236:8082

Cookie: JSESSIONIDSSO=iWtT-4rSCimRzSoFRJJUjpzH; JSESSIONID=+eS05wtfOkUR3emv3jSKaWT3

Icy-MetaData: 1




size= 47kB time=00:00:24.12 bitrate= 16.1kbits/s speed= 1x 
size= 48kB time=00:00:24.62 bitrate= 16.1kbits/s speed= 1x 
[h_t_t_p @ 00000073e6ea7fe0] request: GET /stream/live/media/live/200/live.m3u8 h_t_t_p/1.1

User-Agent: Lavf/57.21.100

Accept: */*

Connection: close

Host: 10.0.0.236:8082

Cookie: JSESSIONIDSSO=iWtT-4rSCimRzSoFRJJUjpzH; JSESSIONID=+eS05wtfOkUR3emv3jSKaWT3

Icy-MetaData: 1




[AVIOContext @ 00000073e6ecd000] Statistics: 302 bytes read, 0 seeks
[hls,appleh_t_t_p @ 00000073e6e8bb60] HLS request for url 'h_t_t_p://admin:admin@10.0.0.236:8082/stream/live/media/live/200/audio_27.mp3', offset 0, playlist 0
[h_t_t_p @ 00000073e6ebab00] request: GET /stream/live/media/live/200/audio_27.mp3 h_t_t_p/1.1

User-Agent: Lavf/57.21.100

Accept: */*

Connection: close

Host: 10.0.0.236:8082

Cookie: JSESSIONIDSSO=iWtT-4rSCimRzSoFRJJUjpzH; JSESSIONID=+eS05wtfOkUR3emv3jSKaWT3

Icy-MetaData: 1




size= 49kB time=00:00:25.20 bitrate= 16.1kbits/s speed=1.01x 
size= 50kB time=00:00:25.70 bitrate= 16.1kbits/s speed= 1x 
[h_t_t_p @ 00000073e6ea7fe0] request: GET /stream/live/media/live/200/live.m3u8 h_t_t_p/1.1

User-Agent: Lavf/57.21.100

Accept: */*

Connection: close

Host: 10.0.0.236:8082

Cookie: JSESSIONIDSSO=iWtT-4rSCimRzSoFRJJUjpzH; JSESSIONID=+eS05wtfOkUR3emv3jSKaWT3

Icy-MetaData: 1




[AVIOContext @ 00000073e6ecdb40] Statistics: 302 bytes read, 0 seeks
[hls,appleh_t_t_p @ 00000073e6e8bb60] HLS request for url 'h_t_t_p://admin:admin@10.0.0.236:8082/stream/live/media/live/200/audio_28.mp3', offset 0, playlist 0
[h_t_t_p @ 00000073e6ebafe0] request: GET /stream/live/media/live/200/audio_28.mp3 h_t_t_p/1.1

User-Agent: Lavf/57.21.100

Accept: */*

Connection: close

Host: 10.0.0.236:8082

Cookie: JSESSIONIDSSO=iWtT-4rSCimRzSoFRJJUjpzH; JSESSIONID=+eS05wtfOkUR3emv3jSKaWT3

Icy-MetaData: 1




size= 51kB time=00:00:26.20 bitrate= 16.1kbits/s speed= 1x 
size= 52kB time=00:00:26.71 bitrate= 16.1kbits/s speed= 1x 
[h_t_t_p @ 00000073e6ea7fe0] request: GET /stream/live/media/live/200/live.m3u8 h_t_t_p/1.1

User-Agent: Lavf/57.21.100

Accept: */*

Connection: close

Host: 10.0.0.236:8082

Cookie: JSESSIONIDSSO=iWtT-4rSCimRzSoFRJJUjpzH; JSESSIONID=+eS05wtfOkUR3emv3jSKaWT3

Icy-MetaData: 1




[AVIOContext @ 00000073e6ecd2e0] Statistics: 302 bytes read, 0 seeks
[hls,appleh_t_t_p @ 00000073e6e8bb60] HLS request for url 'h_t_t_p://admin:admin@10.0.0.236:8082/stream/live/media/live/200/audio_29.mp3', offset 0, playlist 0
[h_t_t_p @ 00000073e6ebb320] request: GET /stream/live/media/live/200/audio_29.mp3 h_t_t_p/1.1

User-Agent: Lavf/57.21.100

Accept: */*

Connection: close

Host: 10.0.0.236:8082

Cookie: JSESSIONIDSSO=iWtT-4rSCimRzSoFRJJUjpzH; JSESSIONID=+eS05wtfOkUR3emv3jSKaWT3

Icy-MetaData: 1




size= 53kB time=00:00:27.21 bitrate= 16.1kbits/s speed= 1x 
[hls,appleh_t_t_p @ 00000073e6e8bb60] HLS request for url 'h_t_t_p://admin:admin@10.0.0.236:8082/stream/live/media/live/200/audio_30.mp3', offset 0, playlist 0
[h_t_t_p @ 00000073e6ebb800] request: GET /stream/live/media/live/200/audio_30.mp3 h_t_t_p/1.1

User-Agent: Lavf/57.21.100

Accept: */*

Connection: close

Host: 10.0.0.236:8082

Cookie: JSESSIONIDSSO=iWtT-4rSCimRzSoFRJJUjpzH; JSESSIONID=+eS05wtfOkUR3emv3jSKaWT3

Icy-MetaData: 1




size= 54kB time=00:00:27.72 bitrate= 16.1kbits/s speed= 1x 
size= 55kB time=00:00:28.22 bitrate= 16.1kbits/s speed= 1x 
[h_t_t_p @ 00000073e6e96c20] request: GET /stream/live/media/live/200/live.m3u8 h_t_t_p/1.1

User-Agent: Lavf/57.21.100

Accept: */*

Connection: close

Host: 10.0.0.236:8082

Cookie: JSESSIONIDSSO=iWtT-4rSCimRzSoFRJJUjpzH; JSESSIONID=+eS05wtfOkUR3emv3jSKaWT3

Icy-MetaData: 1




[AVIOContext @ 00000073e6ecd780] Statistics: 302 bytes read, 0 seeks
[hls,appleh_t_t_p @ 00000073e6e8bb60] HLS request for url 'h_t_t_p://admin:admin@10.0.0.236:8082/stream/live/media/live/200/audio_31.mp3', offset 0, playlist 0
[h_t_t_p @ 00000073e6ebb180] request: GET /stream/live/media/live/200/audio_31.mp3 h_t_t_p/1.1

User-Agent: Lavf/57.21.100

Accept: */*

Connection: close

Host: 10.0.0.236:8082

Cookie: JSESSIONIDSSO=iWtT-4rSCimRzSoFRJJUjpzH; JSESSIONID=+eS05wtfOkUR3emv3jSKaWT3

Icy-MetaData: 1




size= 56kB time=00:00:28.72 bitrate= 16.1kbits/s speed= 1x 
size= 57kB time=00:00:29.23 bitrate= 16.1kbits/s speed= 1x 
[h_t_t_p @ 00000073e6e96c20] request: GET /stream/live/media/live/200/live.m3u8 h_t_t_p/1.1

User-Agent: Lavf/57.21.100

Accept: */*

Connection: close

Host: 10.0.0.236:8082

Cookie: JSESSIONIDSSO=iWtT-4rSCimRzSoFRJJUjpzH; JSESSIONID=+eS05wtfOkUR3emv3jSKaWT3

Icy-MetaData: 1




[AVIOContext @ 00000073e6ecd100] Statistics: 324 bytes read, 0 seeks
skipping 1 segments ahead, expired from playlists
[hls,appleh_t_t_p @ 00000073e6e8bb60] HLS request for url 'h_t_t_p://admin:admin@10.0.0.236:8082/stream/live/media/live/200/audio_33.mp3', offset 0, playlist 0
[h_t_t_p @ 00000073e6ebb720] request: GET /stream/live/media/live/200/audio_33.mp3 h_t_t_p/1.1

User-Agent: Lavf/57.21.100

Accept: */*

Connection: close

Host: 10.0.0.236:8082

Cookie: JSESSIONIDSSO=iWtT-4rSCimRzSoFRJJUjpzH; JSESSIONID=+eS05wtfOkUR3emv3jSKaWT3

Icy-MetaData: 1




size= 58kB time=00:00:29.80 bitrate= 16.1kbits/s speed= 1x 
size= 59kB time=00:00:30.31 bitrate= 16.1kbits/s speed= 1x 
[h_t_t_p @ 00000073e6ea7fe0] request: GET /stream/live/media/live/200/live.m3u8 h_t_t_p/1.1

User-Agent: Lavf/57.21.100

Accept: */*

Connection: close

Host: 10.0.0.236:8082

Cookie: JSESSIONIDSSO=iWtT-4rSCimRzSoFRJJUjpzH; JSESSIONID=+eS05wtfOkUR3emv3jSKaWT3

Icy-MetaData: 1




[AVIOContext @ 00000073e6ecd2e0] Statistics: 324 bytes read, 0 seeks
[hls,appleh_t_t_p @ 00000073e6e8bb60] HLS request for url 'h_t_t_p://admin:admin@10.0.0.236:8082/stream/live/media/live/200/audio_34.mp3', offset 0, playlist 0
[h_t_t_p @ 00000073e6ebad60] request: GET /stream/live/media/live/200/audio_34.mp3 h_t_t_p/1.1

User-Agent: Lavf/57.21.100

Accept: */*

Connection: close

Host: 10.0.0.236:8082

Cookie: JSESSIONIDSSO=iWtT-4rSCimRzSoFRJJUjpzH; JSESSIONID=+eS05wtfOkUR3emv3jSKaWT3

Icy-MetaData: 1




size= 60kB time=00:00:30.81 bitrate= 16.1kbits/s speed= 1x 
size= 61kB time=00:00:31.32 bitrate= 16.1kbits/s speed= 1x 
[h_t_t_p @ 00000073e6ea7fe0] request: GET /stream/live/media/live/200/live.m3u8 h_t_t_p/1.1

User-Agent: Lavf/57.21.100

Accept: */*

Connection: close

Host: 10.0.0.236:8082

Cookie: JSESSIONIDSSO=iWtT-4rSCimRzSoFRJJUjpzH; JSESSIONID=+eS05wtfOkUR3emv3jSKaWT3

Icy-MetaData: 1




[AVIOContext @ 00000073e6ecda60] Statistics: 324 bytes read, 0 seeks
[hls,appleh_t_t_p @ 00000073e6e8bb60] HLS request for url 'h_t_t_p://admin:admin@10.0.0.236:8082/stream/live/media/live/200/audio_35.mp3', offset 0, playlist 0
[h_t_t_p @ 00000073e6ebaf00] request: GET /stream/live/media/live/200/audio_35.mp3 h_t_t_p/1.1

User-Agent: Lavf/57.21.100

Accept: */*

Connection: close

Host: 10.0.0.236:8082

Cookie: JSESSIONIDSSO=iWtT-4rSCimRzSoFRJJUjpzH; JSESSIONID=+eS05wtfOkUR3emv3jSKaWT3

Icy-MetaData: 1




size= 62kB time=00:00:31.82 bitrate= 16.1kbits/s speed= 1x 
[hls,appleh_t_t_p @ 00000073e6e8bb60] HLS request for url 'h_t_t_p://admin:admin@10.0.0.236:8082/stream/live/media/live/200/audio_36.mp3', offset 0, playlist 0
[h_t_t_p @ 00000073e6ebb240] request: GET /stream/live/media/live/200/audio_36.mp3 h_t_t_p/1.1

User-Agent: Lavf/57.21.100

Accept: */*

Connection: close

Host: 10.0.0.236:8082

Cookie: JSESSIONIDSSO=iWtT-4rSCimRzSoFRJJUjpzH; JSESSIONID=+eS05wtfOkUR3emv3jSKaWT3

Icy-MetaData: 1




size= 63kB time=00:00:32.32 bitrate= 16.1kbits/s speed= 1x 
size= 64kB time=00:00:32.83 bitrate= 16.1kbits/s speed= 1x 
[h_t_t_p @ 00000073e6ea7fe0] request: GET /stream/live/media/live/200/live.m3u8 h_t_t_p/1.1

User-Agent: Lavf/57.21.100

Accept: */*

Connection: close

Host: 10.0.0.236:8082

Cookie: JSESSIONIDSSO=iWtT-4rSCimRzSoFRJJUjpzH; JSESSIONID=+eS05wtfOkUR3emv3jSKaWT3

Icy-MetaData: 1




[AVIOContext @ 00000073e6ecdb40] Statistics: 324 bytes read, 0 seeks
[hls,appleh_t_t_p @ 00000073e6e8bb60] HLS request for url 'h_t_t_p://admin:admin@10.0.0.236:8082/stream/live/media/live/200/audio_37.mp3', offset 0, playlist 0
[h_t_t_p @ 00000073e6ebaa20] request: GET /stream/live/media/live/200/audio_37.mp3 h_t_t_p/1.1

User-Agent: Lavf/57.21.100

Accept: */*

Connection: close

Host: 10.0.0.236:8082

Cookie: JSESSIONIDSSO=iWtT-4rSCimRzSoFRJJUjpzH; JSESSIONID=+eS05wtfOkUR3emv3jSKaWT3

Icy-MetaData: 1




size= 66kB time=00:00:33.40 bitrate= 16.1kbits/s speed= 1x 
size= 66kB time=00:00:33.91 bitrate= 16.1kbits/s speed= 1x 
[h_t_t_p @ 00000073e6ea7fe0] request: GET /stream/live/media/live/200/live.m3u8 h_t_t_p/1.1

User-Agent: Lavf/57.21.100

Accept: */*

Connection: close

Host: 10.0.0.236:8082

Cookie: JSESSIONIDSSO=iWtT-4rSCimRzSoFRJJUjpzH; JSESSIONID=+eS05wtfOkUR3emv3jSKaWT3

Icy-MetaData: 1




[AVIOContext @ 00000073e6ecd3c0] Statistics: 324 bytes read, 0 seeks
[h_t_t_p @ 00000073e6ea7fe0] request: GET /stream/live/media/live/200/live.m3u8 h_t_t_p/1.1

User-Agent: Lavf/57.21.100

Accept: */*

Connection: close

Host: 10.0.0.236:8082

Cookie: JSESSIONIDSSO=iWtT-4rSCimRzSoFRJJUjpzH; JSESSIONID=+eS05wtfOkUR3emv3jSKaWT3

Icy-MetaData: 1




[AVIOContext @ 00000073e6ecd3c0] Statistics: 324 bytes read, 0 seeks
[h_t_t_p @ 00000073e6ea7fe0] request: GET /stream/live/media/live/200/live.m3u8 h_t_t_p/1.1

User-Agent: Lavf/57.21.100

Accept: */*

Connection: close

Host: 10.0.0.236:8082

Cookie: JSESSIONIDSSO=iWtT-4rSCimRzSoFRJJUjpzH; JSESSIONID=+eS05wtfOkUR3emv3jSKaWT3

Icy-MetaData: 1




[AVIOContext @ 00000073e6ecd960] Statistics: 324 bytes read, 0 seeks
[h_t_t_p @ 00000073e6ea7fe0] request: GET /stream/live/media/live/200/live.m3u8 h_t_t_p/1.1

User-Agent: Lavf/57.21.100

Accept: */*

Connection: close

Host: 10.0.0.236:8082

Cookie: JSESSIONIDSSO=iWtT-4rSCimRzSoFRJJUjpzH; JSESSIONID=+eS05wtfOkUR3emv3jSKaWT3

Icy-MetaData: 1




[AVIOContext @ 00000073e6ecd780] Statistics: 324 bytes read, 0 seeks
[h_t_t_p @ 00000073e6ea7fe0] request: GET /stream/live/media/live/200/live.m3u8 h_t_t_p/1.1

User-Agent: Lavf/57.21.100

Accept: */*

Connection: close

Host: 10.0.0.236:8082

Cookie: JSESSIONIDSSO=iWtT-4rSCimRzSoFRJJUjpzH; JSESSIONID=+eS05wtfOkUR3emv3jSKaWT3

Icy-MetaData: 1




[AVIOContext @ 00000073e6ecd000] Statistics: 324 bytes read, 0 seeks
[h_t_t_p @ 00000073e6ea7fe0] request: GET /stream/live/media/live/200/live.m3u8 h_t_t_p/1.1

User-Agent: Lavf/57.21.100

Accept: */*

Connection: close

Host: 10.0.0.236:8082

Cookie: JSESSIONIDSSO=iWtT-4rSCimRzSoFRJJUjpzH; JSESSIONID=+eS05wtfOkUR3emv3jSKaWT3

Icy-MetaData: 1




[AVIOContext @ 00000073e6ecd4c0] Statistics: 324 bytes read, 0 seeks
[h_t_t_p @ 00000073e6ea7fe0] request: GET /stream/live/media/live/200/live.m3u8 h_t_t_p/1.1

User-Agent: Lavf/57.21.100

Accept: */*

Connection: close

Host: 10.0.0.236:8082

Cookie: JSESSIONIDSSO=iWtT-4rSCimRzSoFRJJUjpzH; JSESSIONID=+eS05wtfOkUR3emv3jSKaWT3

Icy-MetaData: 1




[AVIOContext @ 00000073e6ecda60] Statistics: 324 bytes read, 0 seeks
[h_t_t_p @ 00000073e6ea7fe0] request: GET /stream/live/media/live/200/live.m3u8 h_t_t_p/1.1

User-Agent: Lavf/57.21.100

Accept: */*

Connection: close

Host: 10.0.0.236:8082

Cookie: JSESSIONIDSSO=iWtT-4rSCimRzSoFRJJUjpzH; JSESSIONID=+eS05wtfOkUR3emv3jSKaWT3

Icy-MetaData: 1




[AVIOContext @ 00000073e6ecd960] Statistics: 324 bytes read, 0 seeks
[h_t_t_p @ 00000073e6ea7fe0] request: GET /stream/live/media/live/200/live.m3u8 h_t_t_p/1.1

User-Agent: Lavf/57.21.100

Accept: */*

Connection: close

Host: 10.0.0.236:8082

Cookie: JSESSIONIDSSO=iWtT-4rSCimRzSoFRJJUjpzH; JSESSIONID=+eS05wtfOkUR3emv3jSKaWT3

Icy-MetaData: 1




[AVIOContext @ 00000073e6ecd3c0] Statistics: 324 bytes read, 0 seeks
dmodi
 
Posts: 2
Joined: Fri Mar 04, 2016 3:51 pm
Top

Change History (2)

comment:1 Changed 11 months ago by cehoyos

  • Description modified (diff)
  • Keywords hls added

Please provide input files.

comment:2 Changed 8 months ago by stevenliu

  • Resolution set to needs_more_info
  • Status changed from new to closed
Note: See TracTickets for help on using tickets.