Opened 3 years ago

Last modified 2 years ago

#5235 open enhancement

Affinity Video (ImJG) samples

Reported by: ami_stuff Owned by:
Priority: wish Component: avcodec
Version: git-master Keywords:
Cc: Blocked By:
Blocking: Reproduced by developer: yes
Analyzed by developer: no

Description

before I will delete them from my hdd

https://www.interlab-net.com/docs/get/accom/End_of_life_products/affinity/software/drivers&utilities/

C:\>ffmpeg -i ntsc_24bpp.mov
ffmpeg version N-78304-g37db3e8 Copyright (c) 2000-2016 the FFmpeg developers
  built with gcc 5.3.0 (GCC)
  configuration: --enable-gpl --enable-version3 --disable-w32threads --enable-av
isynth --enable-bzlib --enable-fontconfig --enable-frei0r --enable-gnutls --enab
le-iconv --enable-libass --enable-libbluray --enable-libbs2b --enable-libcaca --
enable-libdcadec --enable-libfreetype --enable-libgme --enable-libgsm --enable-l
ibilbc --enable-libmodplug --enable-libmp3lame --enable-libopencore-amrnb --enab
le-libopencore-amrwb --enable-libopenjpeg --enable-libopus --enable-librtmp --en
able-libschroedinger --enable-libsoxr --enable-libspeex --enable-libtheora --ena
ble-libtwolame --enable-libvidstab --enable-libvo-amrwbenc --enable-libvorbis --
enable-libvpx --enable-libwavpack --enable-libwebp --enable-libx264 --enable-lib
x265 --enable-libxavs --enable-libxvid --enable-libzimg --enable-lzma --enable-d
ecklink --enable-zlib
  libavutil      55. 17.100 / 55. 17.100
  libavcodec     57. 24.101 / 57. 24.101
  libavformat    57. 24.100 / 57. 24.100
  libavdevice    57.  0.101 / 57.  0.101
  libavfilter     6. 28.100 /  6. 28.100
  libswscale      4.  0.100 /  4.  0.100
  libswresample   2.  0.101 /  2.  0.101
  libpostproc    54.  0.100 / 54.  0.100
[mov,mp4,m4a,3gp,3g2,mj2 @ 038ae5e0] Could not find codec parameters for stream
0 (Video: none (ImJG / 0x474A6D49), none, 720x486, 12288 kb/s): unknown codec
Consider increasing the value for the 'analyzeduration' and 'probesize' options
ntsc_24bpp.mov: could not find codec parameters
Input #0, mov,mp4,m4a,3gp,3g2,mj2, from 'ntsc_24bpp.mov':
  Metadata:
    major_brand     : qt
    minor_version   : 537199360
    compatible_brands: qt
    creation_time   : 2012-06-05 15:38:59
  Duration: 00:00:00.07, start: 0.000000, bitrate: 12391 kb/s
    Stream #0:0(eng): Video: none (ImJG / 0x474A6D49), none, 720x486, 12288 kb/s
, SAR 10:11 DAR 400:297, 15 fps, 15 tbr, 600 tbn, 600 tbc (default)
    Metadata:
      creation_time   : 2012-06-05 15:38:59
      handler_name    : Procedura obs│ugi skrˇtˇw danych Apple
      encoder         : Affinity Video
At least one output file must be specified

Attachments (4)

ntsc_24bpp.mov (100.8 KB) - added by cehoyos 3 years ago.
ntsc_32bpp.mov (140.8 KB) - added by cehoyos 3 years ago.
pal_24bpp.mov (120.8 KB) - added by cehoyos 3 years ago.
pal_32bpp.mov (170.8 KB) - added by cehoyos 3 years ago.

Download all attachments as: .zip

Change History (7)

Changed 3 years ago by cehoyos

Changed 3 years ago by cehoyos

Changed 3 years ago by cehoyos

Changed 3 years ago by cehoyos

comment:1 Changed 3 years ago by cehoyos

  • Component changed from undetermined to avcodec
  • Priority changed from normal to wish
  • Reproduced by developer set
  • Status changed from new to open
  • Summary changed from Affinivty Video (ImJG) samples to Affinity Video (ImJG) samples
  • Type changed from defect to enhancement
  • Version changed from unspecified to git-master

comment:2 Changed 3 years ago by ami_stuff

this looks like another mjpeg+raw codec like #162 / #970

http://www.datafilehost.com/d/5b84f404

C:\>ffmpeg -vcodec v308 -i imjg_highest_q_24bpp.mov out.avi
ffmpeg version N-78410-g588e2e3 Copyright (c) 2000-2016 the FFmpeg developers
  built with gcc 5.3.0 (GCC)
  configuration: --enable-gpl --enable-version3 --disable-w32threads --enable-av
isynth --enable-bzlib --enable-fontconfig --enable-frei0r --enable-gnutls --enab
le-iconv --enable-libass --enable-libbluray --enable-libbs2b --enable-libcaca --
enable-libdcadec --enable-libfreetype --enable-libgme --enable-libgsm --enable-l
ibilbc --enable-libmodplug --enable-libmp3lame --enable-libopencore-amrnb --enab
le-libopencore-amrwb --enable-libopenjpeg --enable-libopus --enable-librtmp --en
able-libschroedinger --enable-libsoxr --enable-libspeex --enable-libtheora --ena
ble-libtwolame --enable-libvidstab --enable-libvo-amrwbenc --enable-libvorbis --
enable-libvpx --enable-libwavpack --enable-libwebp --enable-libx264 --enable-lib
x265 --enable-libxavs --enable-libxvid --enable-libzimg --enable-lzma --enable-d
ecklink --enable-zlib
  libavutil      55. 17.100 / 55. 17.100
  libavcodec     57. 24.102 / 57. 24.102
  libavformat    57. 25.100 / 57. 25.100
  libavdevice    57.  0.101 / 57.  0.101
  libavfilter     6. 31.100 /  6. 31.100
  libswscale      4.  0.100 /  4.  0.100
  libswresample   2.  0.101 /  2.  0.101
  libpostproc    54.  0.100 / 54.  0.100
Input #0, mov,mp4,m4a,3gp,3g2,mj2, from 'imjg_highest_q_24bpp.mov':
  Metadata:
    major_brand     : qt
    minor_version   : 537199360
    compatible_brands: qt
    creation_time   : 2016-02-22 22:42:18
  Duration: 00:00:05.96, start: 0.000000, bitrate: 45273 kb/s
    Stream #0:0(eng): Video: v308 (ImJG / 0x474A6D49), yuv444p, 320x240, 44957 k
b/s, 8 fps, 8 tbr, 1000k tbn, 1000k tbc (default)
    Metadata:
      creation_time   : 2016-02-22 22:42:18
      handler_name    : Procedura obs│ugi skrˇtˇw danych Apple
      encoder         : Affinity Video
Output #0, avi, to 'out.avi':
  Metadata:
    major_brand     : qt
    minor_version   : 537199360
    compatible_brands: qt
    ISFT            : Lavf57.25.100
    Stream #0:0(eng): Video: mpeg4 (FMP4 / 0x34504D46), yuv420p, 320x240, q=2-31
, 200 kb/s, 8 fps, 8 tbn, 8 tbc (default)
    Metadata:
      creation_time   : 2016-02-22 22:42:18
      handler_name    : Procedura obs│ugi skrˇtˇw danych Apple
      encoder         : Lavc57.24.102 mpeg4
    Side data:
      unknown side data type 10 (24 bytes)
Stream mapping:
  Stream #0:0 -> #0:0 (v308 (native) -> mpeg4 (native))
Press [q] to stop, [?] for help
frame=   48 fps=0.0 q=19.2 Lsize=     369kB time=00:00:06.00 bitrate= 503.3kbits
/s speed= 128x
video:362kB audio:0kB subtitle:0kB other streams:0kB global headers:0kB muxing o
verhead: 1.850738%
Note: See TracTickets for help on using tickets.