Changes between Initial Version and Version 1 of Ticket #4643, comment 9


Ignore:
Timestamp:
Jun 20, 2015, 10:15:59 AM (4 years ago)
Author:
birdie
Comment:

Legend:

Unmodified
Added
Removed
Modified
  • Ticket #4643, comment 9

    initial v1  
    33Duration: 00:20:54.19, start: 0.000000, bitrate: 3339 kb/s
    44  Stream #0:0(eng): Video: h264 (High), yuv420p, 1920x1080 [SAR 1:1 DAR 16:9], 29.83 fps, 29.83 tbr, 1k tbn, 59.67 tbc (default)
    5 Or: 27411 frames.
     5Or: 37411 frames.
    66
    77Source video:
     
    99    Stream #0:0(eng): Video: h264 (Baseline) (avc1 / 0x31637661), yuv420p, 1920x1080, 17000 kb/s, SAR 1:1 DAR 16:9, 29.85 fps, 29.83 tbr, 90ktbn, 180k tbc (default)
    1010Or: 37429 frames
    11 
    12 Actually just 18 frames have been lost during encoding but it's still not very pleasant 'cause it's not clear why the frames were dismissed.