Changes between Initial Version and Version 1 of Ticket #4223, comment 5


Ignore:
Timestamp:
Feb 8, 2015, 7:35:44 AM (5 years ago)
Author:
joseguillermo753
Comment:

Legend:

Unmodified
Added
Removed
Modified
  • Ticket #4223, comment 5

    initial v1  
    11Replying to [ticket:4223 joseguillermo753]:
    2 > Perdonen si no les escribo en inglés a ustedes esque no sé inglés muy bien y no quiero complicarme a ustedes.
    3 >
    4 > No sé si esté permitido pero les voy a decir que el MEJOR PROGRAMA de MULTIMEDIA en LINUX es FFMPEG  y AVCONV qué excelentes programas han hecho y los felicito muy MUY BUENOS PROGRAMAS para convertir,para grabar,cortar,pegar,editar,imágenes. Bueno lo tiene todo muy completo MUCHAS GRACIAS POR ESE PROGRAMA.
    5 >
    6 > Bueno ahora sí la orden para grabar en mi caso es la siguiente:
    7 >
    8 >
    9 > == ffmpeg -f x11grab -s 1024x600  -i :0.0 -f alsa -i hw:0 -qscale 0 -frame_size 50 -y Escritorio/memo.wmv ==
    10 >
    11 > SEA CUAL SEA EL FORMATO DE SALIDA me sale el error en .AVI sale en .WMV .MKV .MP4 no sé de hecho sale en todos los formatos que yo he probado para que graben.
    12 >
    13 > Y el error que me arroja a cada momento es :
    14 >
    15 >
    16 > == [alsa @ 0x85bd960] ALSA buffer xrun ==
    17 >
    18 >
    19 > Y cuando me sale eso en la consola es obvio que el AUDIO de mi MICRÓFONO no graba y se escuchan PITIDOS o se escucha mal y CORTADO.
    20 >
    21 > Entonces cómo hago para solucionar ese error ¿QUÉ TENGO QUE COMPILAR?,¿QUÉ DEBO CAMBIAR?.
    22 >
    23 > Gracias y esto es lo que me arroja la terminal COMPLETO:
    24 >
    25 >
    26 > anaperez@anaperez-Compaq-Mini-CQ10-600:~$
    27 > == ffmpeg -f x11grab -s 1024x600  -i :0.0 -f alsa -i hw:0 -ac 1 -qscale 0 -frame_size 50  -y Escritorio/memo.wmv ==
    28 >
    29 > ffmpeg version 1.2.6-7:1.2.6-1~trusty1 Copyright (c) 2000-2014 the FFmpeg developers
    30 >   built on Apr 26 2014 18:47:56 with gcc 4.8 (Ubuntu 4.8.2-19ubuntu1)
    31 >
    32 >   libavutil      52. 18.100 / 52. 18.100
    33 >   libavcodec     54. 92.100 / 54. 92.100
    34 >   libavformat    54. 63.104 / 54. 63.104
    35 >   libavdevice    53.  5.103 / 53.  5.103
    36 >   libavfilter     3. 42.103 /  3. 42.103
    37 >   libswscale      2.  2.100 /  2.  2.100
    38 >   libswresample   0. 17.102 /  0. 17.102
    39 >   libpostproc    52.  2.100 / 52.  2.100
    40 >
    41 >
    42 > [x11grab @ 0x8db9e80] device: :0.0 -> display: :0.0 x: 0 y: 0 width: 1024 height: 600
    43 > [x11grab @ 0x8db9e80] shared memory extension found
    44 > [x11grab @ 0x8db9e80] Estimating duration from bitrate, this may be inaccurate
    45 > Input #0, x11grab, from ':0.0':
    46 >   Duration: N/A, start: 1420396665.176938, bitrate: 589234 kb/s
    47 >     Stream #0:0: Video: rawvideo (BGR[0] / 0x524742), bgr0, 1024x600, 589234 kb/s, 29.97 tbr, 1000k tbn, 29.97 tbc
    48 > [alsa @ 0x8de3980] Estimating duration from bitrate, this may be inaccurate
    49 > Guessed Channel Layout for  Input Stream #1.0 : stereo
    50 > Input #1, alsa, from 'hw:0':
    51 >   Duration: N/A, start: 1420396665.242909, bitrate: 1536 kb/s
    52 >     Stream #1:0: Audio: pcm_s16le, 48000 Hz, stereo, s16, 1536 kb/s
    53 > Please use -q:a or -q:v, -qscale is ambiguous
    54 > Output #0, asf, to 'Escritorio/memo.wmv':
    55 >   Metadata:
    56 >     WM/EncodingSettings: Lavf54.63.104
    57 >     Stream #0:0: Video: msmpeg4v3 (MP43 / 0x3334504D), yuv420p, 1024x600, q=2-31, 200 kb/s, 1k tbn, 29.97 tbc
    58 >     Stream #0:1: Audio: wmav2 (a[1][0][0] / 0x0161), 48000 Hz, mono, fltp, 128 kb/s
    59 > Stream mapping:
    60 >   Stream #0:0 -> #0:0 (rawvideo -> msmpeg4)
    61 >   Stream #1:0 -> #0:1 (pcm_s16le -> wmav2)
    62 > Press [q] to stop, [?] for help
    63 > [msmpeg4 @ 0x8deeae0] warning, clipping 1 dct coefficients to -127..127
    64 >     Last message repeated 97 times
    65 > frame=    8 fps=0.0 q=0.0 size=     651kB time=00:00:00.26 bitrate=19964.1kbits/s warning, clipping 1 dct coefficients to -127..127
    66 > [msmpeg4 @ 0x8deeae0] warning, clipping 1 dct coefficients to -127..127
    67 >     Last message repeated 18 times
    68 >
    69 > == [alsa @ 0x8de3980] ALSA buffer xrun. ==
    70 >
    71 > frame=   18 fps= 17 q=0.0 size=    1098kB time=00:00:00.60 bitrate=14960.4kbits/s warning, clipping 1 dct coefficients to -127..127
    72 > [msmpeg4 @ 0x8deeae0] warning, clipping 1 dct coefficients to -127..127
    73 >     Last message repeated 73 times
    74 > frame=   31 fps= 19 q=0.0 size=    1748kB time=00:00:01.05 bitrate=13569.7kbits/s ALSA buffer xrun.
    75 > [msmpeg4 @ 0x8deeae0] warning, clipping 1 dct coefficients to -127..127
    76 >     Last message repeated 65 times
    77 > frame=   43 fps= 20 q=0.0 size=    2423kB time=00:00:01.72 bitrate=11484.7kbits/s warning, clipping 1 dct coefficients to -127..127
    78 > [msmpeg4 @ 0x8deeae0] warning, clipping 1 dct coefficients to -127..127
    79 >     Last message repeated 18 times
    80 >
    81 > == [alsa @ 0x8de3980] ALSA buffer xrun. ==
    82 >
    83 > [msmpeg4 @ 0x8deeae0] warning, clipping 1 dct coefficients to -127..127
    84 >     Last message repeated 32 times
    85 > frame=   55 fps= 21 q=0.0 size=    2688kB time=00:00:01.83 bitrate=12000.9kbits/s warning, clipping 1 dct coefficients to -127..127
    86 > [msmpeg4 @ 0x8deeae0] warning, clipping 1 dct coefficients to -127..127
    87 >     Last message repeated 11 times
    88 > warning, clipping 1 dct coefficients to -127..127
    89 > [msmpeg4 @ 0x8deeae0] warning, clipping 1 dct coefficients to -127..127
    90 >     Last message repeated 11 times
    91 > frame=   57 fps= 21 q=0.0 Lsize=    3070kB time=00:00:02.54 bitrate=9899.8kbits/s dup=23 drop=0
    92 > END
    93 > == Estoy usando LUBUNTU 14.04 ==
    94 > Y de casualidad tengo instalado el LUBUNTU 12.10 y me funciona TODO PERFECTO no me sale ese error DE [alsa @ 0x85bd960] ALSA buffer xrun
    95 >
    96 > Espero que me puedan ayudar y gracias MUCHÍSIMAS GRACIAS POR ESE PROGRAMAZO QUE HICIERON FFMPEG Y AVCONV y lamento la situación que esos dos proyectos están pasando.
     2
     3'''SOLUCIONADO (SOLVED''')
     4MIREN LA COSA FUE '''INTENTAR''' Y BAJARLE EL RADIO OSEA EL -R Y '''ME GRABA BIEN''' y '''ya no sale LO DE "ALSA BUFFER XRUN"'''.
     5
     6MIREN ES MUY FÁCIL Y '''ME GRABA PERFECTO''' Y EL AUDIO IGUAL SIN CORTES NI NADA :) :
     7
     8EL 11 LO PUEDEN BAJAR OSEA PONERLE EJEMPLO 9 U 8 O 7 O 6 ...........
     9
     10Lo descubrí viendo que en WINDOWS TODOS los videos DE PRUEBA me grababan o se veían LENTO como a 11 FPS o menos.
     11
     12Y '''Problema solucionado''' Y LA ACTUALIZACIÓN OSEA '''ACTUALIZARLO ESTUVO DE PERLAS''' EXCELENTE Y FELIZ '''AHORA SÍ PUEDO HACER VIDEO TUTORIALES EXCELENTES''' ;)''' GRACIAS'''.
     13
     14'''ffmpeg -f x11grab -r 11 -s 1024x600 -i :0.0 -f alsa -i hw:0 -acodec mp2 -q:v 0 "Escritorio/Video?.avi"'''