Changes between Initial Version and Version 1 of Ticket #3702, comment 4


Ignore:
Timestamp:
Jun 5, 2014, 7:44:58 PM (5 years ago)
Author:
DJX
Comment:

Legend:

Unmodified
Added
Removed
Modified
  • Ticket #3702, comment 4

    initial v1  
    11Correct.
    22FFplay can display the RTP source stream.
     3
     4{{{
     5ffplay rtp://239.255.1.1:59002
     6ffplay version N-63746-gfbaf73a Copyright (c) 2003-2014 the FFmpeg developers
     7  built on Jun  3 2014 22:10:20 with gcc 4.8.2 (GCC)
     8  configuration: --enable-gpl --enable-version3 --disable-w32threads --enable-av
     9isynth --enable-bzlib --enable-fontconfig --enable-frei0r --enable-gnutls --enab
     10le-iconv --enable-libass --enable-libbluray --enable-libcaca --enable-libfreetyp
     11e --enable-libgme --enable-libgsm --enable-libilbc --enable-libmodplug --enable-
     12libmp3lame --enable-libopencore-amrnb --enable-libopencore-amrwb --enable-libope
     13njpeg --enable-libopus --enable-librtmp --enable-libschroedinger --enable-libsox
     14r --enable-libspeex --enable-libtheora --enable-libtwolame --enable-libvidstab -
     15-enable-libvo-aacenc --enable-libvo-amrwbenc --enable-libvorbis --enable-libvpx
     16--enable-libwavpack --enable-libwebp --enable-libx264 --enable-libx265 --enable-
     17libxavs --enable-libxvid --enable-decklink --enable-zlib
     18  libavutil      52. 89.100 / 52. 89.100
     19  libavcodec     55. 66.100 / 55. 66.100
     20  libavformat    55. 42.100 / 55. 42.100
     21  libavdevice    55. 13.101 / 55. 13.101
     22  libavfilter     4.  5.100 /  4.  5.100
     23  libswscale      2.  6.100 /  2.  6.100
     24  libswresample   0. 19.100 /  0. 19.100
     25  libpostproc    52.  3.100 / 52.  3.100
     26[mpeg2video @ 00000000003069c0] Invalid frame dimensions 0x0.=0/0
     27    Last message repeated 4 times
     28[mpeg2video @ 00000000003069c0] Invalid frame dimensions 0x0.=0/0
     29[mpeg2video @ 00000000003069c0] Invalid frame dimensions 0x0.=0/0
     30[mpeg2video @ 00000000003069c0] Invalid frame dimensions 0x0.=0/0
     31[mpeg2video @ 00000000003069c0] Invalid frame dimensions 0x0.=0/0
     32[rtp @ 0000000000303060] Could not find codec parameters for stream 3 (Unknown:
     33none ([134][0][0][0] / 0x0086)): unknown codec
     34Consider increasing the value for the 'analyzeduration' and 'probesize' options
     35Input #0, rtp, from 'rtp://239.255.1.1:59002':
     36  Duration: N/A, start: 25246.133467, bitrate: 384 kb/s
     37  Program 10
     38    Stream #0:1: Video: mpeg2video (Main) ([2][0][0][0] / 0x0002), yuv420p(tv),
     39720x480 [SAR 8:9 DAR 4:3], max. 3080 kb/s, 29.97 fps, 29.97 tbr, 90k tbn, 59.94
     40tbc
     41    Stream #0:2(eng): Audio: ac3 ([129][0][0][0] / 0x0081), 48000 Hz, stereo, fl
     42tp, 192 kb/s
     43    Stream #0:0(spa): Audio: ac3 ([129][0][0][0] / 0x0081), 48000 Hz, stereo, fl
     44tp, 192 kb/s
     45    Stream #0:3: Unknown: none ([134][0][0][0] / 0x0086)
     46[ac3 @ 0000000000305ac0] frame sync error
     47RTP: missed 54 packetsd=   0 aq=  144KB vq= 1088KB sq=    0B f=0/0
     48[rtp @ 0000000000303060] PES packet size mismatch
     49    Last message repeated 1 times
     50[ac3 @ 0000000000305ac0] frame sync errorq= 1946KB sq=    0B f=0/0
     51[mpeg2video @ 00000000003069c0] 00 motion_type at 24 13   0B f=0/0
     52[mpeg2video @ 00000000003069c0] ac-tex damaged at 10 20
     53[mpeg2video @ 00000000003069c0] 00 motion_type at 3 16
     54[mpeg2video @ 00000000003069c0] 00 motion_type at 30 22
     55[mpeg2video @ 00000000003069c0] ac-tex damaged at 21 18
     56[mpeg2video @ 00000000003069c0] slice mismatch
     57    Last message repeated 1 times
     58[mpeg2video @ 00000000003069c0] 00 motion_type at 38 24
     59[mpeg2video @ 00000000003069c0] invalid cbp 0 at 18 19
     60[mpeg2video @ 00000000003069c0] 00 motion_type at 3 25
     61[mpeg2video @ 00000000003069c0] 00 motion_type at 20 26
     62[mpeg2video @ 00000000003069c0] ac-tex damaged at 16 27
     63[mpeg2video @ 00000000003069c0] mb incr damaged
     64    Last message repeated 1 times
     65[mpeg2video @ 00000000003069c0] Warning MVs not available
     66[mpeg2video @ 00000000003069c0] concealing 720 DC, 720 AC, 720 MV errors in P fr
     67ame
     68[ac3 @ 0000000000305ac0] frame sync errorq= 2074KB sq=    0B f=0/1
     6925279.39 A-V:  0.030 fd=   3 aq=  150KB vq= 1994KB sq=    0B f=0/1
     70}}}