Opened 4 years ago

Closed 4 years ago

#3663 closed defect (fixed)

video can't seek to 0

Reported by: hxuanyu Owned by:
Priority: important Component: undetermined
Version: git-master Keywords: mov h264 seek regression
Cc: Blocked By:
Blocking: Reproduced by developer: yes
Analyzed by developer: no

Description (last modified by cehoyos)

ffplay plays attached video correctly with ./ffplay.exe filename, but failed to play with ./ffplay.exe -ss 0 filename

https://dl.dropboxusercontent.com/u/89678527/v_avc1_25_yuv420p_0.mov

$ ffplay.exe -ss 0 v_avc1_25_yuv420p_0.mov
ffplay version N-63281-g76191c0 Copyright (c) 2003-2014 the FFmpeg developers
  built on May 18 2014 22:01:49 with gcc 4.8.2 (GCC)
  configuration: --enable-gpl --enable-version3 --disable-w32threads --enable-avisynth --enable-bzlib --enable-fontconfig --enable-frei0r --enable-gnutls --enable-iconv --enable-libass --enable-libbluray --enable-libcaca --enable-libfreetype --enable-libgme --enable-libgsm --enable-libilbc --enable-libmodplug --enable-libmp3lame --enable-libopencore-amrnb --enable-libopencore-amrwb --enable-libopenjpeg --enable-libopus --enable-librtmp --enable-libschroedinger --enable-libsoxr --enable-libspeex --enable-libtheora --enable-libtwolame --enable-libvidstab --enable-libvo-aacenc --enable-libvo-amrwbenc --enable-libvorbis --enable-libvpx --enable-libwavpack --enable-libwebp --enable-libx264 --enable-libx265 --enable-libxavs --enable-libxvid --enable-decklink --enable-zlib
  libavutil      52. 84.100 / 52. 84.100
  libavcodec     55. 63.100 / 55. 63.100
  libavformat    55. 38.100 / 55. 38.100
  libavdevice    55. 13.101 / 55. 13.101
  libavfilter     4.  5.100 /  4.  5.100
  libswscale      2.  6.100 /  2.  6.100
  libswresample   0. 19.100 /  0. 19.100
  libpostproc    52.  3.100 / 52.  3.100
[NULL @ 03626880] illegal reordering_of_pic_nums_idc 5   0B f=0/0
[NULL @ 03626880] illegal reordering_of_pic_nums_idc 6
[NULL @ 03626880] reference count 1 overflow
[NULL @ 03626880] illegal reordering_of_pic_nums_idc 18
[NULL @ 03626880] reference count 1 overflow
    Last message repeated 1 times
[NULL @ 03626880] illegal reordering_of_pic_nums_idc 6
[NULL @ 03626880] illegal reordering_of_pic_nums_idc 7
[NULL @ 03626880] illegal reordering_of_pic_nums_idc 31
[NULL @ 03626880] illegal reordering_of_pic_nums_idc 13
[NULL @ 03626880] illegal reordering_of_pic_nums_idc 19
[NULL @ 03626880] illegal reordering_of_pic_nums_idc 14
[NULL @ 03626880] illegal reordering_of_pic_nums_idc 21
[NULL @ 03626880] illegal reordering_of_pic_nums_idc 27
[NULL @ 03626880] illegal reordering_of_pic_nums_idc 14
[NULL @ 03626880] illegal reordering_of_pic_nums_idc 12
[NULL @ 03626880] reference count 1 overflow
[NULL @ 03626880] illegal reordering_of_pic_nums_idc 31
[NULL @ 03626880] reference count 1 overflow
[NULL @ 03626880] illegal reordering_of_pic_nums_idc 5
[NULL @ 03626880] illegal reordering_of_pic_nums_idc 20
[NULL @ 03626880] illegal reordering_of_pic_nums_idc 7
[NULL @ 03626880] illegal reordering_of_pic_nums_idc 31
[NULL @ 03626880] illegal reordering_of_pic_nums_idc 5
[NULL @ 03626880] reference count 1 overflow
[NULL @ 03626880] illegal reordering_of_pic_nums_idc 10
[NULL @ 03626880] reference count 1 overflow
[NULL @ 03626880] illegal reordering_of_pic_nums_idc 10
[NULL @ 03626880] illegal reordering_of_pic_nums_idc 5
    Last message repeated 1 times
[NULL @ 03626880] illegal reordering_of_pic_nums_idc 7
[NULL @ 03626880] illegal reordering_of_pic_nums_idc 27
[NULL @ 03626880] illegal reordering_of_pic_nums_idc 9
[NULL @ 03626880] illegal reordering_of_pic_nums_idc 11
    Last message repeated 1 times
[NULL @ 03626880] illegal reordering_of_pic_nums_idc 13
[NULL @ 03626880] reference count 1 overflow
[NULL @ 03626880] illegal reordering_of_pic_nums_idc 31
[NULL @ 03626880] reference count 1 overflow
[NULL @ 03626880] illegal reordering_of_pic_nums_idc 5
    Last message repeated 1 times
[NULL @ 03626880] illegal reordering_of_pic_nums_idc 9
[NULL @ 03626880] reference count 1 overflow
[NULL @ 03626880] illegal reordering_of_pic_nums_idc 31
[NULL @ 03626880] reference count 1 overflow
[NULL @ 03626880] illegal reordering_of_pic_nums_idc 23
[NULL @ 03626880] illegal reordering_of_pic_nums_idc 22
[NULL @ 03626880] illegal reordering_of_pic_nums_idc 19
[NULL @ 03626880] illegal reordering_of_pic_nums_idc 17
[NULL @ 03626880] reference count 1 overflow
[NULL @ 03626880] illegal reordering_of_pic_nums_idc 31
[NULL @ 03626880] illegal reordering_of_pic_nums_idc 32
[NULL @ 03626880] illegal reordering_of_pic_nums_idc 9
[NULL @ 03626880] illegal reordering_of_pic_nums_idc 21
[NULL @ 03626880] illegal reordering_of_pic_nums_idc 4
[NULL @ 03626880] reference count 1 overflow
[NULL @ 03626880] illegal reordering_of_pic_nums_idc 4
[NULL @ 03626880] illegal reordering_of_pic_nums_idc 6
    Last message repeated 1 times
[NULL @ 03626880] illegal reordering_of_pic_nums_idc 11
    Last message repeated 1 times
[NULL @ 03626880] illegal reordering_of_pic_nums_idc 5
[NULL @ 03626880] illegal reordering_of_pic_nums_idc 12
[NULL @ 03626880] illegal reordering_of_pic_nums_idc 8
[NULL @ 03626880] illegal reordering_of_pic_nums_idc 29
[NULL @ 03626880] illegal reordering_of_pic_nums_idc 10
    Last message repeated 1 times
[NULL @ 03626880] illegal reordering_of_pic_nums_idc 9
[NULL @ 03626880] illegal reordering_of_pic_nums_idc 24
[NULL @ 03626880] illegal reordering_of_pic_nums_idc 25
[NULL @ 03626880] illegal reordering_of_pic_nums_idc 5
[NULL @ 03626880] illegal reordering_of_pic_nums_idc 12
[NULL @ 03626880] illegal reordering_of_pic_nums_idc 24
[NULL @ 03626880] illegal reordering_of_pic_nums_idc 5
[NULL @ 03626880] illegal reordering_of_pic_nums_idc 6
[NULL @ 03626880] reference count 1 overflow
[NULL @ 03626880] illegal reordering_of_pic_nums_idc 5
[NULL @ 03626880] illegal reordering_of_pic_nums_idc 11
[NULL @ 03626880] illegal reordering_of_pic_nums_idc 5
    Last message repeated 1 times
[NULL @ 03626880] illegal reordering_of_pic_nums_idc 11
[NULL @ 03626880] illegal reordering_of_pic_nums_idc 12
[NULL @ 03626880] illegal reordering_of_pic_nums_idc 5
    Last message repeated 1 times
[NULL @ 03626880] illegal reordering_of_pic_nums_idc 19
[NULL @ 03626880] illegal reordering_of_pic_nums_idc 18
[NULL @ 03626880] illegal reordering_of_pic_nums_idc 11
[NULL @ 03626880] illegal reordering_of_pic_nums_idc 31
[NULL @ 03626880] illegal reordering_of_pic_nums_idc 28
[NULL @ 03626880] illegal reordering_of_pic_nums_idc 4
[NULL @ 03626880] illegal reordering_of_pic_nums_idc 31
[NULL @ 03626880] illegal reordering_of_pic_nums_idc 12
[NULL @ 03626880] illegal reordering_of_pic_nums_idc 16
[NULL @ 03626880] reference count 1 overflow
    Last message repeated 2 times
[NULL @ 03626880] illegal reordering_of_pic_nums_idc 6
[NULL @ 03626880] illegal reordering_of_pic_nums_idc 20
[NULL @ 03626880] illegal reordering_of_pic_nums_idc 15
[NULL @ 03626880] illegal reordering_of_pic_nums_idc 11
[NULL @ 03626880] illegal reordering_of_pic_nums_idc 15
[NULL @ 03626880] illegal reordering_of_pic_nums_idc 18
[NULL @ 03626880] illegal reordering_of_pic_nums_idc 31
[NULL @ 03626880] illegal reordering_of_pic_nums_idc 7
[NULL @ 03626880] illegal reordering_of_pic_nums_idc 19
[NULL @ 03626880] illegal reordering_of_pic_nums_idc 23
[NULL @ 03626880] reference count 1 overflow
    Last message repeated 1 times
[NULL @ 03626880] illegal reordering_of_pic_nums_idc 17
[NULL @ 03626880] reference count 1 overflow
    Last message repeated 7 times
[NULL @ 03626880] illegal reordering_of_pic_nums_idc 8
[NULL @ 03626880] reference count 1 overflow
    Last message repeated 3 times
[NULL @ 03626880] illegal reordering_of_pic_nums_idc 9
[NULL @ 03626880] illegal reordering_of_pic_nums_idc 10
[NULL @ 03626880] reference count 1 overflow
[NULL @ 03626880] illegal reordering_of_pic_nums_idc 8
[NULL @ 03626880] reference count 1 overflow
[NULL @ 03626880] illegal reordering_of_pic_nums_idc 6
[NULL @ 03626880] reference count 1 overflow
[NULL @ 03626880] illegal reordering_of_pic_nums_idc 8
[NULL @ 03626880] illegal reordering_of_pic_nums_idc 10
[NULL @ 03626880] reference count 1 overflow
    Last message repeated 3 times
[NULL @ 03626880] illegal reordering_of_pic_nums_idc 4
[NULL @ 03626880] reference count 1 overflow
    Last message repeated 4 times
[NULL @ 03626880] illegal reordering_of_pic_nums_idc 4
[NULL @ 03626880] reference count 1 overflow
    Last message repeated 2 times
[NULL @ 03626880] illegal reordering_of_pic_nums_idc 7
[NULL @ 03626880] reference count 1 overflow
    Last message repeated 1 times
[NULL @ 03626880] illegal reordering_of_pic_nums_idc 10
    Last message repeated 1 times
[NULL @ 03626880] illegal reordering_of_pic_nums_idc 7
    Last message repeated 1 times
[NULL @ 03626880] illegal reordering_of_pic_nums_idc 8
[NULL @ 03626880] reference count 1 overflow
[NULL @ 03626880] illegal reordering_of_pic_nums_idc 6
[NULL @ 03626880] reference count 1 overflow
    Last message repeated 1 times
[NULL @ 03626880] illegal reordering_of_pic_nums_idc 10
[NULL @ 03626880] reference count 1 overflow
    Last message repeated 1 times
[NULL @ 03626880] illegal reordering_of_pic_nums_idc 9
[NULL @ 03626880] reference count 1 overflow
    Last message repeated 4 times
[NULL @ 03626880] illegal reordering_of_pic_nums_idc 4
[NULL @ 03626880] illegal reordering_of_pic_nums_idc 7
[NULL @ 03626880] reference count 1 overflow
[NULL @ 03626880] illegal reordering_of_pic_nums_idc 11
v_avc1_25_yuv420p_0.mov: could not seek to position 0.000
Input #0, mov,mp4,m4a,3gp,3g2,mj2, from 'v_avc1_25_yuv420p_0.mov':
  Metadata:
    major_brand     : qt
    minor_version   : 512
    compatible_brands: qt
    creation_time   : 1970-01-01 00:00:00
    encoder         : Lavf51.8.0
    encoder-eng     : Lavf51.8.0
  Duration: 00:00:17.96, start: 0.000000, bitrate: 3308 kb/s
    Stream #0:0(eng): Video: h264 (Baseline) (avc1 / 0x31637661), yuv420p, 704x576, 3306 kb/s, 25 fps, 25 tbr, 25 tbn, 50 tbc (default)
    Metadata:
      creation_time   : 1970-01-01 00:00:00
      handler_name    : DataHandler
      encoder         : ffh264
    nan M-V:    nan fd=   0 aq=    0KB vq=    0KB sq=    0B f=0/0

Change History (4)

comment:1 follow-up: Changed 4 years ago by cehoyos

Is the issue not reproducible with ffmpeg?

comment:2 in reply to: ↑ 1 Changed 4 years ago by hxuanyu

Replying to cehoyos:

Is the issue not reproducible with ffmpeg?

Hi cehoyos, ffmpeg -ss 0 failed to convert the file

$ ffmpeg.exe -ss 0 -i v_avc1_25_yuv420p_0.mov b.mp4
ffmpeg version N-63281-g76191c0 Copyright (c) 2000-2014 the FFmpeg developers

built on May 18 2014 22:01:49 with gcc 4.8.2 (GCC)
configuration: --enable-gpl --enable-version3 --disable-w32threads --enable-avisynth --enable-bzlib --enable-fontconfig --enable-frei0r --enable-gnutls --enable-iconv --enable-libass --enable-libbluray --enable-libcaca --enable-libfreetype --enable-libgme --enable-libgsm --enable-libilbc --enable-libmodplug --enable-libmp3lame --enable-libopencore-amrnb --enable-libopencore-amrwb --enable-libopenjpeg --enable-libopus --enable-librtmp --enable-libschroedinger --enable-libsoxr --enable-libspeex --enable-libtheora --enable-libtwolame --enable-libvidstab --enable-libvo-aacenc --enable-libvo-amrwbenc --enable-libvorbis --enable-libvpx --enable-libwavpack --enable-libwebp --enable-libx264 --enable-libx265 --enable-libxavs --enable-libxvid --enable-decklink --enable-zlib
libavutil 52. 84.100 / 52. 84.100
libavcodec 55. 63.100 / 55. 63.100
libavformat 55. 38.100 / 55. 38.100
libavdevice 55. 13.101 / 55. 13.101
libavfilter 4. 5.100 / 4. 5.100
libswscale 2. 6.100 / 2. 6.100
libswresample 0. 19.100 / 0. 19.100
libpostproc 52. 3.100 / 52. 3.100

[NULL @ 003af820] illegal reordering_of_pic_nums_idc 5
[NULL @ 003af820] illegal reordering_of_pic_nums_idc 6
[NULL @ 003af820] reference count 1 overflow
[NULL @ 003af820] illegal reordering_of_pic_nums_idc 18
[NULL @ 003af820] reference count 1 overflow

Last message repeated 1 times

[NULL @ 003af820] illegal reordering_of_pic_nums_idc 6
[NULL @ 003af820] illegal reordering_of_pic_nums_idc 7
[NULL @ 003af820] illegal reordering_of_pic_nums_idc 31
[NULL @ 003af820] illegal reordering_of_pic_nums_idc 13
[NULL @ 003af820] illegal reordering_of_pic_nums_idc 19
[NULL @ 003af820] illegal reordering_of_pic_nums_idc 14
[NULL @ 003af820] illegal reordering_of_pic_nums_idc 21
[NULL @ 003af820] illegal reordering_of_pic_nums_idc 27
[NULL @ 003af820] illegal reordering_of_pic_nums_idc 14
[NULL @ 003af820] illegal reordering_of_pic_nums_idc 12
[NULL @ 003af820] reference count 1 overflow
[NULL @ 003af820] illegal reordering_of_pic_nums_idc 31
[NULL @ 003af820] reference count 1 overflow
[NULL @ 003af820] illegal reordering_of_pic_nums_idc 5
[NULL @ 003af820] illegal reordering_of_pic_nums_idc 20
[NULL @ 003af820] illegal reordering_of_pic_nums_idc 7
[NULL @ 003af820] illegal reordering_of_pic_nums_idc 31
[NULL @ 003af820] illegal reordering_of_pic_nums_idc 5
[NULL @ 003af820] reference count 1 overflow
[NULL @ 003af820] illegal reordering_of_pic_nums_idc 10
[NULL @ 003af820] reference count 1 overflow
[NULL @ 003af820] illegal reordering_of_pic_nums_idc 10
[NULL @ 003af820] illegal reordering_of_pic_nums_idc 5

Last message repeated 1 times

[NULL @ 003af820] illegal reordering_of_pic_nums_idc 7
[NULL @ 003af820] illegal reordering_of_pic_nums_idc 27
[NULL @ 003af820] illegal reordering_of_pic_nums_idc 9
[NULL @ 003af820] illegal reordering_of_pic_nums_idc 11

Last message repeated 1 times

[NULL @ 003af820] illegal reordering_of_pic_nums_idc 13
[NULL @ 003af820] reference count 1 overflow
[NULL @ 003af820] illegal reordering_of_pic_nums_idc 31
[NULL @ 003af820] reference count 1 overflow
[NULL @ 003af820] illegal reordering_of_pic_nums_idc 5

Last message repeated 1 times

[NULL @ 003af820] illegal reordering_of_pic_nums_idc 9
[NULL @ 003af820] reference count 1 overflow
[NULL @ 003af820] illegal reordering_of_pic_nums_idc 31
[NULL @ 003af820] reference count 1 overflow
[NULL @ 003af820] illegal reordering_of_pic_nums_idc 23
[NULL @ 003af820] illegal reordering_of_pic_nums_idc 22
[NULL @ 003af820] illegal reordering_of_pic_nums_idc 19
[NULL @ 003af820] illegal reordering_of_pic_nums_idc 17
[NULL @ 003af820] reference count 1 overflow
[NULL @ 003af820] illegal reordering_of_pic_nums_idc 31
[NULL @ 003af820] illegal reordering_of_pic_nums_idc 32
[NULL @ 003af820] illegal reordering_of_pic_nums_idc 9
[NULL @ 003af820] illegal reordering_of_pic_nums_idc 21
[NULL @ 003af820] illegal reordering_of_pic_nums_idc 4
[NULL @ 003af820] reference count 1 overflow
[NULL @ 003af820] illegal reordering_of_pic_nums_idc 4
[NULL @ 003af820] illegal reordering_of_pic_nums_idc 6

Last message repeated 1 times

[NULL @ 003af820] illegal reordering_of_pic_nums_idc 11

Last message repeated 1 times

[NULL @ 003af820] illegal reordering_of_pic_nums_idc 5
[NULL @ 003af820] illegal reordering_of_pic_nums_idc 12
[NULL @ 003af820] illegal reordering_of_pic_nums_idc 8
[NULL @ 003af820] illegal reordering_of_pic_nums_idc 29
[NULL @ 003af820] illegal reordering_of_pic_nums_idc 10

Last message repeated 1 times

[NULL @ 003af820] illegal reordering_of_pic_nums_idc 9
[NULL @ 003af820] illegal reordering_of_pic_nums_idc 24
[NULL @ 003af820] illegal reordering_of_pic_nums_idc 25
[NULL @ 003af820] illegal reordering_of_pic_nums_idc 5
[NULL @ 003af820] illegal reordering_of_pic_nums_idc 12
[NULL @ 003af820] illegal reordering_of_pic_nums_idc 24
[NULL @ 003af820] illegal reordering_of_pic_nums_idc 5
[NULL @ 003af820] illegal reordering_of_pic_nums_idc 6
[NULL @ 003af820] reference count 1 overflow
[NULL @ 003af820] illegal reordering_of_pic_nums_idc 5
[NULL @ 003af820] illegal reordering_of_pic_nums_idc 11
[NULL @ 003af820] illegal reordering_of_pic_nums_idc 5

Last message repeated 1 times

[NULL @ 003af820] illegal reordering_of_pic_nums_idc 11
[NULL @ 003af820] illegal reordering_of_pic_nums_idc 12
[NULL @ 003af820] illegal reordering_of_pic_nums_idc 5

Last message repeated 1 times

[NULL @ 003af820] illegal reordering_of_pic_nums_idc 19
[NULL @ 003af820] illegal reordering_of_pic_nums_idc 18
[NULL @ 003af820] illegal reordering_of_pic_nums_idc 11
[NULL @ 003af820] illegal reordering_of_pic_nums_idc 31
[NULL @ 003af820] illegal reordering_of_pic_nums_idc 28
[NULL @ 003af820] illegal reordering_of_pic_nums_idc 4
[NULL @ 003af820] illegal reordering_of_pic_nums_idc 31
[NULL @ 003af820] illegal reordering_of_pic_nums_idc 12
[NULL @ 003af820] illegal reordering_of_pic_nums_idc 16
[NULL @ 003af820] reference count 1 overflow

Last message repeated 2 times

[NULL @ 003af820] illegal reordering_of_pic_nums_idc 6
[NULL @ 003af820] illegal reordering_of_pic_nums_idc 20
[NULL @ 003af820] illegal reordering_of_pic_nums_idc 15
[NULL @ 003af820] illegal reordering_of_pic_nums_idc 11
[NULL @ 003af820] illegal reordering_of_pic_nums_idc 15
[NULL @ 003af820] illegal reordering_of_pic_nums_idc 18
[NULL @ 003af820] illegal reordering_of_pic_nums_idc 31
[NULL @ 003af820] illegal reordering_of_pic_nums_idc 7
[NULL @ 003af820] illegal reordering_of_pic_nums_idc 19
[NULL @ 003af820] illegal reordering_of_pic_nums_idc 23
[NULL @ 003af820] reference count 1 overflow

Last message repeated 1 times

[NULL @ 003af820] illegal reordering_of_pic_nums_idc 17
[NULL @ 003af820] reference count 1 overflow

Last message repeated 7 times

[NULL @ 003af820] illegal reordering_of_pic_nums_idc 8
[NULL @ 003af820] reference count 1 overflow

Last message repeated 3 times

[NULL @ 003af820] illegal reordering_of_pic_nums_idc 9
[NULL @ 003af820] illegal reordering_of_pic_nums_idc 10
[NULL @ 003af820] reference count 1 overflow
[NULL @ 003af820] illegal reordering_of_pic_nums_idc 8
[NULL @ 003af820] reference count 1 overflow
[NULL @ 003af820] illegal reordering_of_pic_nums_idc 6
[NULL @ 003af820] reference count 1 overflow
[NULL @ 003af820] illegal reordering_of_pic_nums_idc 8
[NULL @ 003af820] illegal reordering_of_pic_nums_idc 10
[NULL @ 003af820] reference count 1 overflow

Last message repeated 3 times

[NULL @ 003af820] illegal reordering_of_pic_nums_idc 4
[NULL @ 003af820] reference count 1 overflow

Last message repeated 4 times

[NULL @ 003af820] illegal reordering_of_pic_nums_idc 4
[NULL @ 003af820] reference count 1 overflow

Last message repeated 2 times

[NULL @ 003af820] illegal reordering_of_pic_nums_idc 7
[NULL @ 003af820] reference count 1 overflow

Last message repeated 1 times

[NULL @ 003af820] illegal reordering_of_pic_nums_idc 10

Last message repeated 1 times

[NULL @ 003af820] illegal reordering_of_pic_nums_idc 7

Last message repeated 1 times

[NULL @ 003af820] illegal reordering_of_pic_nums_idc 8
[NULL @ 003af820] reference count 1 overflow
[NULL @ 003af820] illegal reordering_of_pic_nums_idc 6
[NULL @ 003af820] reference count 1 overflow

Last message repeated 1 times

[NULL @ 003af820] illegal reordering_of_pic_nums_idc 10
[NULL @ 003af820] reference count 1 overflow

Last message repeated 1 times

[NULL @ 003af820] illegal reordering_of_pic_nums_idc 9
[NULL @ 003af820] reference count 1 overflow

Last message repeated 4 times

[NULL @ 003af820] illegal reordering_of_pic_nums_idc 4
[NULL @ 003af820] illegal reordering_of_pic_nums_idc 7
[NULL @ 003af820] reference count 1 overflow
[NULL @ 003af820] illegal reordering_of_pic_nums_idc 11
v_avc1_25_yuv420p_0.mov: could not seek to position 0.000
Input #0, mov,mp4,m4a,3gp,3g2,mj2, from 'v_avc1_25_yuv420p_0.mov':

Metadata:

major_brand : qt
minor_version : 512
compatible_brands: qt
creation_time : 1970-01-01 00:00:00
encoder : Lavf51.8.0
encoder-eng : Lavf51.8.0

Duration: 00:00:17.96, start: 0.000000, bitrate: 3308 kb/s

Stream #0:0(eng): Video: h264 (Baseline) (avc1 / 0x31637661), yuv420p, 704x576, 3306 kb/s, 25 fps, 25 tbr, 25 tbn, 50 tbc (default)
Metadata:

creation_time : 1970-01-01 00:00:00
handler_name : DataHandler?
encoder : ffh264

File 'b.mp4' already exists. Overwrite ? [y/N] y
[libx264 @ 003adf80] using cpu capabilities: MMX2 SSE2Fast SSSE3 SSE4.2 AVX
[libx264 @ 003adf80] profile High, level 3.0
[libx264 @ 003adf80] 264 - core 142 r2431 ac76440 - H.264/MPEG-4 AVC codec - Copyleft 2003-2014 - http://www.videolan.org/x264.html - options: cabac=1 ref=3 deblock=1:0:0 analyse=0x3:0x113 me=hex subme=7 psy=1 psy_rd=1.00:0.00 mixed_ref=1 me_range=16 chroma_me=1 trellis=1 8x8dct=1 cqm=0 deadzone=21,11 fast_pskip=1 chroma_qp_offset=-2 threads=6 lookahead_threads=1 sliced_threads=0 nr=0 decimate=1 interlaced=0 bluray_compat=0 constrained_intra=0 bframes=3 b_pyramid=2 b_adapt=1 b_bias=0 direct=1 weightb=1 open_gop=0 weightp=2 keyint=250 keyint_min=25 scenecut=40 intra_refresh=0 rc_lookahead=40 rc=crf mbtree=1 crf=23.0 qcomp=0.60 qpmin=0 qpmax=69 qpstep=4 ip_ratio=1.40 aq=1:1.00
Output #0, mp4, to 'b.mp4':

Metadata:

major_brand : qt
minor_version : 512
compatible_brands: qt
encoder-eng : Lavf51.8.0
encoder : Lavf55.38.100
Stream #0:0(eng): Video: h264 (libx264) ([33][0][0][0] / 0x0021), yuv420p, 704x576, q=-1--1, 25 fps, 12800 tbn, 25 tbc (default)
Metadata:

creation_time : 1970-01-01 00:00:00
handler_name : DataHandler?
encoder : ffh264

Stream mapping:

Stream #0:0 -> #0:0 (h264 -> libx264)

Press [q] to stop, ? for help
frame= 0 fps=0.0 q=0.0 Lsize= 0kB time=00:00:00.00 bitrate=N/A
video:0kB audio:0kB subtitle:0kB other streams:0kB global headers:0kB muxing overhead: unknown

comment:3 Changed 4 years ago by cehoyos

  • Description modified (diff)
  • Keywords mov h264 seek regression added
  • Priority changed from normal to important
  • Reproduced by developer set
  • Status changed from new to open
  • Version changed from unspecified to git-master

Regression since 7432bcf / accea4d9 possibly related to tickets #2991 and #3362.
(For ffmpeg this is only reproducible since 3fa72de8 because -ss 0 was ignored previously iiuc.)

$ ffmpeg -ss 0 -i v_avc1_25_yuv420p_0.mov -qscale 2 -t 4 out.avi
ffmpeg version N-63381-g64bf845 Copyright (c) 2000-2014 the FFmpeg developers
  built on May 23 2014 09:47:19 with gcc 4.7 (SUSE Linux)
  configuration: --enable-gpl
  libavutil      52. 86.100 / 52. 86.100
  libavcodec     55. 63.100 / 55. 63.100
  libavformat    55. 40.100 / 55. 40.100
  libavdevice    55. 13.101 / 55. 13.101
  libavfilter     4.  5.100 /  4.  5.100
  libswscale      2.  6.100 /  2.  6.100
  libswresample   0. 19.100 /  0. 19.100
  libpostproc    52.  3.100 / 52.  3.100
[NULL @ 0x1d86d00] illegal reordering_of_pic_nums_idc 5
[NULL @ 0x1d86d00] illegal reordering_of_pic_nums_idc 6
[NULL @ 0x1d86d00] reference count 1 overflow
[NULL @ 0x1d86d00] illegal reordering_of_pic_nums_idc 18
[NULL @ 0x1d86d00] reference count 1 overflow
    Last message repeated 1 times
[NULL @ 0x1d86d00] illegal reordering_of_pic_nums_idc 6
[NULL @ 0x1d86d00] illegal reordering_of_pic_nums_idc 7
[NULL @ 0x1d86d00] illegal reordering_of_pic_nums_idc 31
[NULL @ 0x1d86d00] illegal reordering_of_pic_nums_idc 13
[NULL @ 0x1d86d00] illegal reordering_of_pic_nums_idc 19
[NULL @ 0x1d86d00] illegal reordering_of_pic_nums_idc 14
[NULL @ 0x1d86d00] illegal reordering_of_pic_nums_idc 21
[NULL @ 0x1d86d00] illegal reordering_of_pic_nums_idc 27
[NULL @ 0x1d86d00] illegal reordering_of_pic_nums_idc 14
[NULL @ 0x1d86d00] illegal reordering_of_pic_nums_idc 12
[NULL @ 0x1d86d00] reference count 1 overflow
[NULL @ 0x1d86d00] illegal reordering_of_pic_nums_idc 31
[NULL @ 0x1d86d00] reference count 1 overflow
[NULL @ 0x1d86d00] illegal reordering_of_pic_nums_idc 5
[NULL @ 0x1d86d00] illegal reordering_of_pic_nums_idc 20
[NULL @ 0x1d86d00] illegal reordering_of_pic_nums_idc 7
[NULL @ 0x1d86d00] illegal reordering_of_pic_nums_idc 31
[NULL @ 0x1d86d00] illegal reordering_of_pic_nums_idc 5
[NULL @ 0x1d86d00] reference count 1 overflow
[NULL @ 0x1d86d00] illegal reordering_of_pic_nums_idc 10
[NULL @ 0x1d86d00] reference count 1 overflow
[NULL @ 0x1d86d00] illegal reordering_of_pic_nums_idc 10
[NULL @ 0x1d86d00] illegal reordering_of_pic_nums_idc 5
    Last message repeated 1 times
[NULL @ 0x1d86d00] illegal reordering_of_pic_nums_idc 7
[NULL @ 0x1d86d00] illegal reordering_of_pic_nums_idc 27
[NULL @ 0x1d86d00] illegal reordering_of_pic_nums_idc 9
[NULL @ 0x1d86d00] illegal reordering_of_pic_nums_idc 11
    Last message repeated 1 times
[NULL @ 0x1d86d00] illegal reordering_of_pic_nums_idc 13
[NULL @ 0x1d86d00] reference count 1 overflow
[NULL @ 0x1d86d00] illegal reordering_of_pic_nums_idc 31
[NULL @ 0x1d86d00] reference count 1 overflow
[NULL @ 0x1d86d00] illegal reordering_of_pic_nums_idc 5
    Last message repeated 1 times
[NULL @ 0x1d86d00] illegal reordering_of_pic_nums_idc 9
[NULL @ 0x1d86d00] reference count 1 overflow
[NULL @ 0x1d86d00] illegal reordering_of_pic_nums_idc 31
[NULL @ 0x1d86d00] reference count 1 overflow
[NULL @ 0x1d86d00] illegal reordering_of_pic_nums_idc 23
[NULL @ 0x1d86d00] illegal reordering_of_pic_nums_idc 22
[NULL @ 0x1d86d00] illegal reordering_of_pic_nums_idc 19
[NULL @ 0x1d86d00] illegal reordering_of_pic_nums_idc 17
[NULL @ 0x1d86d00] reference count 1 overflow
[NULL @ 0x1d86d00] illegal reordering_of_pic_nums_idc 31
[NULL @ 0x1d86d00] illegal reordering_of_pic_nums_idc 32
[NULL @ 0x1d86d00] illegal reordering_of_pic_nums_idc 9
[NULL @ 0x1d86d00] illegal reordering_of_pic_nums_idc 21
[NULL @ 0x1d86d00] illegal reordering_of_pic_nums_idc 4
[NULL @ 0x1d86d00] reference count 1 overflow
[NULL @ 0x1d86d00] illegal reordering_of_pic_nums_idc 4
[NULL @ 0x1d86d00] illegal reordering_of_pic_nums_idc 6
    Last message repeated 1 times
[NULL @ 0x1d86d00] illegal reordering_of_pic_nums_idc 11
    Last message repeated 1 times
[NULL @ 0x1d86d00] illegal reordering_of_pic_nums_idc 5
[NULL @ 0x1d86d00] illegal reordering_of_pic_nums_idc 12
[NULL @ 0x1d86d00] illegal reordering_of_pic_nums_idc 8
[NULL @ 0x1d86d00] illegal reordering_of_pic_nums_idc 29
[NULL @ 0x1d86d00] illegal reordering_of_pic_nums_idc 10
    Last message repeated 1 times
[NULL @ 0x1d86d00] illegal reordering_of_pic_nums_idc 9
[NULL @ 0x1d86d00] illegal reordering_of_pic_nums_idc 24
[NULL @ 0x1d86d00] illegal reordering_of_pic_nums_idc 25
[NULL @ 0x1d86d00] illegal reordering_of_pic_nums_idc 5
[NULL @ 0x1d86d00] illegal reordering_of_pic_nums_idc 12
[NULL @ 0x1d86d00] illegal reordering_of_pic_nums_idc 24
[NULL @ 0x1d86d00] illegal reordering_of_pic_nums_idc 5
[NULL @ 0x1d86d00] illegal reordering_of_pic_nums_idc 6
[NULL @ 0x1d86d00] reference count 1 overflow
[NULL @ 0x1d86d00] illegal reordering_of_pic_nums_idc 5
[NULL @ 0x1d86d00] illegal reordering_of_pic_nums_idc 11
[NULL @ 0x1d86d00] illegal reordering_of_pic_nums_idc 5
    Last message repeated 1 times
[NULL @ 0x1d86d00] illegal reordering_of_pic_nums_idc 11
[NULL @ 0x1d86d00] illegal reordering_of_pic_nums_idc 12
[NULL @ 0x1d86d00] illegal reordering_of_pic_nums_idc 5
    Last message repeated 1 times
[NULL @ 0x1d86d00] illegal reordering_of_pic_nums_idc 19
[NULL @ 0x1d86d00] illegal reordering_of_pic_nums_idc 18
[NULL @ 0x1d86d00] illegal reordering_of_pic_nums_idc 11
[NULL @ 0x1d86d00] illegal reordering_of_pic_nums_idc 31
[NULL @ 0x1d86d00] illegal reordering_of_pic_nums_idc 28
[NULL @ 0x1d86d00] illegal reordering_of_pic_nums_idc 4
[NULL @ 0x1d86d00] illegal reordering_of_pic_nums_idc 31
[NULL @ 0x1d86d00] illegal reordering_of_pic_nums_idc 12
[NULL @ 0x1d86d00] illegal reordering_of_pic_nums_idc 16
[NULL @ 0x1d86d00] reference count 1 overflow
    Last message repeated 2 times
[NULL @ 0x1d86d00] illegal reordering_of_pic_nums_idc 6
[NULL @ 0x1d86d00] illegal reordering_of_pic_nums_idc 20
[NULL @ 0x1d86d00] illegal reordering_of_pic_nums_idc 15
[NULL @ 0x1d86d00] illegal reordering_of_pic_nums_idc 11
[NULL @ 0x1d86d00] illegal reordering_of_pic_nums_idc 15
[NULL @ 0x1d86d00] illegal reordering_of_pic_nums_idc 18
[NULL @ 0x1d86d00] illegal reordering_of_pic_nums_idc 31
[NULL @ 0x1d86d00] illegal reordering_of_pic_nums_idc 7
[NULL @ 0x1d86d00] illegal reordering_of_pic_nums_idc 19
[NULL @ 0x1d86d00] illegal reordering_of_pic_nums_idc 23
[NULL @ 0x1d86d00] reference count 1 overflow
    Last message repeated 1 times
[NULL @ 0x1d86d00] illegal reordering_of_pic_nums_idc 17
[NULL @ 0x1d86d00] reference count 1 overflow
    Last message repeated 7 times
[NULL @ 0x1d86d00] illegal reordering_of_pic_nums_idc 8
[NULL @ 0x1d86d00] reference count 1 overflow
    Last message repeated 3 times
[NULL @ 0x1d86d00] illegal reordering_of_pic_nums_idc 9
[NULL @ 0x1d86d00] illegal reordering_of_pic_nums_idc 10
[NULL @ 0x1d86d00] reference count 1 overflow
[NULL @ 0x1d86d00] illegal reordering_of_pic_nums_idc 8
[NULL @ 0x1d86d00] reference count 1 overflow
[NULL @ 0x1d86d00] illegal reordering_of_pic_nums_idc 6
[NULL @ 0x1d86d00] reference count 1 overflow
[NULL @ 0x1d86d00] illegal reordering_of_pic_nums_idc 8
[NULL @ 0x1d86d00] illegal reordering_of_pic_nums_idc 10
[NULL @ 0x1d86d00] reference count 1 overflow
    Last message repeated 3 times
[NULL @ 0x1d86d00] illegal reordering_of_pic_nums_idc 4
[NULL @ 0x1d86d00] reference count 1 overflow
    Last message repeated 4 times
[NULL @ 0x1d86d00] illegal reordering_of_pic_nums_idc 4
[NULL @ 0x1d86d00] reference count 1 overflow
    Last message repeated 2 times
[NULL @ 0x1d86d00] illegal reordering_of_pic_nums_idc 7
[NULL @ 0x1d86d00] reference count 1 overflow
    Last message repeated 1 times
[NULL @ 0x1d86d00] illegal reordering_of_pic_nums_idc 10
    Last message repeated 1 times
[NULL @ 0x1d86d00] illegal reordering_of_pic_nums_idc 7
    Last message repeated 1 times
[NULL @ 0x1d86d00] illegal reordering_of_pic_nums_idc 8
[NULL @ 0x1d86d00] reference count 1 overflow
[NULL @ 0x1d86d00] illegal reordering_of_pic_nums_idc 6
[NULL @ 0x1d86d00] reference count 1 overflow
    Last message repeated 1 times
[NULL @ 0x1d86d00] illegal reordering_of_pic_nums_idc 10
[NULL @ 0x1d86d00] reference count 1 overflow
    Last message repeated 1 times
[NULL @ 0x1d86d00] illegal reordering_of_pic_nums_idc 9
[NULL @ 0x1d86d00] reference count 1 overflow
    Last message repeated 4 times
[NULL @ 0x1d86d00] illegal reordering_of_pic_nums_idc 4
[NULL @ 0x1d86d00] illegal reordering_of_pic_nums_idc 7
[NULL @ 0x1d86d00] reference count 1 overflow
[NULL @ 0x1d86d00] illegal reordering_of_pic_nums_idc 11
v_avc1_25_yuv420p_0.mov: could not seek to position 0.000
Input #0, mov,mp4,m4a,3gp,3g2,mj2, from 'v_avc1_25_yuv420p_0.mov':
  Metadata:
    major_brand     : qt
    minor_version   : 512
    compatible_brands: qt
    creation_time   : 1970-01-01 00:00:00
    encoder         : Lavf51.8.0
    encoder-eng     : Lavf51.8.0
  Duration: 00:00:17.96, start: 0.000000, bitrate: 3308 kb/s
    Stream #0:0(eng): Video: h264 (Baseline) (avc1 / 0x31637661), yuv420p, 704x576, 3306 kb/s, 25 fps, 25 tbr, 25 tbn, 50 tbc (default)
    Metadata:
      creation_time   : 1970-01-01 00:00:00
      handler_name    : DataHandler
      encoder         : ffh264
Please use -q:a or -q:v, -qscale is ambiguous
Output #0, avi, to 'out.avi':
  Metadata:
    major_brand     : qt
    minor_version   : 512
    compatible_brands: qt
    ISFT            : Lavf55.40.100
    Stream #0:0(eng): Video: mpeg4 (FMP4 / 0x34504D46), yuv420p, 704x576, q=2-31, 200 kb/s, 25 fps, 25 tbn, 25 tbc (default)
    Metadata:
      creation_time   : 1970-01-01 00:00:00
      handler_name    : DataHandler
      encoder         : Lavc55.63.100 mpeg4
Stream mapping:
  Stream #0:0 -> #0:0 (h264 -> mpeg4)
Press [q] to stop, [?] for help
frame=    0 fps=0.0 q=0.0 Lsize=       6kB time=00:00:00.00 bitrate=N/A
video:0kB audio:0kB subtitle:0kB other streams:0kB global headers:0kB muxing overhead: unknown
Output file is empty, nothing was encoded (check -ss / -t / -frames parameters if used)

comment:4 Changed 4 years ago by michael

  • Resolution set to fixed
  • Status changed from open to closed
Note: See TracTickets for help on using tickets.