Opened 5 years ago

Closed 5 years ago

#3291 closed enhancement (fixed)

dxtory: unsupported mode 4000009 yuv24

Reported by: ami_stuff Owned by:
Priority: wish Component: avcodec
Version: git-master Keywords: xtor
Cc: Blocked By:
Blocking: Reproduced by developer: yes
Analyzed by developer: no

Description

http://www.datafilehost.com/d/18afc5bb

C:\>ffmpeg -i 4000009_yuv24.avi
ffmpeg version N-59696-gc0a33c4 Copyright (c) 2000-2014 the FFmpeg developers
  built on Jan  8 2014 22:01:50 with gcc 4.8.2 (GCC)
  configuration: --enable-gpl --enable-version3 --disable-w32threads --enable-av
isynth --enable-bzlib --enable-fontconfig --enable-frei0r --enable-gnutls --enab
le-iconv --enable-libass --enable-libbluray --enable-libcaca --enable-libfreetyp
e --enable-libgsm --enable-libilbc --enable-libmodplug --enable-libmp3lame --ena
ble-libopencore-amrnb --enable-libopencore-amrwb --enable-libopenjpeg --enable-l
ibopus --enable-librtmp --enable-libschroedinger --enable-libsoxr --enable-libsp
eex --enable-libtheora --enable-libtwolame --enable-libvidstab --enable-libvo-aa
cenc --enable-libvo-amrwbenc --enable-libvorbis --enable-libvpx --enable-libwavp
ack --enable-libx264 --enable-libxavs --enable-libxvid --enable-zlib
  libavutil      52. 62.100 / 52. 62.100
  libavcodec     55. 47.100 / 55. 47.100
  libavformat    55. 22.102 / 55. 22.102
  libavdevice    55.  5.102 / 55.  5.102
  libavfilter     4.  0.103 /  4.  0.103
  libswscale      2.  5.101 /  2.  5.101
  libswresample   0. 17.104 /  0. 17.104
  libpostproc    52.  3.100 / 52.  3.100
[avi @ 02b9a5a0] non-interleaved AVI
[dxtory @ 02b9aba0] Frame header 4000009 is not implemented. Update your FFmpeg
version to the newest one from Git. If the problem still occurs, it means that y
our file has a feature which has not been implemented.
[dxtory @ 02b9aba0] If you want to help, upload a sample of this file to ftp://u
pload.ffmpeg.org/MPlayer/incoming/ and contact the ffmpeg-devel mailing list.
[dxtory @ 02b9aba0] Frame header 4000009 is not implemented. Update your FFmpeg
version to the newest one from Git. If the problem still occurs, it means that y
our file has a feature which has not been implemented.
[dxtory @ 02b9aba0] If you want to help, upload a sample of this file to ftp://u
pload.ffmpeg.org/MPlayer/incoming/ and contact the ffmpeg-devel mailing list.
[avi @ 02b9a5a0] Stream #0: not enough frames to estimate rate; consider increas
ing probesize
[avi @ 02b9a5a0] decoding for stream 0 failed
[avi @ 02b9a5a0] Could not find codec parameters for stream 0 (Video: dxtory (xt
or / 0x726F7478), 1920x1080): unspecified pixel format
Consider increasing the value for the 'analyzeduration' and 'probesize' options
Guessed Channel Layout for  Input Stream #0.1 : stereo
Input #0, avi, from '4000009_yuv24.avi':
  Metadata:
    ISRC            : Video:YUV24|CompressV3 Audio:Lautsprecher (2- Creative SB
X-Fi)
    encoder         : DxtoryCore ver2.0.0.116
  Duration: 00:00:00.03, start: 0.000000, bitrate: 1726928 kb/s
    Stream #0:0: Video: dxtory (xtor / 0x726F7478), 1920x1080, 60 tbr, 60 tbn, 6
0 tbc
    Stream #0:1: Audio: pcm_s24le ([1][0][0][0] / 0x0001), 48000 Hz, stereo, s32
, 2304 kb/s
At least one output file must be specified

Change History (2)

comment:1 Changed 5 years ago by cehoyos

  • Component changed from undetermined to avcodec
  • Keywords xtor added
  • Priority changed from normal to wish
  • Reproduced by developer set
  • Status changed from new to open
  • Type changed from defect to enhancement
  • Version changed from unspecified to git-master

comment:2 Changed 5 years ago by cehoyos

  • Resolution set to fixed
  • Status changed from open to closed

Fixed by Kostya since 4b84a69e

Note: See TracTickets for help on using tickets.