Changes between Initial Version and Version 1 of Ticket #3271, comment 3


Ignore:
Timestamp:
Jan 5, 2015, 9:39:46 PM (6 years ago)
Author:
SocDemScum
Comment:

Legend:

Unmodified
Added
Removed
Modified
  • Ticket #3271, comment 3

    initial v1  
    11libavcodec 56.19.100 produces an error saying that yuv420p colour spaces can only be used on profile 0 and 2, when telling it to use profile 1 and a yuv444p colour space.
     2
     3
     4{{{
     5ffmpeg version N-68877-gd02d4d0 Copyright (c) 2000-2015 the FFmpeg developers
     6  built on Jan  5 2015 19:27:15 with gcc 4.8 (Debian 4.8.2-1)
     7  configuration: --cpu=native --disable-everything --enable-encoder=libvpx_vp9 --enable-encoder=libx264 --enable-encoder=libx265 --enable-encoder=libopus --enable-encoder=flac --enable-encoder=alac --enable-encoder=aac --enable-encoder=png --enable-encoder=rawvideo --enable-decoder=vp9 --enable-decoder=h264 --enable-decoder=hevc --enable-decoder=opus --enable-decoder=flac --enable-decoder=alac --enable-decoder=aac --enable-decoder=pcm_s16le --enable-decoder=png --enable-muxer=mpegts --enable-muxer=matroska --enable-muxer=flac --enable-muxer=mp4 --enable-muxer=image2 --enable-muxer=yuv4mpegpipe --enable-demuxer=mpegts --enable-demuxer=matroska --enable-demuxer=flac --enable-demuxer=mov --enable-demuxer=wav --enable-demuxer=image2 --enable-protocol=udp --enable-protocol=file --enable-filter=aresample --enable-filter=crop --enable-filter=scale --enable-gpl --enable-libvpx --enable-libx264 --enable-libx265 --enable-libopus --disable-ffprobe --disable-ffserver
     8  libavutil      54. 16.100 / 54. 16.100
     9  libavcodec     56. 19.100 / 56. 19.100
     10  libavformat    56. 18.100 / 56. 18.100
     11  libavdevice    56.  3.100 / 56.  3.100
     12  libavfilter     5.  6.100 /  5.  6.100
     13  libswscale      3.  1.101 /  3.  1.101
     14  libswresample   1.  1.100 /  1.  1.100
     15  libpostproc    53.  3.100 / 53.  3.100
     16Input #0, mov,mp4,m4a,3gp,3g2,mj2, from 'a.mp4':
     17  Metadata:
     18    major_brand     : mp42
     19    minor_version   : 0
     20    compatible_brands: isommp42
     21    creation_time   : 2014-11-29 01:06:17
     22  Duration: 00:03:38.85, start: 0.000000, bitrate: 1959 kb/s
     23    Stream #0:0(und): Video: h264 (High) (avc1 / 0x31637661), yuv420p, 1280x534 [SAR 1:1 DAR 640:267], 1765 kb/s, 23.98 fps, 23.98 tbr, 24k tbn, 47.95 tbc (default)
     24    Metadata:
     25      handler_name    : VideoHandler
     26    Stream #0:1(und): Audio: aac (LC) (mp4a / 0x6134706D), 44100 Hz, stereo, fltp, 191 kb/s (default)
     27    Metadata:
     28      creation_time   : 2014-11-29 01:06:20
     29      handler_name    : IsoMedia File Produced by Google, 5-11-2011
     30File 'a.mkv' already exists. Overwrite ? [y/N] y
     31Incompatible pixel format 'yuv444p' for codec 'libvpx-vp9', auto-selecting format 'yuv420p'
     32[libvpx-vp9 @ 0x1aaada0] v1.3.0-5204-g2fe1bfa
     33[libvpx-vp9 @ 0x1aaada0] Failed to set VP8E_SET_CPUUSED codec control: Invalid parameter
     34[libvpx-vp9 @ 0x1aaada0]   Additional information: cpu_used out of range [-8..8]
     35[libvpx-vp9 @ 0x1aaada0] Failed to set VP8E_SET_NOISE_SENSITIVITY codec control: Unspecified internal error
     36[libvpx-vp9 @ 0x1aaada0]   Additional information: cpu_used out of range [-8..8]
     37[alac @ 0x1ad35a0] encoding as 24 bits-per-sample
     38Output #0, matroska, to 'a.mkv':
     39  Metadata:
     40    major_brand     : mp42
     41    minor_version   : 0
     42    compatible_brands: isommp42
     43    encoder         : Lavf56.18.100
     44    Stream #0:0(und): Video: vp9 (libvpx-vp9) (VP90 / 0x30395056), yuv420p, 1280x534 [SAR 1:1 DAR 640:267], q=-1--1, 200 kb/s, 23.98 fps, 1k tbn, 23.98 tbc (default)
     45    Metadata:
     46      handler_name    : VideoHandler
     47      encoder         : Lavc56.19.100 libvpx-vp9
     48    Stream #0:1(und): Audio: alac ([255][255][255][255] / 0xFFFFFFFF), 44100 Hz, stereo, s32p (24 bit), 128 kb/s (default)
     49    Metadata:
     50      creation_time   : 2014-11-29 01:06:20
     51      handler_name    : IsoMedia File Produced by Google, 5-11-2011
     52      encoder         : Lavc56.19.100 alac
     53Stream mapping:
     54  Stream #0:0 -> #0:0 (h264 (native) -> vp9 (libvpx-vp9))
     55  Stream #0:1 -> #0:1 (aac (native) -> alac (native))
     56Press [q] to stop, [?] for help
     57[libvpx-vp9 @ 0x1aaada0] Error encoding frame: Invalid parameter
     58[libvpx-vp9 @ 0x1aaada0]   Additional information: 4:2:0 color space requires profile 0 or 2
     59Video encoding failed
     60Conversion failed!
     61}}}