Changes between Initial Version and Version 1 of Ticket #3200, comment 2


Ignore:
Timestamp:
Dec 6, 2013, 11:54:56 AM (7 years ago)
Author:
cehoyos
Comment:

Legend:

Unmodified
Added
Removed
Modified
  • Ticket #3200, comment 2

    initial v1  
    1  /usr/local/bin/ffmpeg -i /idoukou_convert/origi
    2 nal/music/2013/587_1385436228.wav -acodec libmp3lame  -ac 2 -ar 44100 -ab 320k -
    3 y 1.mp3
    4 [root@convert idoukou_convert]#  /usr/local/bin/ffmpeg -i /idoukou_convert/origi
    5 nal/music/2013/587_1385436228.wav -acodec libmp3lame  -ac 2 -ar 44100 -ab 320k -
    6 y 1.mp3
     1{{{
     2[root@convert idoukou_convert]#  /usr/local/bin/ffmpeg -i /idoukou_convert/original/music/2013/587_1385436228.wav -acodec libmp3lame  -ac 2 -ar 44100 -ab 320k -y 1.mp3
    73ffmpeg version N-58797-g4a0d827 Copyright (c) 2000-2013 the FFmpeg developers
    84  built on Dec  6 2013 17:28:48 with gcc 4.1.2 (GCC) 20080704 (Red Hat 4.1.2-54)
    9   configuration: --enable-libmp3lame --enable-small --enable-libfaac --enable-li
    10 bvorbis --enable-libxvid --disable-ffplay --disable-ffserver --enable-pthreads -
    11 -extra-ldflags=-ldl --enable-nonfree --enable-gpl --enable-libfdk_aac
     5  configuration: --enable-libmp3lame --enable-small --enable-libfaac --enable-libvorbis --enable-ibxvid --disable-ffplay --disable-ffserver --enable-pthreads --extra-ldflags=-ldl --enable-nonfree --enable-gpl --enable-libfdk_aac
    126  libavutil      52. 56.100 / 52. 56.100
    137  libavcodec     55. 45.100 / 55. 45.100
     
    2115Input #0, wav, from '/idoukou_convert/original/music/2013/587_1385436228.wav':
    2216  Duration: 00:03:41.77, bitrate: 1411 kb/s
    23     Stream #0:0: Audio: pcm_s16le ([1][0][0][0] / 0x0001), 44100 Hz, stereo, s16
    24 , 1411 kb/s
     17    Stream #0:0: Audio: pcm_s16le ([1][0][0][0] / 0x0001), 44100 Hz, stereo, s16, 1411 kb/s
    2518Output #0, mp3, to '1.mp3':
    2619  Metadata:
     
    3730av_interleaved_write_frame(): Immediate exit requested
    3831Received signal 2: terminating.
    39 
     32}}}
    4033I stop it's execute by Ctrl+c  .Otherwise, It's note "Last message repeated XXXXX times" is not stop. The number has been an increase no stop.what's happen? I need help