Changes between Initial Version and Version 1 of Ticket #3027, comment 2


Ignore:
Timestamp:
Oct 4, 2013, 1:08:11 PM (7 years ago)
Author:
mareka
Comment:

Legend:

Unmodified
Added
Removed
Modified
  • Ticket #3027, comment 2

    initial v1  
     1ffmpeg-64b-gb4e1630  -v info -video_size 1280x720 -pixel_format uyvy422 -framer
     2ate 50 -rtbufsize 2100000000 -f dshow -i video="Decklink Video Capture":audio="Decklink Audio Capture"  -vf fp
     3s=fps=25 -filter:a volume=+9dB -codec:a libvo_aacenc -ac 2 -ar 48000 -b:a 96k -vsync 2 -map 0:v,0:a -map 0:a -
     4preset medium -vcodec libx264 -sc_threshold 0 -g 50 -vprofile baseline -bufsize 8000k -maxrate 3500k -crf 22 -
     5pix_fmt yuv420p -s 1280x720 -aspect 16:9 -flags global_header  -f tee "720p.mp4|[f=mpegts:bsfs/v=dump_extra]ud
     6p://224.1.0.1:10001/|[f=flv]rtmp://localhost/ct1/1"
    17ffmpeg version N-56125-gb4e1630 Copyright (c) 2000-2013 the FFmpeg developers
    28  built on Sep  9 2013 01:47:04 with gcc 4.7.3 (GCC)
     
    1824Guessed Channel Layout for  Input Stream #0.1 : stereo
    1925Input #0, dshow, from 'video=Decklink Video Capture:audio=Decklink Audio Capture':
    20   Duration: N/A, start: 0.068168, bitrate: 1536 kb/s
     26  Duration: N/A, start: 0.054554, bitrate: 1536 kb/s
    2127    Stream #0:0: Video: rawvideo (UYVY / 0x59565955), uyvy422(tv), 1280x720, 50 tbr, 10000k tbn, 50 tbc
    2228    Stream #0:1: Audio: pcm_s16le, 48000 Hz, stereo, s16, 1536 kb/s
    23 [libx264 @ 00000000003b5b00] using SAR=1/1
    24 [libx264 @ 00000000003b5b00] using cpu capabilities: MMX2 SSE2Fast SSSE3 SSE4.2
    25 [libx264 @ 00000000003b5b00] profile Constrained Baseline, level 3.1
    26 [libx264 @ 00000000003b5b00] 264 - core 135 r2345 f0c1c53 - H.264/MPEG-4 AVC codec - Copyleft 2003-2013 - http
     29[libx264 @ 0000000000390c20] using SAR=1/1
     30[libx264 @ 0000000000390c20] using cpu capabilities: MMX2 SSE2Fast SSSE3 SSE4.2
     31[libx264 @ 0000000000390c20] profile Constrained Baseline, level 3.1
     32[libx264 @ 0000000000390c20] 264 - core 135 r2345 f0c1c53 - H.264/MPEG-4 AVC codec - Copyleft 2003-2013 - http
    2733://www.videolan.org/x264.html - options: cabac=0 ref=3 deblock=1:0:0 analyse=0x1:0x111 me=hex subme=7 psy=1 ps
    2834y_rd=1.00:0.00 mixed_ref=1 me_range=16 chroma_me=1 trellis=1 8x8dct=0 cqm=0 deadzone=21,11 fast_pskip=1 chroma
     
    3238one ip_ratio=1.40 aq=1:1.00
    3339RTMP_Connect0, failed to connect socket. 10061 (Unknown error)
    34 [tee @ 00000000003b5160] Slave '[f=flv]rtmp://localhost/ct1/1': error opening: Unknown error occurred
     40[tee @ 00000000003b64a0] Slave '[f=flv]rtmp://localhost/ct1/1': error opening: Unknown error occurred
    3541Output #0, tee, to '720p.mp4|[f=mpegts:bsfs/v=dump_extra]udp://224.1.0.1:10001/|[f=flv]rtmp://localhost/ct1/1'
    3642: