Changes between Initial Version and Version 1 of Ticket #2750, comment 7


Ignore:
Timestamp:
Jul 9, 2013, 3:11:24 PM (6 years ago)
Author:
cehoyos
Comment:

Legend:

Unmodified
Added
Removed
Modified
  • Ticket #2750, comment 7

    initial v1  
    1 C:\wamp\www\ffmpeg\bin>ffmpeg -i ../test/sony.flv -ss 10 -t 20 -vcodec copy -aco
    2 dec copy -movflags faststart ../test/961c28df_0.flv
     1{{{
     2C:\wamp\www\ffmpeg\bin>ffmpeg -i ../test/sony.flv -ss 10 -t 20 -vcodec copy -acodec copy -movflags faststart ../test/961c28df_0.flv
    33ffmpeg version N-54362-ge0be3cb Copyright (c) 2000-2013 the FFmpeg developers
    44  built on Jul  2 2013 22:15:59 with gcc 4.7.3 (GCC)
    5   configuration: --enable-gpl --enable-version3 --disable-w32threads --enable-av
    6 isynth --enable-bzlib --enable-fontconfig --enable-frei0r --enable-gnutls --enab
    7 le-iconv --enable-libass --enable-libbluray --enable-libcaca --enable-libfreetyp
    8 e --enable-libgsm --enable-libilbc --enable-libmodplug --enable-libmp3lame --ena
    9 ble-libopencore-amrnb --enable-libopencore-amrwb --enable-libopenjpeg --enable-l
    10 ibopus --enable-librtmp --enable-libschroedinger --enable-libsoxr --enable-libsp
    11 eex --enable-libtheora --enable-libtwolame --enable-libvo-aacenc --enable-libvo-
    12 amrwbenc --enable-libvorbis --enable-libvpx --enable-libx264 --enable-libxavs --
    13 enable-libxvid --enable-zlib
     5  configuration: --enable-gpl --enable-version3 --disable-w32threads --enable-avisynth --enable-bzlib --enable-fontconfig --enable-frei0r --enable-gnutls --enable-iconv --enable-libass --enable-libbluray --enable-libcaca --enable-libfreetype --enable-libgsm --enable-libilbc --enable-libmodplug --enable-libmp3lame --enable-libopencore-amrnb --enable-libopencore-amrwb --enable-libopenjpeg --enable-libopus --enable-librtmp --enable-libschroedinger --enable-libsoxr --enable-libspeex --enable-libtheora --enable-libtwolame --enable-libvo-aacenc --enable-libvo-amrwbenc --enable-libvorbis --enable-libvpx --enable-libx264 --enable-libxavs --enable-libxvid --enable-zlib
    146  libavutil      52. 38.100 / 52. 38.100
    157  libavcodec     55. 18.100 / 55. 18.100
     
    2719    Encoded_With    : Sorenson Squeeze
    2820  Duration: 00:00:59.99, start: 0.000000, bitrate: 768 kb/s
    29     Stream #0:0: Video: vp6f, yuv420p, 640x360, 614 kb/s, 29.97 tbr, 1k tbn, 1k
    30 tbc
     21    Stream #0:0: Video: vp6f, yuv420p, 640x360, 614 kb/s, 29.97 tbr, 1k tbn, 1k tbc
    3122    Stream #0:1: Audio: mp3, 44100 Hz, stereo, s16p, 131 kb/s
    3223Output #0, flv, to '../test/961c28df_0.flv':
     
    3728    Encoded_With    : Sorenson Squeeze
    3829    encoder         : Lavf55.11.100
    39     Stream #0:0: Video: vp6f ([4][0][0][0] / 0x0004), yuv420p, 640x360, q=2-31,
    40 614 kb/s, 1k tbn, 1k tbc
     30    Stream #0:0: Video: vp6f ([4][0][0][0] / 0x0004), yuv420p, 640x360, q=2-31, 614 kb/s, 1k tbn, 1k tbc
    4131    Stream #0:1: Audio: mp3 ([2][0][0][0] / 0x0002), 44100 Hz, stereo, 131 kb/s
    4232Stream mapping:
     
    4434  Stream #0:1 -> #0:1 (copy)
    4535Press [q] to stop, [?] for help
    46 frame=  576 fps=0.0 q=-1.0 Lsize=    1909kB time=00:00:20.01 bitrate= 781.3kbits
    47 /s
     36frame=  576 fps=0.0 q=-1.0 Lsize=    1909kB time=00:00:20.01 bitrate= 781.3kbits/s
    4837video:1575kB audio:312kB subtitle:0 global headers:0kB muxing overhead 1.164339%
    49 
     38}}}
    5039-------------------------------------------------------------------------------
    5140I am installed latest version, still not working.