Changes between Initial Version and Version 1 of Ticket #2750, comment 3


Ignore:
Timestamp:
Jul 4, 2013, 3:30:58 PM (6 years ago)
Author:
cehoyos
Comment:

Legend:

Unmodified
Added
Removed
Modified
  • Ticket #2750, comment 3

    initial v1  
    1 [root@ip-10-10-213-242 webroot]# /usr/local/bin/ffmpeg -i cred3video/sony.flv -s                                                          s 5 -t 40 -movflags faststart cred3video/new1.flv
     1This is output from console.
     2{{{
     3[root@ip-10-10-213-242 webroot]# /usr/local/bin/ffmpeg -i cred3video/sony.flv -ss 5 -t 40 -movflags faststart cred3video/new1.flv
    24ffmpeg version 1.0.7 Copyright (c) 2000-2013 the FFmpeg developers
    35  built on Jun 18 2013 04:24:35 with gcc 4.1.2 (GCC) 20080704 (Red Hat 4.1.2-54)
    4   configuration: --enable-gpl --enable-version3 --enable-nonfree --enable-shared                                                           --enable-libmp3lame --enable-libx264 --enable-libfaac --enable-libvpx --enable-                                                          libvorbis --enable-libopencore-amrnb --enable-libopencore-amrwb --enable-libopen                                                          core-amrnb --enable-libtheora
     6  configuration: --enable-gpl --enable-version3 --enable-nonfree --enable-shared --enable-libmp3lame --enable-libx264 --enable-libfaac --enable-libvpx --enable-libvorbis --enable-libopencore-amrnb --enable-libopencore-amrwb --enable-libopencore-amrnb --enable-libtheora
    57  libavutil      51. 73.101 / 51. 73.101
    68  libavcodec     54. 59.100 / 54. 59.100
     
    1820    Encoded_With    : Sorenson Squeeze
    1921  Duration: 00:00:59.99, start: 0.000000, bitrate: 768 kb/s
    20     Stream #0:0: Video: vp6f, yuv420p, 640x360, 614 kb/s, 29.97 tbr, 1k tbn, 1k                                                           tbc
     22    Stream #0:0: Video: vp6f, yuv420p, 640x360, 614 kb/s, 29.97 tbr, 1k tbn, 1k tbc
    2123    Stream #0:1: Audio: mp3, 44100 Hz, stereo, s16, 131 kb/s
    2224Output #0, flv, to 'cred3video/new1.flv':
     
    2729    Encoded_With    : Sorenson Squeeze
    2830    encoder         : Lavf54.29.104
    29     Stream #0:0: Video: flv1 ([2][0][0][0] / 0x0002), yuv420p, 640x360, q=2-31,                                                           200 kb/s, 1k tbn, 29.97 tbc
     31    Stream #0:0: Video: flv1 ([2][0][0][0] / 0x0002), yuv420p, 640x360, q=2-31, 200 kb/s, 1k tbn, 29.97 tbc
    3032    Stream #0:1: Audio: mp3 ([2][0][0][0] / 0x0002), 44100 Hz, stereo, s16
    3133Stream mapping:
     
    3335  Stream #0:1 -> #0:1 (mp3 -> libmp3lame)
    3436Press [q] to stop, [?] for help
    35 frame=   42 fps=0.0 q=17.2 size=     138kB time=00:00:01.40 bitrate= 804.2kbits/                                                          frame=  153 fps=153 q=31.0 size=     378kB time=00:00:05.10 bitrate= 606.0kbits/                                                          frame=  269 fps=179 q=31.0 size=     655kB time=00:00:08.97 bitrate= 598.2kbits/                                                          frame=  386 fps=193 q=31.0 size=     894kB time=00:00:12.88 bitrate= 568.6kbits/                                                          frame=  473 fps=188 q=31.0 size=    1177kB time=00:00:15.78 bitrate= 610.9kbits/                                                          frame=  589 fps=196 q=31.0 size=    1415kB time=00:00:19.65 bitrate= 589.9kbits/                                                          frame=  687 fps=196 q=31.0 size=    1646kB time=00:00:22.92 bitrate= 588.4kbits/                                                          frame=  807 fps=201 q=31.0 size=    1855kB time=00:00:26.92 bitrate= 564.3kbits/                                                          frame=  907 fps=201 q=31.0 size=    2054kB time=00:00:30.26 bitrate= 556.0kbits/                                                          frame= 1020 fps=203 q=31.0 size=    2250kB time=00:00:34.03 bitrate= 541.5kbits/                                                          frame= 1141 fps=207 q=31.0 size=    2443kB time=00:00:38.07 bitrate= 525.7kbits/                                                          frame= 1199 fps=208 q=31.0 Lsize=    2564kB time=00:00:40.01 bitrate= 524.9kbits                                                          /s
     37frame=   42 fps=0.0 q=17.2 size=     138kB time=00:00:01.40 bitrate= 804.2kbits/s
     38frame=  153 fps=153 q=31.0 size=     378kB time=00:00:05.10 bitrate= 606.0kbits/s
     39frame=  269 fps=179 q=31.0 size=     655kB time=00:00:08.97 bitrate= 598.2kbits/s
     40frame=  386 fps=193 q=31.0 size=     894kB time=00:00:12.88 bitrate= 568.6kbits/s
     41frame=  473 fps=188 q=31.0 size=    1177kB time=00:00:15.78 bitrate= 610.9kbits/s
     42frame=  589 fps=196 q=31.0 size=    1415kB time=00:00:19.65 bitrate= 589.9kbits/s
     43frame=  687 fps=196 q=31.0 size=    1646kB time=00:00:22.92 bitrate= 588.4kbits/s
     44frame=  807 fps=201 q=31.0 size=    1855kB time=00:00:26.92 bitrate= 564.3kbits/s
     45frame=  907 fps=201 q=31.0 size=    2054kB time=00:00:30.26 bitrate= 556.0kbits/s
     46frame= 1020 fps=203 q=31.0 size=    2250kB time=00:00:34.03 bitrate= 541.5kbits/s
     47frame= 1141 fps=207 q=31.0 size=    2443kB time=00:00:38.07 bitrate= 525.7kbits/s
     48frame= 1199 fps=208 q=31.0 size=    2564kB time=00:00:40.01 bitrate= 524.9kbits/s
    3649video:1895kB audio:625kB subtitle:0 global headers:0kB muxing overhead 1.710212%
    37 
    38 
    39 ------------------------------------------------------------------------------------------
    40 This is output from console.
     50}}}