Changes between Initial Version and Version 1 of Ticket #2556


Ignore:
Timestamp:
May 10, 2013, 9:11:52 PM (7 years ago)
Author:
ubitux
Comment:

Legend:

Unmodified
Added
Removed
Modified
  • Ticket #2556 – Description

    initial v1  
    11{{{
    2 % ./ffplay -f lavfi testsrc=s=800x600 -vf 'movie=Stopwatch-256.png[watermark];[in][watermark]overlay=10:10 [out]'
    3 ffplay version N-52955-g8749649 Copyright (c) 2003-2013 the FFmpeg developers
     2% ./ffmpeg -f lavfi -i testsrc=s=800x600 -vf 'movie=/tmp/Stopwatch-256.png[watermark];[in][watermark]overlay=10:10 [out]' -f null -
     3ffmpeg version N-52955-g8749649 Copyright (c) 2000-2013 the FFmpeg developers
    44  built on May 10 2013 18:56:27 with gcc 4.8.0 (GCC) 20130502 (prerelease)
    55  configuration: --enable-gpl --enable-version3 --enable-fontconfig --enable-libfreetype --enable-libmp3lame --enable-libvorbis --enable-libxvid --enable-libx264 --enable-libvpx --enable-libtheora --enable-x11grab --enable-libopenjpeg --enable-libass --enable-libmodplug --enable-libv4l2 --cc=colorgcc --samples=/home/ubitux/fate-samples --prefix=/tmp/ffinstall --disable-runtime-cpudetect --enable-libcelt --enable-libopencv --enable-frei0r --enable-libcaca --enable-libiec61883 --enable-libopencore-amrwb --enable-libopencore-amrnb --enable-libopus --enable-libpulse --enable-libspeex --enable-libquvi --enable-memory-poisoning
     
    1212  libswresample   0. 17.102 /  0. 17.102
    1313  libpostproc    52.  3.100 / 52.  3.100
    14     nan A-V:  0.000 fd=   0 aq=    0KB vq=    0KB sq=    0B f=0/0   ^MInput #0, lavfi, from 'testsrc':
     14Input #0, lavfi, from 'testsrc=s=800x600':
    1515  Duration: N/A, start: 0.000000, bitrate: N/A
    16     Stream #0:0: Video: rawvideo (RGB[24] / 0x18424752), rgb24, 320x240 [SAR 1:1 DAR 4:3], 25 tbr, 25 tbn, 25 tbc
    17 [png @ 0x7fe548001ce0] Missing png signature
    18 [Parsed_movie_0 @ 0x7fe548004160] Decode error: Operation not permitted
    19 [png @ 0x7fe548001ce0] Missing png signature
    20 [Parsed_movie_0 @ 0x7fe548004160] Decode error: Operation not permitted
    21 [png @ 0x7fe548001ce0] Missing png signature
    22 [Parsed_movie_0 @ 0x7fe548004160] Decode error: Operation not permitted
    23 [png @ 0x7fe548001ce0] Missing png signature
    24 [Parsed_movie_0 @ 0x7fe548004160] Decode error: Operation not permitted
    25 [png @ 0x7fe548001ce0] Missing png signature
    26 [Parsed_movie_0 @ 0x7fe548004160] Decode error: Operation not permitted
    27 [png @ 0x7fe548001ce0] Missing png signature
    28 [Parsed_movie_0 @ 0x7fe548004160] Decode error: Operation not permitted
    29 [png @ 0x7fe548001ce0] Missing png signature
    30 [Parsed_movie_0 @ 0x7fe548004160] Decode error: Operation not permitted
    31 [png @ 0x7fe548001ce0] Missing png signature
    32 [Parsed_movie_0 @ 0x7fe548004160] Decode error: Operation not permitted
    33 [png @ 0x7fe548001ce0] Missing png signature
    34 [Parsed_movie_0 @ 0x7fe548004160] Decode error: Operation not permitted
    35 [png @ 0x7fe548001ce0] Missing png signature
     16    Stream #0:0: Video: rawvideo (RGB[24] / 0x18424752), rgb24, 800x600 [SAR 1:1 DAR 4:3], 25 tbr, 25 tbn, 25 tbc
     17Output #0, null, to 'pipe:':
     18  Metadata:
     19    encoder         : Lavf55.4.101
     20    Stream #0:0: Video: rawvideo (Y4[11][8] / 0x80B3459), yuva420p, 800x600 [SAR 1:1 DAR 4:3], q=2-31, 200 kb/s, 90k tbn, 25 tbc
     21Stream mapping:
     22  Stream #0:0 -> #0:0 (rawvideo -> rawvideo)
     23Press [q] to stop, [?] for help
     24[png @ 0x2b7e6c0] Missing png signature
     25[Parsed_movie_0 @ 0x2b7f3c0] Decode error: Operation not permitted
     26[png @ 0x2b7e6c0] Missing png signature
     27[Parsed_movie_0 @ 0x2b7f3c0] Decode error: Operation not permitted
     28[png @ 0x2b7e6c0] Missing png signature
     29[Parsed_movie_0 @ 0x2b7f3c0] Decode error: Operation not permitted
     30[png @ 0x2b7e6c0] Missing png signature
     31[Parsed_movie_0 @ 0x2b7f3c0] Decode error: Operation not permitted
     32[png @ 0x2b7e6c0] Missing png signature
     33[Parsed_movie_0 @ 0x2b7f3c0] Decode error: Operation not permitted
     34[png @ 0x2b7e6c0] Missing png signature
     35[Parsed_movie_0 @ 0x2b7f3c0] Decode error: Operation not permitted
     36[png @ 0x2b7e6c0] Missing png signature
     37[Parsed_movie_0 @ 0x2b7f3c0] Decode error: Operation not permitted
     38[png @ 0x2b7e6c0] Missing png signature
     39[Parsed_movie_0 @ 0x2b7f3c0] Decode error: Operation not permitted
     40[png @ 0x2b7e6c0] Missing png signature
     41[Parsed_movie_0 @ 0x2b7f3c0] Decode error: Operation not permitted
     42
    3643[...]
    3744}}}