Opened 5 years ago

Last modified 5 years ago

#1826 open enhancement

TiVo demuxer

Reported by: cehoyos Owned by:
Priority: wish Component: avformat
Version: git-master Keywords:
Cc: Blocked By:
Blocking: Reproduced by developer: no
Analyzed by developer: no

Description

A user uploaded a TiVo? sample - http://samples.ffmpeg.org/TiVo/Twitches%20-%20%2020121016.TiVo - that cannot be decoded with FFmpeg (or MPlayer).
Original report: http://forum.videolan.org/viewtopic.php?f=12&t=104821

$ ffmpeg -i Twitches\ -\ \ 20121016.TiVo
ffmpeg version N-45613-g711ffb8 Copyright (c) 2000-2012 the FFmpeg developers
  built on Oct 17 2012 13:12:59 with gcc 4.7 (SUSE Linux)
  configuration: --enable-gpl
  libavutil      51. 76.100 / 51. 76.100
  libavcodec     54. 66.100 / 54. 66.100
  libavformat    54. 32.101 / 54. 32.101
  libavdevice    54.  3.100 / 54.  3.100
  libavfilter     3. 19.103 /  3. 19.103
  libswscale      2.  1.101 /  2.  1.101
  libswresample   0. 16.100 /  0. 16.100
  libpostproc    52.  1.100 / 52.  1.100
[mpeg2video @ 0x223e7e0] mpeg_decode_postinit() failure
    Last message repeated 11 times
[mpeg @ 0x2238280] Invalid timestamps stream=0, pts=111021, dts=111022, size=13634
[mpeg2video @ 0x223e7e0] ignoring pic after 100
[mpeg2video @ 0x223e7e0] skipped MB in I frame at 1 0
[mpeg2video @ 0x223e7e0] skipped MB in I frame at 1 1
[mpeg2video @ 0x223e7e0] invalid mb type in I Frame at 1 2
[mpeg2video @ 0x223e7e0] skipped MB in I frame at 2 3
[mpeg2video @ 0x223e7e0] invalid mb type in I Frame at 0 4
[mpeg2video @ 0x223e7e0] skipped MB in I frame at 1 5
[mpeg2video @ 0x223e7e0] skipped MB in I frame at 2 6
[mpeg2video @ 0x223e7e0] invalid mb type in I Frame at 1 7
[mpeg2video @ 0x223e7e0] invalid mb type in I Frame at 0 8
[mpeg2video @ 0x223e7e0] skipped MB in I frame at 1 9
[mpeg2video @ 0x223e7e0] invalid mb type in I Frame at 1 10
[mpeg2video @ 0x223e7e0] skipped MB in I frame at 2 11
[mpeg2video @ 0x223e7e0] skipped MB in I frame at 2 12
[mpeg2video @ 0x223e7e0] invalid mb type in I Frame at 0 13
[mpeg2video @ 0x223e7e0] skipped MB in I frame at 2 14
[mpeg2video @ 0x223e7e0] skipped MB in I frame at 3 15
[mpeg2video @ 0x223e7e0] invalid mb type in I Frame at 1 16
[mpeg2video @ 0x223e7e0] skipped MB in I frame at 3 17
[mpeg2video @ 0x223e7e0] skipped MB in I frame at 3 18
[mpeg2video @ 0x223e7e0] skipped MB in I frame at 1 19
[mpeg2video @ 0x223e7e0] skipped MB in I frame at 2 20
[mpeg2video @ 0x223e7e0] invalid mb type in I Frame at 2 21
[mpeg2video @ 0x223e7e0] skipped MB in I frame at 2 22
[mpeg2video @ 0x223e7e0] skipped MB in I frame at 2 23
[mpeg2video @ 0x223e7e0] skipped MB in I frame at 2 24
[mpeg2video @ 0x223e7e0] skipped MB in I frame at 1 25
[mpeg2video @ 0x223e7e0] skipped MB in I frame at 1 26
[mpeg2video @ 0x223e7e0] skipped MB in I frame at 5 27
[mpeg2video @ 0x223e7e0] skipped MB in I frame at 1 28
[mpeg2video @ 0x223e7e0] invalid mb type in I Frame at 1 29
[mpeg2video @ 0x223e7e0] skipped MB in I frame at 3 30
[mpeg2video @ 0x223e7e0] invalid mb type in I Frame at 1 31
[mpeg2video @ 0x223e7e0] skipped MB in I frame at 2 32
[mpeg2video @ 0x223e7e0] invalid mb type in I Frame at 0 33
[mpeg2video @ 0x223e7e0] invalid mb type in I Frame at 1 34
[mpeg2video @ 0x223e7e0] invalid mb type in I Frame at 0 35
[mpeg2video @ 0x223e7e0] skipped MB in I frame at 1 36
[mpeg2video @ 0x223e7e0] skipped MB in I frame at 1 37
[mpeg2video @ 0x223e7e0] skipped MB in I frame at 4 38
[mpeg2video @ 0x223e7e0] skipped MB in I frame at 1 39
[mpeg2video @ 0x223e7e0] skipped MB in I frame at 1 40
[mpeg2video @ 0x223e7e0] invalid mb type in I Frame at 0 41
[mpeg2video @ 0x223e7e0] skipped MB in I frame at 1 42
[mpeg2video @ 0x223e7e0] skipped MB in I frame at 1 43
[mpeg2video @ 0x223e7e0] skipped MB in I frame at 5 44
[mpeg2video @ 0x223e7e0] Warning MVs not available
[mpeg2video @ 0x223e7e0] concealing 3600 DC, 3600 AC, 3600 MV errors in I frame
[mpeg @ 0x2238280] Invalid timestamps stream=0, pts=120030, dts=120031, size=12673
[mpeg @ 0x2238280] Invalid timestamps stream=0, pts=129039, dts=129040, size=3326
[mpeg @ 0x2238280] Invalid timestamps stream=0, pts=138048, dts=138049, size=11091
[mpeg @ 0x2238280] Invalid timestamps stream=0, pts=147057, dts=147058, size=7990
[mpeg @ 0x2238280] Invalid timestamps stream=0, pts=156066, dts=156067, size=14679
[mpeg @ 0x2238280] Invalid timestamps stream=0, pts=165075, dts=165076, size=6480
[mpeg @ 0x2238280] Invalid timestamps stream=0, pts=174084, dts=174085, size=3279
[mpeg @ 0x2238280] Invalid timestamps stream=0, pts=183093, dts=183094, size=9276
[mpeg @ 0x2238280] Invalid timestamps stream=0, pts=192102, dts=192103, size=5485
[mpeg @ 0x2238280] Invalid timestamps stream=0, pts=201111, dts=201112, size=7199
[mpeg @ 0x2238280] Invalid timestamps stream=0, pts=210120, dts=210121, size=6458
[mpeg @ 0x2238280] Invalid timestamps stream=0, pts=219129, dts=219130, size=3354
[mpeg @ 0x2238280] Invalid timestamps stream=0, pts=228138, dts=228139, size=9285
[mpeg @ 0x2238280] Invalid timestamps stream=0, pts=237147, dts=237148, size=7329
[mpeg @ 0x2238280] Invalid timestamps stream=0, pts=246156, dts=246157, size=10311
[mpeg @ 0x2238280] Invalid timestamps stream=0, pts=255165, dts=255166, size=7127
[mpeg @ 0x2238280] Invalid timestamps stream=0, pts=264174, dts=264175, size=4240
[mpeg @ 0x2238280] Invalid timestamps stream=0, pts=273183, dts=273184, size=8859
[mpeg @ 0x2238280] Invalid timestamps stream=0, pts=282192, dts=282193, size=7628
[mpeg @ 0x2238280] Invalid timestamps stream=0, pts=291201, dts=291202, size=13860
[mpeg @ 0x2238280] Invalid timestamps stream=0, pts=300210, dts=300211, size=6932
[mpeg @ 0x2238280] Invalid timestamps stream=0, pts=309219, dts=309220, size=3232
[mpeg @ 0x2238280] Invalid timestamps stream=0, pts=318228, dts=318229, size=13272
[mpeg @ 0x2238280] Invalid timestamps stream=0, pts=327237, dts=327238, size=8337
[mpeg @ 0x2238280] Invalid timestamps stream=0, pts=336246, dts=336247, size=14330
[mpeg @ 0x2238280] Invalid timestamps stream=0, pts=345255, dts=345256, size=7015
[mpeg @ 0x2238280] Invalid timestamps stream=0, pts=354264, dts=354265, size=2933
[mpeg @ 0x2238280] Invalid timestamps stream=0, pts=363273, dts=363274, size=9550
[mpeg @ 0x2238280] Invalid timestamps stream=0, pts=372282, dts=372283, size=7393
[mpeg @ 0x2238280] Invalid timestamps stream=0, pts=381291, dts=382043, size=22263
[mpeg @ 0x2238280] Invalid timestamps stream=0, pts=391802, dts=392554, size=28771
[mpeg @ 0x2238280] Invalid timestamps stream=0, pts=402312, dts=402313, size=3966
[mpeg @ 0x2238280] Stream #2: not enough frames to estimate rate; consider increasing probesize
[mpeg @ 0x2238280] Stream #3: not enough frames to estimate rate; consider increasing probesize
[mpeg @ 0x2238280] Stream #4: not enough frames to estimate rate; consider increasing probesize
[mpeg @ 0x2238280] Stream #5: not enough frames to estimate rate; consider increasing probesize
[mpeg @ 0x2238280] Stream #6: not enough frames to estimate rate; consider increasing probesize
[mpeg @ 0x2238280] Stream #7: not enough frames to estimate rate; consider increasing probesize
[mpeg @ 0x2238280] Stream #8: not enough frames to estimate rate; consider increasing probesize
[mpeg @ 0x2238280] Stream #9: not enough frames to estimate rate; consider increasing probesize
[mpeg @ 0x2238280] Stream #10: not enough frames to estimate rate; consider increasing probesize
[mpeg @ 0x2238280] Stream #11: not enough frames to estimate rate; consider increasing probesize
[mpeg @ 0x2238280] Stream #12: not enough frames to estimate rate; consider increasing probesize
[mpeg @ 0x2238280] Could not find codec parameters for stream 3 (Audio: ac3, 0 channels): unspecified sample format
Consider increasing the value for the 'analyzeduration' and 'probesize' options
[mpeg @ 0x2238280] Could not find codec parameters for stream 4 (Audio: truehd, 0 channels): unspecified sample format
Consider increasing the value for the 'analyzeduration' and 'probesize' options
[mpeg @ 0x2238280] Could not find codec parameters for stream 6 (Audio: dts, 0 channels): unspecified sample format
Consider increasing the value for the 'analyzeduration' and 'probesize' options
[mpeg @ 0x2238280] Could not find codec parameters for stream 7 (Audio: dts, 0 channels): unspecified sample format
Consider increasing the value for the 'analyzeduration' and 'probesize' options
[mpeg @ 0x2238280] Could not find codec parameters for stream 10 (Audio: truehd, 0 channels): unspecified sample format
Consider increasing the value for the 'analyzeduration' and 'probesize' options
[mpeg @ 0x2238280] Could not find codec parameters for stream 11 (Audio: dts, 0 channels): unspecified sample format
Consider increasing the value for the 'analyzeduration' and 'probesize' options
[mpeg @ 0x2238280] Could not find codec parameters for stream 12 (Audio: dts, 0 channels): unspecified sample format
Consider increasing the value for the 'analyzeduration' and 'probesize' options
[NULL @ 0x22c2380] start time is not set in estimate_timings_from_pts
[NULL @ 0x2370c80] start time is not set in estimate_timings_from_pts
[NULL @ 0x2439ae0] start time is not set in estimate_timings_from_pts
[NULL @ 0x24291e0] start time is not set in estimate_timings_from_pts
[NULL @ 0x24a3be0] start time is not set in estimate_timings_from_pts
[NULL @ 0x2512200] start time is not set in estimate_timings_from_pts
[NULL @ 0x26b2e40] start time is not set in estimate_timings_from_pts
[NULL @ 0x27520e0] start time is not set in estimate_timings_from_pts
Guessed Channel Layout for  Input Stream #0.2 : 2.1
Guessed Channel Layout for  Input Stream #0.8 : 7.1
Guessed Channel Layout for  Input Stream #0.9 : 7.1
Input #0, mpeg, from 'Twitches -  20121016.TiVo':
  Duration: 00:05:34.76, start: 0.673144, bitrate: 10700 kb/s
    Stream #0:0[0x1e0]: Video: mpeg2video (Main), yuv420p, 1280x720 [SAR 1:1 DAR 16:9], 20000 kb/s, 59.94 fps, 59.94 tbr, 90k tbn, 119.88 tbc
    Stream #0:1[0x80]: Audio: ac3, 48000 Hz, 5.1(side), s16, 384 kb/s
    Stream #0:2[0xa6]: Audio: pcm_dvd, 48000 Hz, 2.1, s32, 3456 kb/s
    Stream #0:3[0xc3]: Audio: ac3, 0 channels
    Stream #0:4[0xb3]: Audio: truehd, 0 channels
    Stream #0:5[0x28]: Subtitle: dvd_subtitle
    Stream #0:6[0x8f]: Audio: dts, 0 channels
    Stream #0:7[0x8a]: Audio: dts, 0 channels
    Stream #0:8[0xa3]: Audio: pcm_s16be, 44100 Hz, 7.1, s16, 5644 kb/s
    Stream #0:9[0xac]: Audio: pcm_s16be, 44100 Hz, 7.1, s16, 5644 kb/s
    Stream #0:10[0xb9]: Audio: truehd, 0 channels
    Stream #0:11[0x89]: Audio: dts, 0 channels
    Stream #0:12[0x9e]: Audio: dts, 0 channels
At least one output file must be specified

Change History (3)

comment:1 Changed 5 years ago by richardpl

  • Component changed from undetermined to avformat
  • Status changed from new to open
  • Summary changed from TiVo sample cannot be decoded to TiVo demuxer

comment:2 Changed 5 years ago by ramitbhalla

Here is the error I'm getting trying to convert a TIVO file:

ffmpeg -probesize 100M -analyzeduration 300M -i "The Chica Show (Recorded Mar 23, 2013, SP
ROUT).TiVo" -codec copy test.ts

ffmpeg version N-49757-g969039e Copyright (c) 2000-2013 the FFmpeg developers
  built on Feb  9 2013 20:28:03 with gcc 4.7.2 (GCC)
  configuration: --enable-gpl --enable-version3 --disable-w32threads --enable-avisynth --enable-bzlib --enable-fontconfi
g --enable-frei0r --enable-gnutls --enable-libass --enable-libbluray --enable-libcaca --enable-libfreetype --enable-libg
sm --enable-libmp3lame --enable-libopencore-amrnb --enable-libopencore-amrwb --enable-libopenjpeg --enable-libopus --ena
ble-librtmp --enable-libschroedinger --enable-libsoxr --enable-libspeex --enable-libtheora --enable-libtwolame --enable-
libvo-aacenc --enable-libvo-amrwbenc --enable-libvorbis --enable-libvpx --enable-libx264 --enable-libxavs --enable-libxv
id --enable-zlib
  libavutil      52. 17.101 / 52. 17.101
  libavcodec     54. 91.102 / 54. 91.102
  libavformat    54. 62.100 / 54. 62.100
  libavdevice    54.  3.103 / 54.  3.103
  libavfilter     3. 37.101 /  3. 37.101
  libswscale      2.  2.100 /  2.  2.100
  libswresample   0. 17.102 /  0. 17.102
  libpostproc    52.  2.100 / 52.  2.100
[mpeg2video @ 02372bc0] 0x0 is invalid
    Last message repeated 45 times
[mpegts @ 021c6a60] PES packet size mismatch
    Last message repeated 1 times
[mpegts @ 021c6a60] probed stream 6 failed
[mpegts @ 021c6a60] PES packet size mismatch
    Last message repeated 1 times
[mpegts @ 021c6a60] probed stream 11 failed
[mpegts @ 021c6a60] PES packet size mismatch
[mpegts @ 021c6a60] probed stream 8 failed
[mpegts @ 021c6a60] PES packet size mismatch
[mpegts @ 021c6a60] probed stream 19 failed
[mpegts @ 021c6a60] PES packet size mismatch
[mpegts @ 021c6a60] probed stream 10 failed
[mpegts @ 021c6a60] PES packet size mismatch
    Last message repeated 1 times
[mpegts @ 021c6a60] probed stream 15 failed
[mpegts @ 021c6a60] PES packet size mismatch
[mpegts @ 021c6a60] probed stream 22 failed
[mpegts @ 021c6a60] PES packet size mismatch
    Last message repeated 1 times
[mpegts @ 021c6a60] probed stream 12 failed
[mpegts @ 021c6a60] PES packet size mismatch
[mpegts @ 021c6a60] probed stream 16 failed
[mpegts @ 021c6a60] PES packet size mismatch
[mpegts @ 021c6a60] probed stream 14 failed
[mpegts @ 021c6a60] PES packet size mismatch
[mpegts @ 021c6a60] probed stream 24 failed
[mpegts @ 021c6a60] PES packet size mismatch
[mpegts @ 021c6a60] probed stream 28 failed
[mpegts @ 021c6a60] PES packet size mismatch
    Last message repeated 1 times
[mpegts @ 021c6a60] probed stream 29 failed
[mpegts @ 021c6a60] PES packet size mismatch
[mpegts @ 021c6a60] probed stream 7 failed
[mpegts @ 021c6a60] PES packet size mismatch
    Last message repeated 1 times
[mpegts @ 021c6a60] probed stream 33 failed
[mpegts @ 021c6a60] PES packet size mismatch
[mpegts @ 021c6a60] probed stream 30 failed
[mpegts @ 021c6a60] PES packet size mismatch
[mpegts @ 021c6a60] probed stream 37 failed
[mpegts @ 021c6a60] PES packet size mismatch
[mpegts @ 021c6a60] probed stream 35 failed
[mpegts @ 021c6a60] PES packet size mismatch
[mpegts @ 021c6a60] probed stream 23 failed
[mpegts @ 021c6a60] PES packet size mismatch
    Last message repeated 2 times
[mpegts @ 021c6a60] probed stream 36 failed
[mpegts @ 021c6a60] PES packet size mismatch
    Last message repeated 2 times
[mpegts @ 021c6a60] probed stream 31 failed
[mpegts @ 021c6a60] PES packet size mismatch
[mpegts @ 021c6a60] probed stream 41 failed
[mpegts @ 021c6a60] PES packet size mismatch
[mpegts @ 021c6a60] probed stream 45 failed
[mpegts @ 021c6a60] PES packet size mismatch
[mpegts @ 021c6a60] probed stream 42 failed
[mpegts @ 021c6a60] PES packet size mismatch
[mpegts @ 021c6a60] probed stream 57 failed
[mpegts @ 021c6a60] PES packet size mismatch
[mpegts @ 021c6a60] probed stream 53 failed
[mpegts @ 021c6a60] PES packet size mismatch
[mpegts @ 021c6a60] probed stream 62 failed
[mpegts @ 021c6a60] PES packet size mismatch
[mpegts @ 021c6a60] probed stream 59 failed
[mpegts @ 021c6a60] PES packet size mismatch
[mpegts @ 021c6a60] probed stream 51 failed
[mpegts @ 021c6a60] PES packet size mismatch
[mpegts @ 021c6a60] probed stream 58 failed
[mpegts @ 021c6a60] PES packet size mismatch
[mpegts @ 021c6a60] probed stream 49 failed
[mpegts @ 021c6a60] PES packet size mismatch
[mpegts @ 021c6a60] probed stream 50 failed
[mpegts @ 021c6a60] PES packet size mismatch
[mpegts @ 021c6a60] probed stream 55 failed
[mpegts @ 021c6a60] PES packet size mismatch
[mpegts @ 021c6a60] probed stream 66 failed
[mpegts @ 021c6a60] PES packet size mismatch
    Last message repeated 3 times
[mpegts @ 021c6a60] probed stream 61 failed
[mpegts @ 021c6a60] PES packet size mismatch
    Last message repeated 1 times
[mpegts @ 021c6a60] probed stream 44 failed
[mpegts @ 021c6a60] PES packet size mismatch
[mpegts @ 021c6a60] probed stream 80 failed
[mpegts @ 021c6a60] PES packet size mismatch
[mpegts @ 021c6a60] probed stream 81 failed
[mpegts @ 021c6a60] PES packet size mismatch
    Last message repeated 1 times
[mpegts @ 021c6a60] probed stream 75 failed
[mpegts @ 021c6a60] PES packet size mismatch
[mpegts @ 021c6a60] probed stream 70 failed
[mpegts @ 021c6a60] PES packet size mismatch
[mpegts @ 021c6a60] probed stream 82 failed
[mpegts @ 021c6a60] PES packet size mismatch
[mpegts @ 021c6a60] probed stream 73 failed
[mpegts @ 021c6a60] PES packet size mismatch
[mpegts @ 021c6a60] probed stream 87 failed
[mpegts @ 021c6a60] PES packet size mismatch
    Last message repeated 1 times
[mpegts @ 021c6a60] probed stream 77 failed
[mpegts @ 021c6a60] PES packet size mismatch
[mpegts @ 021c6a60] probed stream 95 failed
[mpegts @ 021c6a60] PES packet size mismatch
[mpegts @ 021c6a60] probed stream 83 failed
[mpegts @ 021c6a60] PES packet size mismatch
[mpegts @ 021c6a60] probed stream 92 failed
[mpegts @ 021c6a60] PES packet size mismatch
[mpegts @ 021c6a60] probed stream 97 failed
[mpegts @ 021c6a60] PES packet size mismatch
[mpegts @ 021c6a60] probed stream 93 failed
[mpegts @ 021c6a60] PES packet size mismatch
[mpegts @ 021c6a60] probed stream 101 failed
[mpegts @ 021c6a60] PES packet size mismatch
[mpegts @ 021c6a60] probed stream 91 failed
[mpegts @ 021c6a60] PES packet size mismatch
[mpegts @ 021c6a60] probed stream 69 failed
[mpegts @ 021c6a60] PES packet size mismatch
[mpegts @ 021c6a60] probed stream 88 failed
[mpegts @ 021c6a60] PES packet size mismatch
[mpegts @ 021c6a60] probed stream 65 failed
[mpegts @ 021c6a60] PES packet size mismatch
    Last message repeated 4 times
[mpegts @ 021c6a60] probed stream 103 failed
[mpegts @ 021c6a60] PES packet size mismatch
[mpegts @ 021c6a60] probed stream 121 failed
[mpegts @ 021c6a60] PES packet size mismatch
[mpegts @ 021c6a60] probed stream 106 failed
[mpegts @ 021c6a60] PES packet size mismatch
[mpegts @ 021c6a60] probed stream 84 failed
[mpegts @ 021c6a60] PES packet size mismatch
[mpegts @ 021c6a60] probed stream 46 failed
[mpegts @ 021c6a60] PES packet size mismatch
[mpegts @ 021c6a60] probed stream 90 failed
[mpegts @ 021c6a60] PES packet size mismatch
[mpegts @ 021c6a60] probed stream 67 failed
[mpegts @ 021c6a60] PES packet size mismatch
    Last message repeated 1 times
[mpegts @ 021c6a60] probed stream 99 failed
[mpegts @ 021c6a60] PES packet size mismatch
[mpegts @ 021c6a60] probed stream 112 failed
[mpegts @ 021c6a60] PES packet size mismatch
[mpegts @ 021c6a60] probed stream 85 failed
[mpegts @ 021c6a60] PES packet size mismatch
[mpegts @ 021c6a60] probed stream 108 failed
[mpegts @ 021c6a60] PES packet size mismatch
    Last message repeated 1 times
[mpegts @ 021c6a60] probed stream 115 failed
[mpegts @ 021c6a60] PES packet size mismatch
[mpegts @ 021c6a60] probed stream 122 failed
[mpegts @ 021c6a60] PES packet size mismatch
[mpegts @ 021c6a60] probed stream 43 failed
[mpegts @ 021c6a60] PES packet size mismatch
    Last message repeated 1 times
[mpegts @ 021c6a60] probed stream 118 failed
[mpegts @ 021c6a60] probed stream 3 failed
[mpegts @ 021c6a60] nothing to probe for stream 13
[mpegts @ 021c6a60] probed stream 13 failed
[mpegts @ 021c6a60] nothing to probe for stream 17
[mpegts @ 021c6a60] probed stream 17 failed
[mpegts @ 021c6a60] nothing to probe for stream 18
[mpegts @ 021c6a60] probed stream 18 failed
[mpegts @ 021c6a60] nothing to probe for stream 26
[mpegts @ 021c6a60] probed stream 26 failed
[mpegts @ 021c6a60] nothing to probe for stream 38
[mpegts @ 021c6a60] probed stream 38 failed
[mpegts @ 021c6a60] nothing to probe for stream 40
[mpegts @ 021c6a60] probed stream 40 failed
[mpegts @ 021c6a60] nothing to probe for stream 47
[mpegts @ 021c6a60] probed stream 47 failed
[mpegts @ 021c6a60] nothing to probe for stream 52
[mpegts @ 021c6a60] probed stream 52 failed
[mpegts @ 021c6a60] nothing to probe for stream 56
[mpegts @ 021c6a60] probed stream 56 failed
[mpegts @ 021c6a60] nothing to probe for stream 60
[mpegts @ 021c6a60] probed stream 60 failed
[mpegts @ 021c6a60] nothing to probe for stream 64
[mpegts @ 021c6a60] probed stream 64 failed
[mpegts @ 021c6a60] nothing to probe for stream 68
[mpegts @ 021c6a60] probed stream 68 failed
[mpegts @ 021c6a60] nothing to probe for stream 72
[mpegts @ 021c6a60] probed stream 72 failed
[mpegts @ 021c6a60] nothing to probe for stream 74
[mpegts @ 021c6a60] probed stream 74 failed
[mpegts @ 021c6a60] nothing to probe for stream 76
[mpegts @ 021c6a60] probed stream 76 failed
[mpegts @ 021c6a60] nothing to probe for stream 89
[mpegts @ 021c6a60] probed stream 89 failed
[mpegts @ 021c6a60] nothing to probe for stream 94
[mpegts @ 021c6a60] probed stream 94 failed
[mpegts @ 021c6a60] nothing to probe for stream 100
[mpegts @ 021c6a60] probed stream 100 failed
[mpegts @ 021c6a60] nothing to probe for stream 104
[mpegts @ 021c6a60] probed stream 104 failed
[mpegts @ 021c6a60] nothing to probe for stream 105
[mpegts @ 021c6a60] probed stream 105 failed
[mpegts @ 021c6a60] nothing to probe for stream 109
[mpegts @ 021c6a60] probed stream 109 failed
[mpegts @ 021c6a60] nothing to probe for stream 110
[mpegts @ 021c6a60] probed stream 110 failed
[mpegts @ 021c6a60] nothing to probe for stream 111
[mpegts @ 021c6a60] probed stream 111 failed
[mpegts @ 021c6a60] nothing to probe for stream 113
[mpegts @ 021c6a60] probed stream 113 failed
[mpegts @ 021c6a60] nothing to probe for stream 116
[mpegts @ 021c6a60] probed stream 116 failed
[mpegts @ 021c6a60] nothing to probe for stream 117
[mpegts @ 021c6a60] probed stream 117 failed
[mpegts @ 021c6a60] nothing to probe for stream 120
[mpegts @ 021c6a60] probed stream 120 failed
[mpegts @ 021c6a60] nothing to probe for stream 123
[mpegts @ 021c6a60] probed stream 123 failed
[mpegts @ 021c6a60] Invalid timestamps stream=3, pts=3898625752, dts=6890741007, size=228
[mpegts @ 021c6a60] Invalid timestamps stream=11, pts=36079248, dts=5372355147, size=57
[mp3 @ 0fbd6680] Header missing
[mpegts @ 021c6a60] Invalid timestamps stream=12, pts=186277128, dts=4105779619, size=2
[mpegts @ 021c6a60] Invalid timestamps stream=7, pts=3423788217, dts=5932058187, size=89
[aac @ 0fbd96e0] get_buffer() failed
[aac @ 0fbd9f00] get_buffer() failed
[aac @ 31572320] get_buffer() failed
[aac @ 315767a0] get_buffer() failed
[mp2 @ 5234e0c0] Header missing
[mpegts @ 021c6a60] Stream #1: not enough frames to estimate rate; consider increasing probesize
[mpegts @ 021c6a60] Stream #2: not enough frames to estimate rate; consider increasing probesize
[mpegts @ 021c6a60] Stream #3: not enough frames to estimate rate; consider increasing probesize
[mpegts @ 021c6a60] Stream #4: not enough frames to estimate rate; consider increasing probesize
[mpegts @ 021c6a60] Stream #5: not enough frames to estimate rate; consider increasing probesize
[mpegts @ 021c6a60] Stream #6: not enough frames to estimate rate; consider increasing probesize
[mpegts @ 021c6a60] Stream #7: not enough frames to estimate rate; consider increasing probesize
[mpegts @ 021c6a60] Stream #8: not enough frames to estimate rate; consider increasing probesize
[mpegts @ 021c6a60] Stream #9: not enough frames to estimate rate; consider increasing probesize
[mpegts @ 021c6a60] Stream #10: not enough frames to estimate rate; consider increasing probesize
[mpegts @ 021c6a60] Stream #11: not enough frames to estimate rate; consider increasing probesize
[mpegts @ 021c6a60] Stream #12: not enough frames to estimate rate; consider increasing probesize
[mpegts @ 021c6a60] Stream #13: not enough frames to estimate rate; consider increasing probesize
[mpegts @ 021c6a60] Stream #14: not enough frames to estimate rate; consider increasing probesize
[mpegts @ 021c6a60] Stream #15: not enough frames to estimate rate; consider increasing probesize
[mpegts @ 021c6a60] Stream #16: not enough frames to estimate rate; consider increasing probesize
[mpegts @ 021c6a60] Stream #17: not enough frames to estimate rate; consider increasing probesize
[mpegts @ 021c6a60] Stream #18: not enough frames to estimate rate; consider increasing probesize
[mpegts @ 021c6a60] Stream #19: not enough frames to estimate rate; consider increasing probesize
[mpegts @ 021c6a60] Stream #20: not enough frames to estimate rate; consider increasing probesize
[mpegts @ 021c6a60] Stream #21: not enough frames to estimate rate; consider increasing probesize
[mpegts @ 021c6a60] Stream #22: not enough frames to estimate rate; consider increasing probesize
[mpegts @ 021c6a60] Stream #23: not enough frames to estimate rate; consider increasing probesize
[mpegts @ 021c6a60] Stream #24: not enough frames to estimate rate; consider increasing probesize
[mpegts @ 021c6a60] Stream #25: not enough frames to estimate rate; consider increasing probesize
[mpegts @ 021c6a60] Stream #26: not enough frames to estimate rate; consider increasing probesize
[mpegts @ 021c6a60] Stream #27: not enough frames to estimate rate; consider increasing probesize
[mpegts @ 021c6a60] Stream #28: not enough frames to estimate rate; consider increasing probesize
[mpegts @ 021c6a60] Stream #29: not enough frames to estimate rate; consider increasing probesize
[mpegts @ 021c6a60] Stream #30: not enough frames to estimate rate; consider increasing probesize
[mpegts @ 021c6a60] Stream #31: not enough frames to estimate rate; consider increasing probesize
[mpegts @ 021c6a60] Stream #32: not enough frames to estimate rate; consider increasing probesize
[mpegts @ 021c6a60] Stream #33: not enough frames to estimate rate; consider increasing probesize
[mpegts @ 021c6a60] Stream #34: not enough frames to estimate rate; consider increasing probesize
[mpegts @ 021c6a60] Stream #35: not enough frames to estimate rate; consider increasing probesize
[mpegts @ 021c6a60] Stream #36: not enough frames to estimate rate; consider increasing probesize
[mpegts @ 021c6a60] Stream #37: not enough frames to estimate rate; consider increasing probesize
[mpegts @ 021c6a60] Stream #38: not enough frames to estimate rate; consider increasing probesize
[mpegts @ 021c6a60] Stream #39: not enough frames to estimate rate; consider increasing probesize
[mpegts @ 021c6a60] Stream #40: not enough frames to estimate rate; consider increasing probesize
[mpegts @ 021c6a60] Stream #41: not enough frames to estimate rate; consider increasing probesize
[mpegts @ 021c6a60] Stream #42: not enough frames to estimate rate; consider increasing probesize
[mpegts @ 021c6a60] Stream #43: not enough frames to estimate rate; consider increasing probesize
[mpegts @ 021c6a60] Stream #44: not enough frames to estimate rate; consider increasing probesize
[mpegts @ 021c6a60] Stream #45: not enough frames to estimate rate; consider increasing probesize
[mpegts @ 021c6a60] Stream #46: not enough frames to estimate rate; consider increasing probesize
[mpegts @ 021c6a60] Stream #47: not enough frames to estimate rate; consider increasing probesize
[mpegts @ 021c6a60] Stream #48: not enough frames to estimate rate; consider increasing probesize
[mpegts @ 021c6a60] Stream #49: not enough frames to estimate rate; consider increasing probesize
[mpegts @ 021c6a60] Stream #50: not enough frames to estimate rate; consider increasing probesize
[mpegts @ 021c6a60] Stream #51: not enough frames to estimate rate; consider increasing probesize
[mpegts @ 021c6a60] Stream #52: not enough frames to estimate rate; consider increasing probesize
[mpegts @ 021c6a60] Stream #53: not enough frames to estimate rate; consider increasing probesize
[mpegts @ 021c6a60] Stream #54: not enough frames to estimate rate; consider increasing probesize
[mpegts @ 021c6a60] Stream #55: not enough frames to estimate rate; consider increasing probesize
[mpegts @ 021c6a60] Stream #56: not enough frames to estimate rate; consider increasing probesize
[mpegts @ 021c6a60] Stream #57: not enough frames to estimate rate; consider increasing probesize
[mpegts @ 021c6a60] Stream #58: not enough frames to estimate rate; consider increasing probesize
[mpegts @ 021c6a60] Stream #59: not enough frames to estimate rate; consider increasing probesize
[mpegts @ 021c6a60] Stream #60: not enough frames to estimate rate; consider increasing probesize
[mpegts @ 021c6a60] Stream #61: not enough frames to estimate rate; consider increasing probesize
[mpegts @ 021c6a60] Stream #62: not enough frames to estimate rate; consider increasing probesize
[mpegts @ 021c6a60] Stream #63: not enough frames to estimate rate; consider increasing probesize
[mpegts @ 021c6a60] Stream #64: not enough frames to estimate rate; consider increasing probesize
[mpegts @ 021c6a60] Stream #65: not enough frames to estimate rate; consider increasing probesize
[mpegts @ 021c6a60] Stream #66: not enough frames to estimate rate; consider increasing probesize
[mpegts @ 021c6a60] Stream #67: not enough frames to estimate rate; consider increasing probesize
[mpegts @ 021c6a60] Stream #68: not enough frames to estimate rate; consider increasing probesize
[mpegts @ 021c6a60] Stream #69: not enough frames to estimate rate; consider increasing probesize
[mpegts @ 021c6a60] Stream #70: not enough frames to estimate rate; consider increasing probesize
[mpegts @ 021c6a60] Stream #71: not enough frames to estimate rate; consider increasing probesize
[mpegts @ 021c6a60] Stream #72: not enough frames to estimate rate; consider increasing probesize
[mpegts @ 021c6a60] Stream #73: not enough frames to estimate rate; consider increasing probesize
[mpegts @ 021c6a60] Stream #74: not enough frames to estimate rate; consider increasing probesize
[mpegts @ 021c6a60] Stream #75: not enough frames to estimate rate; consider increasing probesize
[mpegts @ 021c6a60] Stream #76: not enough frames to estimate rate; consider increasing probesize
[mpegts @ 021c6a60] Stream #77: not enough frames to estimate rate; consider increasing probesize
[mpegts @ 021c6a60] Stream #78: not enough frames to estimate rate; consider increasing probesize
[mpegts @ 021c6a60] Stream #79: not enough frames to estimate rate; consider increasing probesize
[mpegts @ 021c6a60] Stream #80: not enough frames to estimate rate; consider increasing probesize
[mpegts @ 021c6a60] Stream #81: not enough frames to estimate rate; consider increasing probesize
[mpegts @ 021c6a60] Stream #82: not enough frames to estimate rate; consider increasing probesize
[mpegts @ 021c6a60] Stream #83: not enough frames to estimate rate; consider increasing probesize
[mpegts @ 021c6a60] Stream #84: not enough frames to estimate rate; consider increasing probesize
[mpegts @ 021c6a60] Stream #85: not enough frames to estimate rate; consider increasing probesize
[mpegts @ 021c6a60] Stream #86: not enough frames to estimate rate; consider increasing probesize
[mpegts @ 021c6a60] Stream #87: not enough frames to estimate rate; consider increasing probesize
[mpegts @ 021c6a60] Stream #88: not enough frames to estimate rate; consider increasing probesize
[mpegts @ 021c6a60] Stream #89: not enough frames to estimate rate; consider increasing probesize
[mpegts @ 021c6a60] Stream #90: not enough frames to estimate rate; consider increasing probesize
[mpegts @ 021c6a60] Stream #91: not enough frames to estimate rate; consider increasing probesize
[mpegts @ 021c6a60] Stream #92: not enough frames to estimate rate; consider increasing probesize
[mpegts @ 021c6a60] Stream #93: not enough frames to estimate rate; consider increasing probesize
[mpegts @ 021c6a60] Stream #94: not enough frames to estimate rate; consider increasing probesize
[mpegts @ 021c6a60] Stream #95: not enough frames to estimate rate; consider increasing probesize
[mpegts @ 021c6a60] Stream #96: not enough frames to estimate rate; consider increasing probesize
[mpegts @ 021c6a60] Stream #97: not enough frames to estimate rate; consider increasing probesize
[mpegts @ 021c6a60] Stream #98: not enough frames to estimate rate; consider increasing probesize
[mpegts @ 021c6a60] Stream #99: not enough frames to estimate rate; consider increasing probesize
[mpegts @ 021c6a60] Stream #100: not enough frames to estimate rate; consider increasing probesize
[mpegts @ 021c6a60] Stream #101: not enough frames to estimate rate; consider increasing probesize
[mpegts @ 021c6a60] Stream #102: not enough frames to estimate rate; consider increasing probesize
[mpegts @ 021c6a60] Stream #103: not enough frames to estimate rate; consider increasing probesize
[mpegts @ 021c6a60] Stream #104: not enough frames to estimate rate; consider increasing probesize
[mpegts @ 021c6a60] Stream #105: not enough frames to estimate rate; consider increasing probesize
[mpegts @ 021c6a60] Stream #106: not enough frames to estimate rate; consider increasing probesize
[mpegts @ 021c6a60] Stream #107: not enough frames to estimate rate; consider increasing probesize
[mpegts @ 021c6a60] Stream #108: not enough frames to estimate rate; consider increasing probesize
[mpegts @ 021c6a60] Stream #109: not enough frames to estimate rate; consider increasing probesize
[mpegts @ 021c6a60] Stream #110: not enough frames to estimate rate; consider increasing probesize
[mpegts @ 021c6a60] Stream #111: not enough frames to estimate rate; consider increasing probesize
[mpegts @ 021c6a60] Stream #112: not enough frames to estimate rate; consider increasing probesize
[mpegts @ 021c6a60] Stream #113: not enough frames to estimate rate; consider increasing probesize
[mpegts @ 021c6a60] Stream #114: not enough frames to estimate rate; consider increasing probesize
[mpegts @ 021c6a60] Stream #115: not enough frames to estimate rate; consider increasing probesize
[mpegts @ 021c6a60] Stream #116: not enough frames to estimate rate; consider increasing probesize
[mpegts @ 021c6a60] Stream #117: not enough frames to estimate rate; consider increasing probesize
[mpegts @ 021c6a60] Stream #118: not enough frames to estimate rate; consider increasing probesize
[mpegts @ 021c6a60] Stream #119: not enough frames to estimate rate; consider increasing probesize
[mpegts @ 021c6a60] Stream #120: not enough frames to estimate rate; consider increasing probesize
[mpegts @ 021c6a60] Stream #121: not enough frames to estimate rate; consider increasing probesize
[mpegts @ 021c6a60] Stream #122: not enough frames to estimate rate; consider increasing probesize
[mpegts @ 021c6a60] Stream #123: not enough frames to estimate rate; consider increasing probesize
[mpegts @ 021c6a60] Could not find codec parameters for stream 1 (Audio: ac3 ([129][0][0][0] / 0x0081), 0 channels, fltp
): unspecified sample rate
Consider increasing the value for the 'analyzeduration' and 'probesize' options
[mpegts @ 021c6a60] Could not find codec parameters for stream 2 (Unknown: none ([151][0][0][0] / 0x0097)): unknown code
c
Consider increasing the value for the 'analyzeduration' and 'probesize' options
[mpegts @ 021c6a60] Could not find codec parameters for stream 3 (Unknown: none): unknown codec
Consider increasing the value for the 'analyzeduration' and 'probesize' options
[mpegts @ 021c6a60] Could not find codec parameters for stream 4 (Audio: mp1, 0 channels): unspecified frame size
Consider increasing the value for the 'analyzeduration' and 'probesize' options
[mpegts @ 021c6a60] Could not find codec parameters for stream 5 (Audio: mp3, 0 channels): unspecified frame size
Consider increasing the value for the 'analyzeduration' and 'probesize' options
[mpegts @ 021c6a60] Could not find codec parameters for stream 6 (Unknown: none): unknown codec
Consider increasing the value for the 'analyzeduration' and 'probesize' options
[mpegts @ 021c6a60] Could not find codec parameters for stream 7 (Unknown: none): unknown codec
Consider increasing the value for the 'analyzeduration' and 'probesize' options
[mpegts @ 021c6a60] Could not find codec parameters for stream 8 (Unknown: none): unknown codec
Consider increasing the value for the 'analyzeduration' and 'probesize' options
[mpegts @ 021c6a60] Could not find codec parameters for stream 9 (Audio: aac, 0 channels): unspecified sample format
Consider increasing the value for the 'analyzeduration' and 'probesize' options
[mpegts @ 021c6a60] Could not find codec parameters for stream 10 (Unknown: none): unknown codec
Consider increasing the value for the 'analyzeduration' and 'probesize' options
[mpegts @ 021c6a60] Could not find codec parameters for stream 11 (Unknown: none): unknown codec
Consider increasing the value for the 'analyzeduration' and 'probesize' options
[mpegts @ 021c6a60] Could not find codec parameters for stream 12 (Unknown: none): unknown codec
Consider increasing the value for the 'analyzeduration' and 'probesize' options
[mpegts @ 021c6a60] Could not find codec parameters for stream 13 (Unknown: none): unknown codec
Consider increasing the value for the 'analyzeduration' and 'probesize' options
[mpegts @ 021c6a60] Could not find codec parameters for stream 14 (Unknown: none): unknown codec
Consider increasing the value for the 'analyzeduration' and 'probesize' options
[mpegts @ 021c6a60] Could not find codec parameters for stream 15 (Unknown: none): unknown codec
Consider increasing the value for the 'analyzeduration' and 'probesize' options
[mpegts @ 021c6a60] Could not find codec parameters for stream 16 (Unknown: none): unknown codec
Consider increasing the value for the 'analyzeduration' and 'probesize' options
[mpegts @ 021c6a60] Could not find codec parameters for stream 17 (Unknown: none): unknown codec
Consider increasing the value for the 'analyzeduration' and 'probesize' options
[mpegts @ 021c6a60] Could not find codec parameters for stream 18 (Unknown: none): unknown codec
Consider increasing the value for the 'analyzeduration' and 'probesize' options
[mpegts @ 021c6a60] Could not find codec parameters for stream 19 (Unknown: none): unknown codec
Consider increasing the value for the 'analyzeduration' and 'probesize' options
[mpegts @ 021c6a60] decoding for stream 20 failed
[mpegts @ 021c6a60] Could not find codec parameters for stream 20 (Audio: mp3, 0 channels, s16p): unspecified frame size

Consider increasing the value for the 'analyzeduration' and 'probesize' options
[mpegts @ 021c6a60] Could not find codec parameters for stream 21 (Audio: mp1, 0 channels): unspecified frame size
Consider increasing the value for the 'analyzeduration' and 'probesize' options
[mpegts @ 021c6a60] Could not find codec parameters for stream 22 (Unknown: none): unknown codec
Consider increasing the value for the 'analyzeduration' and 'probesize' options
[mpegts @ 021c6a60] Could not find codec parameters for stream 23 (Unknown: none): unknown codec
Consider increasing the value for the 'analyzeduration' and 'probesize' options
[mpegts @ 021c6a60] Could not find codec parameters for stream 24 (Unknown: none): unknown codec
Consider increasing the value for the 'analyzeduration' and 'probesize' options
[mpegts @ 021c6a60] Could not find codec parameters for stream 25 (Audio: mp2, 0 channels): unspecified frame size
Consider increasing the value for the 'analyzeduration' and 'probesize' options
[mpegts @ 021c6a60] Could not find codec parameters for stream 26 (Unknown: none): unknown codec
Consider increasing the value for the 'analyzeduration' and 'probesize' options
[mpegts @ 021c6a60] Could not find codec parameters for stream 27 (Audio: mp2, 0 channels): unspecified frame size
Consider increasing the value for the 'analyzeduration' and 'probesize' options
[mpegts @ 021c6a60] Could not find codec parameters for stream 28 (Unknown: none): unknown codec
Consider increasing the value for the 'analyzeduration' and 'probesize' options
[mpegts @ 021c6a60] Could not find codec parameters for stream 29 (Unknown: none): unknown codec
Consider increasing the value for the 'analyzeduration' and 'probesize' options
[mpegts @ 021c6a60] Could not find codec parameters for stream 30 (Unknown: none): unknown codec
Consider increasing the value for the 'analyzeduration' and 'probesize' options
[mpegts @ 021c6a60] Could not find codec parameters for stream 31 (Unknown: none): unknown codec
Consider increasing the value for the 'analyzeduration' and 'probesize' options
[mpegts @ 021c6a60] decoding for stream 32 failed
[mpegts @ 021c6a60] Could not find codec parameters for stream 32 (Audio: aac, 0 channels, fltp, 100 kb/s): unspecified
sample rate
Consider increasing the value for the 'analyzeduration' and 'probesize' options
[mpegts @ 021c6a60] Could not find codec parameters for stream 33 (Unknown: none): unknown codec
Consider increasing the value for the 'analyzeduration' and 'probesize' options
[mpegts @ 021c6a60] decoding for stream 34 failed
[mpegts @ 021c6a60] Could not find codec parameters for stream 34 (Audio: aac, 0 channels, fltp, 123 kb/s): unspecified
sample rate
Consider increasing the value for the 'analyzeduration' and 'probesize' options
[mpegts @ 021c6a60] Could not find codec parameters for stream 35 (Unknown: none): unknown codec
Consider increasing the value for the 'analyzeduration' and 'probesize' options
[mpegts @ 021c6a60] Could not find codec parameters for stream 36 (Unknown: none): unknown codec
Consider increasing the value for the 'analyzeduration' and 'probesize' options
[mpegts @ 021c6a60] Could not find codec parameters for stream 37 (Unknown: none): unknown codec
Consider increasing the value for the 'analyzeduration' and 'probesize' options
[mpegts @ 021c6a60] Could not find codec parameters for stream 38 (Unknown: none): unknown codec
Consider increasing the value for the 'analyzeduration' and 'probesize' options
[mpegts @ 021c6a60] Could not find codec parameters for stream 39 (Audio: mp1, 0 channels): unspecified frame size
Consider increasing the value for the 'analyzeduration' and 'probesize' options
[mpegts @ 021c6a60] Could not find codec parameters for stream 40 (Unknown: none): unknown codec
Consider increasing the value for the 'analyzeduration' and 'probesize' options
[mpegts @ 021c6a60] Could not find codec parameters for stream 41 (Unknown: none): unknown codec
Consider increasing the value for the 'analyzeduration' and 'probesize' options
[mpegts @ 021c6a60] Could not find codec parameters for stream 42 (Unknown: none): unknown codec
Consider increasing the value for the 'analyzeduration' and 'probesize' options
[mpegts @ 021c6a60] Could not find codec parameters for stream 43 (Unknown: none): unknown codec
Consider increasing the value for the 'analyzeduration' and 'probesize' options
[mpegts @ 021c6a60] Could not find codec parameters for stream 44 (Unknown: none): unknown codec
Consider increasing the value for the 'analyzeduration' and 'probesize' options
[mpegts @ 021c6a60] Could not find codec parameters for stream 45 (Unknown: none): unknown codec
Consider increasing the value for the 'analyzeduration' and 'probesize' options
[mpegts @ 021c6a60] Could not find codec parameters for stream 46 (Unknown: none): unknown codec
Consider increasing the value for the 'analyzeduration' and 'probesize' options
[mpegts @ 021c6a60] Could not find codec parameters for stream 47 (Unknown: none): unknown codec
Consider increasing the value for the 'analyzeduration' and 'probesize' options
[mpegts @ 021c6a60] Could not find codec parameters for stream 48 (Audio: mp1, 0 channels): unspecified frame size
Consider increasing the value for the 'analyzeduration' and 'probesize' options
[mpegts @ 021c6a60] Could not find codec parameters for stream 49 (Unknown: none): unknown codec
Consider increasing the value for the 'analyzeduration' and 'probesize' options
[mpegts @ 021c6a60] Could not find codec parameters for stream 50 (Unknown: none): unknown codec
Consider increasing the value for the 'analyzeduration' and 'probesize' options
[mpegts @ 021c6a60] Could not find codec parameters for stream 51 (Unknown: none): unknown codec
Consider increasing the value for the 'analyzeduration' and 'probesize' options
[mpegts @ 021c6a60] Could not find codec parameters for stream 52 (Unknown: none): unknown codec
Consider increasing the value for the 'analyzeduration' and 'probesize' options
[mpegts @ 021c6a60] Could not find codec parameters for stream 53 (Unknown: none): unknown codec
Consider increasing the value for the 'analyzeduration' and 'probesize' options
[mpegts @ 021c6a60] decoding for stream 54 failed
[mpegts @ 021c6a60] Could not find codec parameters for stream 54 (Audio: aac, 0 channels, fltp, 343 kb/s): unspecified
sample rate
Consider increasing the value for the 'analyzeduration' and 'probesize' options
[mpegts @ 021c6a60] Could not find codec parameters for stream 55 (Unknown: none): unknown codec
Consider increasing the value for the 'analyzeduration' and 'probesize' options
[mpegts @ 021c6a60] Could not find codec parameters for stream 56 (Unknown: none): unknown codec
Consider increasing the value for the 'analyzeduration' and 'probesize' options
[mpegts @ 021c6a60] Could not find codec parameters for stream 57 (Unknown: none): unknown codec
Consider increasing the value for the 'analyzeduration' and 'probesize' options
[mpegts @ 021c6a60] Could not find codec parameters for stream 58 (Unknown: none): unknown codec
Consider increasing the value for the 'analyzeduration' and 'probesize' options
[mpegts @ 021c6a60] Could not find codec parameters for stream 59 (Unknown: none): unknown codec
Consider increasing the value for the 'analyzeduration' and 'probesize' options
[mpegts @ 021c6a60] Could not find codec parameters for stream 60 (Unknown: none): unknown codec
Consider increasing the value for the 'analyzeduration' and 'probesize' options
[mpegts @ 021c6a60] Could not find codec parameters for stream 61 (Unknown: none): unknown codec
Consider increasing the value for the 'analyzeduration' and 'probesize' options
[mpegts @ 021c6a60] Could not find codec parameters for stream 62 (Unknown: none): unknown codec
Consider increasing the value for the 'analyzeduration' and 'probesize' options
[mpegts @ 021c6a60] Could not find codec parameters for stream 63 (Audio: mp3, 0 channels): unspecified frame size
Consider increasing the value for the 'analyzeduration' and 'probesize' options
[mpegts @ 021c6a60] Could not find codec parameters for stream 64 (Unknown: none): unknown codec
Consider increasing the value for the 'analyzeduration' and 'probesize' options
[mpegts @ 021c6a60] Could not find codec parameters for stream 65 (Unknown: none): unknown codec
Consider increasing the value for the 'analyzeduration' and 'probesize' options
[mpegts @ 021c6a60] Could not find codec parameters for stream 66 (Unknown: none): unknown codec
Consider increasing the value for the 'analyzeduration' and 'probesize' options
[mpegts @ 021c6a60] Could not find codec parameters for stream 67 (Unknown: none): unknown codec
Consider increasing the value for the 'analyzeduration' and 'probesize' options
[mpegts @ 021c6a60] Could not find codec parameters for stream 68 (Unknown: none): unknown codec
Consider increasing the value for the 'analyzeduration' and 'probesize' options
[mpegts @ 021c6a60] Could not find codec parameters for stream 69 (Unknown: none): unknown codec
Consider increasing the value for the 'analyzeduration' and 'probesize' options
[mpegts @ 021c6a60] Could not find codec parameters for stream 70 (Unknown: none): unknown codec
Consider increasing the value for the 'analyzeduration' and 'probesize' options
[mpegts @ 021c6a60] decoding for stream 71 failed
[mpegts @ 021c6a60] Could not find codec parameters for stream 71 (Audio: aac, 0 channels, fltp, 48 kb/s): unspecified s
ample rate
Consider increasing the value for the 'analyzeduration' and 'probesize' options
[mpegts @ 021c6a60] Could not find codec parameters for stream 72 (Unknown: none): unknown codec
Consider increasing the value for the 'analyzeduration' and 'probesize' options
[mpegts @ 021c6a60] Could not find codec parameters for stream 73 (Unknown: none): unknown codec
Consider increasing the value for the 'analyzeduration' and 'probesize' options
[mpegts @ 021c6a60] Could not find codec parameters for stream 74 (Unknown: none): unknown codec
Consider increasing the value for the 'analyzeduration' and 'probesize' options
[mpegts @ 021c6a60] Could not find codec parameters for stream 75 (Unknown: none): unknown codec
Consider increasing the value for the 'analyzeduration' and 'probesize' options
[mpegts @ 021c6a60] Could not find codec parameters for stream 76 (Unknown: none): unknown codec
Consider increasing the value for the 'analyzeduration' and 'probesize' options
[mpegts @ 021c6a60] Could not find codec parameters for stream 77 (Unknown: none): unknown codec
Consider increasing the value for the 'analyzeduration' and 'probesize' options
[mpegts @ 021c6a60] Could not find codec parameters for stream 78 (Audio: mp3, 0 channels): unspecified frame size
Consider increasing the value for the 'analyzeduration' and 'probesize' options
[mpegts @ 021c6a60] decoding for stream 79 failed
[mpegts @ 021c6a60] Could not find codec parameters for stream 79 (Audio: mp2, 0 channels, s16p): unspecified frame size

Consider increasing the value for the 'analyzeduration' and 'probesize' options
[mpegts @ 021c6a60] Could not find codec parameters for stream 80 (Unknown: none): unknown codec
Consider increasing the value for the 'analyzeduration' and 'probesize' options
[mpegts @ 021c6a60] Could not find codec parameters for stream 81 (Unknown: none): unknown codec
Consider increasing the value for the 'analyzeduration' and 'probesize' options
[mpegts @ 021c6a60] Could not find codec parameters for stream 82 (Unknown: none): unknown codec
Consider increasing the value for the 'analyzeduration' and 'probesize' options
[mpegts @ 021c6a60] Could not find codec parameters for stream 83 (Unknown: none): unknown codec
Consider increasing the value for the 'analyzeduration' and 'probesize' options
[mpegts @ 021c6a60] Could not find codec parameters for stream 84 (Unknown: none): unknown codec
Consider increasing the value for the 'analyzeduration' and 'probesize' options
[mpegts @ 021c6a60] Could not find codec parameters for stream 85 (Unknown: none): unknown codec
Consider increasing the value for the 'analyzeduration' and 'probesize' options
[mpegts @ 021c6a60] Could not find codec parameters for stream 86 (Audio: mp3, 0 channels): unspecified frame size
Consider increasing the value for the 'analyzeduration' and 'probesize' options
[mpegts @ 021c6a60] Could not find codec parameters for stream 87 (Unknown: none): unknown codec
Consider increasing the value for the 'analyzeduration' and 'probesize' options
[mpegts @ 021c6a60] Could not find codec parameters for stream 88 (Unknown: none): unknown codec
Consider increasing the value for the 'analyzeduration' and 'probesize' options
[mpegts @ 021c6a60] Could not find codec parameters for stream 89 (Unknown: none): unknown codec
Consider increasing the value for the 'analyzeduration' and 'probesize' options
[mpegts @ 021c6a60] Could not find codec parameters for stream 90 (Unknown: none): unknown codec
Consider increasing the value for the 'analyzeduration' and 'probesize' options
[mpegts @ 021c6a60] Could not find codec parameters for stream 91 (Unknown: none): unknown codec
Consider increasing the value for the 'analyzeduration' and 'probesize' options
[mpegts @ 021c6a60] Could not find codec parameters for stream 92 (Unknown: none): unknown codec
Consider increasing the value for the 'analyzeduration' and 'probesize' options
[mpegts @ 021c6a60] Could not find codec parameters for stream 93 (Unknown: none): unknown codec
Consider increasing the value for the 'analyzeduration' and 'probesize' options
[mpegts @ 021c6a60] Could not find codec parameters for stream 94 (Unknown: none): unknown codec
Consider increasing the value for the 'analyzeduration' and 'probesize' options
[mpegts @ 021c6a60] Could not find codec parameters for stream 95 (Unknown: none): unknown codec
Consider increasing the value for the 'analyzeduration' and 'probesize' options
[mpegts @ 021c6a60] Could not find codec parameters for stream 96 (Audio: mp3, 0 channels): unspecified frame size
Consider increasing the value for the 'analyzeduration' and 'probesize' options
[mpegts @ 021c6a60] Could not find codec parameters for stream 97 (Unknown: none): unknown codec
Consider increasing the value for the 'analyzeduration' and 'probesize' options
[mpegts @ 021c6a60] Could not find codec parameters for stream 98 (Audio: mp3, 0 channels): unspecified frame size
Consider increasing the value for the 'analyzeduration' and 'probesize' options
[mpegts @ 021c6a60] Could not find codec parameters for stream 99 (Unknown: none): unknown codec
Consider increasing the value for the 'analyzeduration' and 'probesize' options
[mpegts @ 021c6a60] Could not find codec parameters for stream 100 (Unknown: none): unknown codec
Consider increasing the value for the 'analyzeduration' and 'probesize' options
[mpegts @ 021c6a60] Could not find codec parameters for stream 101 (Unknown: none): unknown codec
Consider increasing the value for the 'analyzeduration' and 'probesize' options
[mpegts @ 021c6a60] Could not find codec parameters for stream 102 (Audio: mp3, 0 channels): unspecified frame size
Consider increasing the value for the 'analyzeduration' and 'probesize' options
[mpegts @ 021c6a60] Could not find codec parameters for stream 103 (Unknown: none): unknown codec
Consider increasing the value for the 'analyzeduration' and 'probesize' options
[mpegts @ 021c6a60] Could not find codec parameters for stream 104 (Unknown: none): unknown codec
Consider increasing the value for the 'analyzeduration' and 'probesize' options
[mpegts @ 021c6a60] Could not find codec parameters for stream 105 (Unknown: none): unknown codec
Consider increasing the value for the 'analyzeduration' and 'probesize' options
[mpegts @ 021c6a60] Could not find codec parameters for stream 106 (Unknown: none): unknown codec
Consider increasing the value for the 'analyzeduration' and 'probesize' options
[mpegts @ 021c6a60] Could not find codec parameters for stream 107 (Audio: mp3, 0 channels): unspecified frame size
Consider increasing the value for the 'analyzeduration' and 'probesize' options
[mpegts @ 021c6a60] Could not find codec parameters for stream 108 (Unknown: none): unknown codec
Consider increasing the value for the 'analyzeduration' and 'probesize' options
[mpegts @ 021c6a60] Could not find codec parameters for stream 109 (Unknown: none): unknown codec
Consider increasing the value for the 'analyzeduration' and 'probesize' options
[mpegts @ 021c6a60] Could not find codec parameters for stream 110 (Unknown: none): unknown codec
Consider increasing the value for the 'analyzeduration' and 'probesize' options
[mpegts @ 021c6a60] Could not find codec parameters for stream 111 (Unknown: none): unknown codec
Consider increasing the value for the 'analyzeduration' and 'probesize' options
[mpegts @ 021c6a60] Could not find codec parameters for stream 112 (Unknown: none): unknown codec
Consider increasing the value for the 'analyzeduration' and 'probesize' options
[mpegts @ 021c6a60] Could not find codec parameters for stream 113 (Unknown: none): unknown codec
Consider increasing the value for the 'analyzeduration' and 'probesize' options
[mpegts @ 021c6a60] Could not find codec parameters for stream 114 (Audio: mp3, 0 channels): unspecified frame size
Consider increasing the value for the 'analyzeduration' and 'probesize' options
[mpegts @ 021c6a60] Could not find codec parameters for stream 115 (Unknown: none): unknown codec
Consider increasing the value for the 'analyzeduration' and 'probesize' options
[mpegts @ 021c6a60] Could not find codec parameters for stream 116 (Unknown: none): unknown codec
Consider increasing the value for the 'analyzeduration' and 'probesize' options
[mpegts @ 021c6a60] Could not find codec parameters for stream 117 (Unknown: none): unknown codec
Consider increasing the value for the 'analyzeduration' and 'probesize' options
[mpegts @ 021c6a60] Could not find codec parameters for stream 118 (Unknown: none): unknown codec
Consider increasing the value for the 'analyzeduration' and 'probesize' options
[mpegts @ 021c6a60] Could not find codec parameters for stream 119 (Audio: mp3, 0 channels): unspecified frame size
Consider increasing the value for the 'analyzeduration' and 'probesize' options
[mpegts @ 021c6a60] Could not find codec parameters for stream 120 (Unknown: none): unknown codec
Consider increasing the value for the 'analyzeduration' and 'probesize' options
[mpegts @ 021c6a60] Could not find codec parameters for stream 121 (Unknown: none): unknown codec
Consider increasing the value for the 'analyzeduration' and 'probesize' options
[mpegts @ 021c6a60] Could not find codec parameters for stream 122 (Unknown: none): unknown codec
Consider increasing the value for the 'analyzeduration' and 'probesize' options
[mpegts @ 021c6a60] Could not find codec parameters for stream 123 (Unknown: none): unknown codec
Consider increasing the value for the 'analyzeduration' and 'probesize' options
[NULL @ 02377c00] start time is not set in estimate_timings_from_pts
[NULL @ 02378200] start time is not set in estimate_timings_from_pts
[NULL @ 040979e0] start time is not set in estimate_timings_from_pts
[NULL @ 04197940] start time is not set in estimate_timings_from_pts
[NULL @ 04265b40] start time is not set in estimate_timings_from_pts
[NULL @ 045c5860] start time is not set in estimate_timings_from_pts
[NULL @ 04437340] start time is not set in estimate_timings_from_pts
[NULL @ 04532780] start time is not set in estimate_timings_from_pts
[NULL @ 0464c480] start time is not set in estimate_timings_from_pts
[NULL @ 0fbd5a60] start time is not set in estimate_timings_from_pts
[NULL @ 0fbd5e80] start time is not set in estimate_timings_from_pts
[NULL @ 0fbd6a80] start time is not set in estimate_timings_from_pts
[NULL @ 0fbd72a0] start time is not set in estimate_timings_from_pts
[NULL @ 0fbd76a0] start time is not set in estimate_timings_from_pts
[NULL @ 0fbd7aa0] start time is not set in estimate_timings_from_pts
[NULL @ 0fbd7ec0] start time is not set in estimate_timings_from_pts
[NULL @ 0fbd82c0] start time is not set in estimate_timings_from_pts
[NULL @ 0fbd86c0] start time is not set in estimate_timings_from_pts
[NULL @ 0fbd8ac0] start time is not set in estimate_timings_from_pts
[NULL @ 0fbd8ee0] start time is not set in estimate_timings_from_pts
[NULL @ 0fbd92e0] start time is not set in estimate_timings_from_pts
[NULL @ 0fbd96e0] start time is not set in estimate_timings_from_pts
[NULL @ 0fbd9ae0] start time is not set in estimate_timings_from_pts
[NULL @ 0fbd9f00] start time is not set in estimate_timings_from_pts
[NULL @ 0fbda300] start time is not set in estimate_timings_from_pts
[NULL @ 0fbdab00] start time is not set in estimate_timings_from_pts
[NULL @ 0fbdaf20] start time is not set in estimate_timings_from_pts
[NULL @ 0fbdb320] start time is not set in estimate_timings_from_pts
[NULL @ 0fbdb720] start time is not set in estimate_timings_from_pts
[NULL @ 0fbdc340] start time is not set in estimate_timings_from_pts
[NULL @ 0fbdcb40] start time is not set in estimate_timings_from_pts
[NULL @ 0fbdcf60] start time is not set in estimate_timings_from_pts
[NULL @ 0fbdd360] start time is not set in estimate_timings_from_pts
[NULL @ 31570b00] start time is not set in estimate_timings_from_pts
[NULL @ 31570f00] start time is not set in estimate_timings_from_pts
[NULL @ 31571300] start time is not set in estimate_timings_from_pts
[NULL @ 31571b20] start time is not set in estimate_timings_from_pts
[NULL @ 31571f20] start time is not set in estimate_timings_from_pts
[NULL @ 31572320] start time is not set in estimate_timings_from_pts
[NULL @ 31572720] start time is not set in estimate_timings_from_pts
[NULL @ 31572b40] start time is not set in estimate_timings_from_pts
[NULL @ 31573740] start time is not set in estimate_timings_from_pts
[NULL @ 31573b60] start time is not set in estimate_timings_from_pts
[NULL @ 31574760] start time is not set in estimate_timings_from_pts
[NULL @ 31574b80] start time is not set in estimate_timings_from_pts
[NULL @ 31574f80] start time is not set in estimate_timings_from_pts
[NULL @ 31575380] start time is not set in estimate_timings_from_pts
[NULL @ 31575780] start time is not set in estimate_timings_from_pts
[NULL @ 31575ba0] start time is not set in estimate_timings_from_pts
[NULL @ 31575fa0] start time is not set in estimate_timings_from_pts
[NULL @ 315767a0] start time is not set in estimate_timings_from_pts
[NULL @ 31576bc0] start time is not set in estimate_timings_from_pts
[NULL @ 31576fc0] start time is not set in estimate_timings_from_pts
[NULL @ 315773c0] start time is not set in estimate_timings_from_pts
[NULL @ 315777c0] start time is not set in estimate_timings_from_pts
[NULL @ 31577be0] start time is not set in estimate_timings_from_pts
[NULL @ 31577fe0] start time is not set in estimate_timings_from_pts
[NULL @ 315783e0] start time is not set in estimate_timings_from_pts
[NULL @ 5234e4c0] start time is not set in estimate_timings_from_pts
[NULL @ 5234e8c0] start time is not set in estimate_timings_from_pts
[NULL @ 5234ecc0] start time is not set in estimate_timings_from_pts
[NULL @ 5234f0e0] start time is not set in estimate_timings_from_pts
[NULL @ 5234f4e0] start time is not set in estimate_timings_from_pts
[NULL @ 5234f8e0] start time is not set in estimate_timings_from_pts
[NULL @ 5234fce0] start time is not set in estimate_timings_from_pts
[NULL @ 52350100] start time is not set in estimate_timings_from_pts
[NULL @ 52350500] start time is not set in estimate_timings_from_pts
[NULL @ 52350900] start time is not set in estimate_timings_from_pts
[NULL @ 52350d00] start time is not set in estimate_timings_from_pts
[NULL @ 52351120] start time is not set in estimate_timings_from_pts
[NULL @ 52351520] start time is not set in estimate_timings_from_pts
[NULL @ 52351920] start time is not set in estimate_timings_from_pts
[NULL @ 52351d20] start time is not set in estimate_timings_from_pts
[NULL @ 52352140] start time is not set in estimate_timings_from_pts
[NULL @ 52352540] start time is not set in estimate_timings_from_pts
[NULL @ 52352940] start time is not set in estimate_timings_from_pts
[NULL @ 52352d40] start time is not set in estimate_timings_from_pts
[NULL @ 52353160] start time is not set in estimate_timings_from_pts
[NULL @ 52353560] start time is not set in estimate_timings_from_pts
[NULL @ 52353960] start time is not set in estimate_timings_from_pts
[NULL @ 52353d60] start time is not set in estimate_timings_from_pts
[NULL @ 52354180] start time is not set in estimate_timings_from_pts
[NULL @ 52354580] start time is not set in estimate_timings_from_pts
[NULL @ 52354980] start time is not set in estimate_timings_from_pts
[NULL @ 52354d80] start time is not set in estimate_timings_from_pts
[NULL @ 523551a0] start time is not set in estimate_timings_from_pts
[NULL @ 523555a0] start time is not set in estimate_timings_from_pts
[NULL @ 523559a0] start time is not set in estimate_timings_from_pts
[NULL @ 68af2660] start time is not set in estimate_timings_from_pts
[NULL @ 68af2a60] start time is not set in estimate_timings_from_pts
[NULL @ 68af2e60] start time is not set in estimate_timings_from_pts
[NULL @ 68af3280] start time is not set in estimate_timings_from_pts
[NULL @ 68af3680] start time is not set in estimate_timings_from_pts
[NULL @ 68af3a80] start time is not set in estimate_timings_from_pts
[NULL @ 68af3e80] start time is not set in estimate_timings_from_pts
[NULL @ 68af42a0] start time is not set in estimate_timings_from_pts
[NULL @ 68af46a0] start time is not set in estimate_timings_from_pts
[NULL @ 68af4aa0] start time is not set in estimate_timings_from_pts
[NULL @ 68af4ea0] start time is not set in estimate_timings_from_pts
[NULL @ 68af52c0] start time is not set in estimate_timings_from_pts
[NULL @ 68af56c0] start time is not set in estimate_timings_from_pts
[NULL @ 68af5ac0] start time is not set in estimate_timings_from_pts
Input #0, mpegts, from 'The Chica Show (Recorded Mar 23, 2013, SPROUT).TiVo':
  Duration: 00:15:01.23, start: 400.880533, bitrate: 3503 kb/s
  Program 1
  No Program
    Stream #0:0[0x210]: Video: mpeg2video (Main) ([2][0][0][0] / 0x0002), yuv420p, 704x480 [SAR 10:11 DAR 4:3], 66498 kb
/s, 29.97 fps, 59.94 tbr, 90k tbn, 59.94 tbc
    Stream #0:1[0x21f]: Audio: ac3 ([129][0][0][0] / 0x0081), 0 channels, fltp
    Stream #0:2[0x220]: Unknown: none ([151][0][0][0] / 0x0097)
    Stream #0:3[0x1680]: Unknown: none
    Stream #0:4[0xbbf]: Audio: mp1, 0 channels
    Stream #0:5[0x35]: Audio: mp3, 0 channels
    Stream #0:6[0x1e6f]: Unknown: none
    Stream #0:7[0x89d]: Unknown: none
    Stream #0:8[0x1cd8]: Unknown: none
    Stream #0:9[0x13a2]: Audio: aac, 0 channels
    Stream #0:10[0x11f1]: Unknown: none
    Stream #0:11[0xc2e]: Unknown: none
    Stream #0:12[0x638]: Unknown: none
    Stream #0:13[0x13d0]: Unknown: none
    Stream #0:14[0x197d]: Unknown: none
    Stream #0:15[0x15c]: Unknown: none
    Stream #0:16[0x65b]: Unknown: none
    Stream #0:17[0x1552]: Unknown: none
    Stream #0:18[0xac6]: Unknown: none
    Stream #0:19[0x1701]: Unknown: none
    Stream #0:20[0x76]: Audio: mp3, 0 channels, s16p
    Stream #0:21[0x6ca]: Audio: mp1, 0 channels
    Stream #0:22[0x148b]: Unknown: none
    Stream #0:23[0x10cf]: Unknown: none
    Stream #0:24[0x719]: Unknown: none
    Stream #0:25[0x161e]: Audio: mp2, 0 channels
    Stream #0:26[0x7e1]: Unknown: none
    Stream #0:27[0x618]: Audio: mp2, 0 channels
    Stream #0:28[0x18f1]: Unknown: none
    Stream #0:29[0x762]: Unknown: none
    Stream #0:30[0x1438]: Unknown: none
    Stream #0:31[0x153]: Unknown: none
    Stream #0:32[0x7dc]: Audio: aac, 0 channels, fltp, 100 kb/s
    Stream #0:33[0xdda]: Unknown: none
    Stream #0:34[0x1d97]: Audio: aac, 0 channels, fltp, 123 kb/s
    Stream #0:35[0x2eb]: Unknown: none
    Stream #0:36[0x1b25]: Unknown: none
    Stream #0:37[0x1ba3]: Unknown: none
    Stream #0:38[0xc3d]: Unknown: none
    Stream #0:39[0x1e]: Audio: mp1, 0 channels
    Stream #0:40[0x1fd9]: Unknown: none
    Stream #0:41[0x147d]: Unknown: none
    Stream #0:42[0xc22]: Unknown: none
    Stream #0:43[0x1648]: Unknown: none
    Stream #0:44[0x752]: Unknown: none
    Stream #0:45[0x4e9]: Unknown: none
    Stream #0:46[0x10ec]: Unknown: none
    Stream #0:47[0x140a]: Unknown: none
    Stream #0:48[0x6c2]: Audio: mp1, 0 channels
    Stream #0:49[0x18e3]: Unknown: none
    Stream #0:50[0x1756]: Unknown: none
    Stream #0:51[0xe79]: Unknown: none
    Stream #0:52[0x659]: Unknown: none
    Stream #0:53[0x7cc]: Unknown: none
    Stream #0:54[0x1804]: Audio: aac, 0 channels, fltp, 343 kb/s
    Stream #0:55[0x336]: Unknown: none
    Stream #0:56[0xbf7]: Unknown: none
    Stream #0:57[0xc3a]: Unknown: none
    Stream #0:58[0xf82]: Unknown: none
    Stream #0:59[0x72]: Unknown: none
    Stream #0:60[0x33c]: Unknown: none
    Stream #0:61[0x14e8]: Unknown: none
    Stream #0:62[0x1c0e]: Unknown: none
    Stream #0:63[0x1607]: Audio: mp3, 0 channels
    Stream #0:64[0x5e5]: Unknown: none
    Stream #0:65[0x155e]: Unknown: none
    Stream #0:66[0x16b9]: Unknown: none
    Stream #0:67[0x519]: Unknown: none
    Stream #0:68[0x6f5]: Unknown: none
    Stream #0:69[0x152e]: Unknown: none
    Stream #0:70[0x824]: Unknown: none
    Stream #0:71[0x45a]: Audio: aac, 0 channels, fltp, 48 kb/s
    Stream #0:72[0x1054]: Unknown: none
    Stream #0:73[0x12bb]: Unknown: none
    Stream #0:74[0x10a8]: Unknown: none
    Stream #0:75[0x1906]: Unknown: none
    Stream #0:76[0xedf]: Unknown: none
    Stream #0:77[0x1935]: Unknown: none
    Stream #0:78[0x1482]: Audio: mp3, 0 channels
    Stream #0:79[0xfb8]: Audio: mp2, 0 channels, s16p
    Stream #0:80[0x12ea]: Unknown: none
    Stream #0:81[0x1bc]: Unknown: none
    Stream #0:82[0x7b0]: Unknown: none
    Stream #0:83[0xaaa]: Unknown: none
    Stream #0:84[0x1e59]: Unknown: none
    Stream #0:85[0xb7]: Unknown: none
    Stream #0:86[0x18db]: Audio: mp3, 0 channels
    Stream #0:87[0xf0a]: Unknown: none
    Stream #0:88[0x556]: Unknown: none
    Stream #0:89[0xa19]: Unknown: none
    Stream #0:90[0x46b]: Unknown: none
    Stream #0:91[0x1f6e]: Unknown: none
    Stream #0:92[0x1708]: Unknown: none
    Stream #0:93[0x751]: Unknown: none
    Stream #0:94[0x38b]: Unknown: none
    Stream #0:95[0x1682]: Unknown: none
    Stream #0:96[0xb99]: Audio: mp3, 0 channels
    Stream #0:97[0x1475]: Unknown: none
    Stream #0:98[0x1613]: Audio: mp3, 0 channels
    Stream #0:99[0x42]: Unknown: none
    Stream #0:100[0x1782]: Unknown: none
    Stream #0:101[0x1099]: Unknown: none
    Stream #0:102[0x327]: Audio: mp3, 0 channels
    Stream #0:103[0x642]: Unknown: none
    Stream #0:104[0xf57]: Unknown: none
    Stream #0:105[0x1987]: Unknown: none
    Stream #0:106[0xc82]: Unknown: none
    Stream #0:107[0xd00]: Audio: mp3, 0 channels
    Stream #0:108[0x3dd]: Unknown: none
    Stream #0:109[0x1399]: Unknown: none
    Stream #0:110[0x7d2]: Unknown: none
    Stream #0:111[0x1ef2]: Unknown: none
    Stream #0:112[0x87]: Unknown: none
    Stream #0:113[0x1c0b]: Unknown: none
    Stream #0:114[0x1503]: Audio: mp3, 0 channels
    Stream #0:115[0x10e9]: Unknown: none
    Stream #0:116[0x1fa1]: Unknown: none
    Stream #0:117[0x15e2]: Unknown: none
    Stream #0:118[0x1ba9]: Unknown: none
    Stream #0:119[0x17c9]: Audio: mp3, 0 channels
    Stream #0:120[0x199c]: Unknown: none
    Stream #0:121[0x1c1d]: Unknown: none
    Stream #0:122[0x12b6]: Unknown: none
    Stream #0:123[0x1a5]: Unknown: none
Output #0, mpegts, to 'test.ts':
  Metadata:
    encoder         : Lavf54.62.100
    Stream #0:0: Video: mpeg2video ([2][0][0][0] / 0x0002), yuv420p, 704x480 [SAR 10:11 DAR 4:3], q=2-31, 66498 kb/s, 29
.97 fps, 90k tbn, 29.97 tbc
Stream mapping:
  Stream #0:0 -> #0:0 (copy)
Press [q] to stop, [?] for help
[mpegts @ 080eda80] st:0 PTS: -8584144809 DTS: -8584155319 < -8584155318 invalid, clipping
[mpegts @ 080eda80] st:0 PTS: -8583466131 DTS: -8583469134 < -8583469133 invalid, clipping
st:0 PTS: -8580889557 DTS: -8580901569 < -8580901568 invalid, clippinge=N/A
[mpegts @ 080eda80] st:0 PTS: -8577491663 DTS: -8577503675 < -8577503674 invalid, clipping
pts (-8575617791) < dts (-8575614788) in stream 0-26:-28:-5.-80 bitrate=N/A
av_interleaved_write_frame(): Invalid argument

comment:3 Changed 5 years ago by cehoyos

If you believe that your sample is "better" in any way than the sample on samples.ffmpeg.org please upload.

Note: See TracTickets for help on using tickets.