Ticket #7539: cmd.txt

File cmd.txt, 6.9 KB (added by robrt, 6 months ago)

cmd for both input and output file

Line 
1/////// INPUT:
2
3ffmpeg version 4.0.2 Copyright (c) 2000-2018 the FFmpeg developers
4  built with Apple LLVM version 10.0.0 (clang-1000.10.43.1)
5  configuration: --prefix=/usr/local/Cellar/ffmpeg/4.0.2 --enable-shared --enable-pthreads --enable-version3 --enable-hardcoded-tables --enable-avresample --cc=clang --host-cflags= --host-ldflags= --enable-gpl --enable-libmp3lame --enable-libx264 --enable-libxvid --enable-opencl --enable-videotoolbox --disable-lzma
6  libavutil      56. 14.100 / 56. 14.100
7  libavcodec     58. 18.100 / 58. 18.100
8  libavformat    58. 12.100 / 58. 12.100
9  libavdevice    58.  3.100 / 58.  3.100
10  libavfilter     7. 16.100 /  7. 16.100
11  libavresample   4.  0.  0 /  4.  0.  0
12  libswscale      5.  1.100 /  5.  1.100
13  libswresample   3.  1.100 /  3.  1.100
14  libpostproc    55.  1.100 / 55.  1.100
15Guessed Channel Layout for Input Stream #0.1 : mono
16Guessed Channel Layout for Input Stream #0.2 : mono
17Guessed Channel Layout for Input Stream #0.3 : mono
18Guessed Channel Layout for Input Stream #0.4 : mono
19Guessed Channel Layout for Input Stream #0.5 : mono
20Guessed Channel Layout for Input Stream #0.6 : mono
21Guessed Channel Layout for Input Stream #0.7 : mono
22Guessed Channel Layout for Input Stream #0.8 : mono
23Input #0, mxf, from '1001-v1_HDF01a.mxf':
24  Metadata:
25    uid             : 81d4ef30-fba9-11e7-9bc0-10604b760c41
26    generation_uid  : 81d4ef30-fba9-11e7-9bc1-10604b760c41
27    company_name    : OCAR
28    product_name    : octk
29    product_version : 2.9.4.20170420
30    product_uid     : 3a4fe380-0d01-11e4-869f-3cd92b5c1dfc
31    modification_date: 2018-01-17T18:12:02.000000Z
32    material_package_umid: 0x060A2B340101010501010D201300000081D404D0FBA911E79BA110604B760C41
33    timecode        : 00:00:00:00
34  Duration: 00:00:25.00, start: 0.000000, bitrate: 60817 kb/s
35    Stream #0:0: Video: mpeg2video (4:2:2), yuv422p(tv, bt709, top first), 1920x1080 [SAR 1:1 DAR 16:9], 50000 kb/s, 25 fps, 25 tbr, 25 tbn, 50 tbc
36    Metadata:
37      file_package_umid: 0x060A2B340101010501010D201300000081D34180FBA911E79B8410604B760C41
38    Stream #0:1: Audio: pcm_s24le, 48000 Hz, mono, s32 (24 bit), 1152 kb/s
39    Metadata:
40      file_package_umid: 0x060A2B340101010501010D201300000081D34180FBA911E79B8410604B760C41
41    Stream #0:2: Audio: pcm_s24le, 48000 Hz, mono, s32 (24 bit), 1152 kb/s
42    Metadata:
43      file_package_umid: 0x060A2B340101010501010D201300000081D34180FBA911E79B8410604B760C41
44    Stream #0:3: Audio: pcm_s24le, 48000 Hz, mono, s32 (24 bit), 1152 kb/s
45    Metadata:
46      file_package_umid: 0x060A2B340101010501010D201300000081D34180FBA911E79B8410604B760C41
47    Stream #0:4: Audio: pcm_s24le, 48000 Hz, mono, s32 (24 bit), 1152 kb/s
48    Metadata:
49      file_package_umid: 0x060A2B340101010501010D201300000081D34180FBA911E79B8410604B760C41
50    Stream #0:5: Audio: pcm_s24le, 48000 Hz, mono, s32 (24 bit), 1152 kb/s
51    Metadata:
52      file_package_umid: 0x060A2B340101010501010D201300000081D34180FBA911E79B8410604B760C41
53    Stream #0:6: Audio: pcm_s24le, 48000 Hz, mono, s32 (24 bit), 1152 kb/s
54    Metadata:
55      file_package_umid: 0x060A2B340101010501010D201300000081D34180FBA911E79B8410604B760C41
56    Stream #0:7: Audio: pcm_s24le, 48000 Hz, mono, s32 (24 bit), 1152 kb/s
57    Metadata:
58      file_package_umid: 0x060A2B340101010501010D201300000081D34180FBA911E79B8410604B760C41
59    Stream #0:8: Audio: pcm_s24le, 48000 Hz, mono, s32 (24 bit), 1152 kb/s
60    Metadata:
61      file_package_umid: 0x060A2B340101010501010D201300000081D34180FBA911E79B8410604B760C41
62
63
64//// OUTPUT:
65
66ffmpeg version 4.0.2 Copyright (c) 2000-2018 the FFmpeg developers
67  built with Apple LLVM version 10.0.0 (clang-1000.10.43.1)
68  configuration: --prefix=/usr/local/Cellar/ffmpeg/4.0.2 --enable-shared --enable-pthreads --enable-version3 --enable-hardcoded-tables --enable-avresample --cc=clang --host-cflags= --host-ldflags= --enable-gpl --enable-libmp3lame --enable-libx264 --enable-libxvid --enable-opencl --enable-videotoolbox --disable-lzma
69  libavutil      56. 14.100 / 56. 14.100
70  libavcodec     58. 18.100 / 58. 18.100
71  libavformat    58. 12.100 / 58. 12.100
72  libavdevice    58.  3.100 / 58.  3.100
73  libavfilter     7. 16.100 /  7. 16.100
74  libavresample   4.  0.  0 /  4.  0.  0
75  libswscale      5.  1.100 /  5.  1.100
76  libswresample   3.  1.100 /  3.  1.100
77  libpostproc    55.  1.100 / 55.  1.100
78Guessed Channel Layout for Input Stream #0.1 : mono
79Guessed Channel Layout for Input Stream #0.2 : mono
80Guessed Channel Layout for Input Stream #0.3 : mono
81Guessed Channel Layout for Input Stream #0.4 : mono
82Guessed Channel Layout for Input Stream #0.5 : mono
83Guessed Channel Layout for Input Stream #0.6 : mono
84Guessed Channel Layout for Input Stream #0.7 : mono
85Guessed Channel Layout for Input Stream #0.8 : mono
86Input #0, mxf, from 'output.mxf':
87  Metadata:
88    uid             : adab4424-2f25-4dc7-92ff-29bd000c0000
89    generation_uid  : adab4424-2f25-4dc7-92ff-29bd000c0001
90    company_name    : FFmpeg
91    product_name    : OP1a Muxer
92    product_version : 58.18.104
93    product_uid     : adab4424-2f25-4dc7-92ff-29bd000c0002
94    modification_date: 0000-01-02T00:00:00.000000Z
95    material_package_umid: 0x060A2B340101010501010D001342EC5A529471345842EC5A0052947134584200
96    timecode        : 00:00:00:00
97  Duration: 00:00:25.00, start: 0.000000, bitrate: 59957 kb/s
98    Stream #0:0: Video: mpeg2video (4:2:2), yuv422p(tv, bt709, top first), 1920x1080 [SAR 1:1 DAR 16:9], 50000 kb/s, 25 fps, 25 tbr, 25 tbn, 50 tbc
99    Metadata:
100      file_package_umid: 0x060A2B340101010501010D001342EC5A529471345842EC5A0052947134584201
101    Stream #0:1: Audio: pcm_s24le, 48000 Hz, mono, s32 (24 bit), 1152 kb/s
102    Metadata:
103      file_package_umid: 0x060A2B340101010501010D001342EC5A529471345842EC5A0052947134584201
104    Stream #0:2: Audio: pcm_s24le, 48000 Hz, mono, s32 (24 bit), 1152 kb/s
105    Metadata:
106      file_package_umid: 0x060A2B340101010501010D001342EC5A529471345842EC5A0052947134584201
107    Stream #0:3: Audio: pcm_s24le, 48000 Hz, mono, s32 (24 bit), 1152 kb/s
108    Metadata:
109      file_package_umid: 0x060A2B340101010501010D001342EC5A529471345842EC5A0052947134584201
110    Stream #0:4: Audio: pcm_s24le, 48000 Hz, mono, s32 (24 bit), 1152 kb/s
111    Metadata:
112      file_package_umid: 0x060A2B340101010501010D001342EC5A529471345842EC5A0052947134584201
113    Stream #0:5: Audio: pcm_s24le, 48000 Hz, mono, s32 (24 bit), 1152 kb/s
114    Metadata:
115      file_package_umid: 0x060A2B340101010501010D001342EC5A529471345842EC5A0052947134584201
116    Stream #0:6: Audio: pcm_s24le, 48000 Hz, mono, s32 (24 bit), 1152 kb/s
117    Metadata:
118      file_package_umid: 0x060A2B340101010501010D001342EC5A529471345842EC5A0052947134584201
119    Stream #0:7: Audio: pcm_s24le, 48000 Hz, mono, s32 (24 bit), 1152 kb/s
120    Metadata:
121      file_package_umid: 0x060A2B340101010501010D001342EC5A529471345842EC5A0052947134584201
122    Stream #0:8: Audio: pcm_s24le, 48000 Hz, mono, s32 (24 bit), 1152 kb/s
123    Metadata:
124      file_package_umid: 0x060A2B340101010501010D001342EC5A529471345842EC5A0052947134584201