Ticket #7146: Valgrind_leak-check_full_Output_with_patch_version1_5s

File Valgrind_leak-check_full_Output_with_patch_version1_5s, 12.6 KB (added by bugtrack, 5 months ago)
Line 
1==20310== Memcheck, a memory error detector
2==20310== Copyright (C) 2002-2017, and GNU GPL'd, by Julian Seward et al.
3==20310== Using Valgrind-3.13.0 and LibVEX; rerun with -h for copyright info
4==20310== Command: ffmpeg -y -v 9 -loglevel 99 -f iec61883 -i 0 -t 5 -f null /dev/null
5==20310==
6ffmpeg version 3.4.2 Copyright (c) 2000-2018 the FFmpeg developers
7  built with gcc 7 (Debian 7.3.0-15)
8  configuration: --disable-decoder=amrnb --disable-decoder=libopenjpeg --disable-mips32r2 --disable-mips32r6 --disable-mips64r6 --disable-mipsdsp --disable-mipsdspr2 --disable-mipsfpu --disable-msa --disable-libopencv --disable-podpages --disable-stripping --enable-avfilter --enable-avresample --enable-gcrypt --enable-gnutls --enable-gpl --enable-libass --enable-libbluray --enable-libbs2b --enable-libcaca --enable-libcdio --enable-libfdk-aac --enable-libfontconfig --enable-libfreetype --enable-libfribidi --enable-libgme --enable-libgsm --enable-libilbc --enable-libkvazaar --enable-libmp3lame --enable-libopencore-amrnb --enable-libopencore-amrwb --enable-libopenh264 --enable-libopenjpeg --enable-libopenmpt --enable-libopus --enable-libpulse --enable-librubberband --enable-libshine --enable-libsnappy --enable-libsoxr --enable-libspeex --enable-libtesseract --enable-libtheora --enable-libvidstab --enable-libvo-amrwbenc --enable-libvorbis --enable-libvpx --enable-libx265 --enable-libxvid --enable-libzvbi --enable-nonfree --enable-opengl --enable-openssl --enable-postproc --enable-pthreads --enable-shared --enable-version3 --enable-libwebp --incdir=/usr/include/x86_64-linux-gnu --libdir=/usr/lib/x86_64-linux-gnu --prefix=/usr --toolchain=hardened --enable-frei0r --enable-chromaprint --enable-libx264 --enable-libiec61883 --enable-libdc1394 --enable-vaapi --disable-opencl --enable-libmfx --disable-altivec --shlibdir=/usr/lib/x86_64-linux-gnu
9  libavutil      55. 78.100 / 55. 78.100
10  libavcodec     57.107.100 / 57.107.100
11  libavformat    57. 83.100 / 57. 83.100
12  libavdevice    57. 10.100 / 57. 10.100
13  libavfilter     6.107.100 /  6.107.100
14  libavresample   3.  7.  0 /  3.  7.  0
15  libswscale      4.  8.100 /  4.  8.100
16  libswresample   2.  9.100 /  2.  9.100
17  libpostproc    54.  7.100 / 54.  7.100
18Splitting the commandline.
19Reading option '-y' ... matched as option 'y' (overwrite output files) with argument '1'.
20Reading option '-v' ... matched as option 'v' (set logging level) with argument '9'.
21Reading option '-loglevel' ... matched as option 'loglevel' (set logging level) with argument '99'.
22Reading option '-f' ... matched as option 'f' (force format) with argument 'iec61883'.
23Reading option '-i' ... matched as input url with argument '0'.
24Reading option '-t' ... matched as option 't' (record or transcode "duration" seconds of audio/video) with argument '5'.
25Reading option '-f' ... matched as option 'f' (force format) with argument 'null'.
26Reading option '/dev/null' ... matched as output url.
27Finished splitting the commandline.
28Parsing a group of options: global .
29Applying option y (overwrite output files) with argument 1.
30Applying option v (set logging level) with argument 9.
31Successfully parsed a group of options.
32Parsing a group of options: input url 0.
33Applying option f (force format) with argument iec61883.
34Successfully parsed a group of options.
35Opening an input file: 0.
36[iec61883 @ 0x21b9bc40] Selecting IEEE1394 port: 0
37==20310== Syscall param ioctl(generic) points to uninitialised byte(s)
38==20310==    at 0x82A9F07: ioctl (syscall-template.S:78)
39==20310==    by 0xADC6148: handle_fcp_request (fw.c:243)
40==20310==    by 0xADC643B: handle_device_event (fw.c:325)
41==20310==    by 0xADC6FE1: fw_loop_iterate (fw.c:456)
42==20310==    by 0xAFCEF34: avc1394_transaction_block2 (avc1394_simple.c:207)
43==20310==    by 0xAFCEF83: avc1394_transaction_block (avc1394_simple.c:267)
44==20310==    by 0xAFCF2AA: avc1394_subunit_info (avc1394_simple.c:422)
45==20310==    by 0xAFCF335: avc1394_check_subunit_type (avc1394_simple.c:449)
46==20310==    by 0x4E4E1F0: iec61883_read_header (iec61883.c:315)
47==20310==    by 0x56BEBDF: avformat_open_input (utils.c:595)
48==20310==    by 0x11D03B: open_input_file (ffmpeg_opt.c:1060)
49==20310==    by 0x11EA11: open_files (ffmpeg_opt.c:3278)
50==20310==    by 0x11EA11: ffmpeg_parse_options (ffmpeg_opt.c:3318)
51==20310==  Address 0x1ffefff434 is on thread 1's stack
52==20310==  in frame #1, created by handle_fcp_request (fw.c:228)
53==20310==
54libiec61883 warning: Transmission node has no plugs online!
55[iec61883 @ 0x21b9bc40] All info found
56[iec61883 @ 0x21b9bc40] stream 0: start_time: 0.000 duration: -368934881474191040.000
57[iec61883 @ 0x21b9bc40] stream 1: start_time: 0.000 duration: -307445734561825.875
58[iec61883 @ 0x21b9bc40] format: start_time: 0.000 duration: -9223372036854.775 bitrate=30336 kb/s
59Input #0, iec61883, from '0':
60  Duration: N/A, start: 0.000000, bitrate: 30336 kb/s
61    Stream #0:0, 1, 1/25: Video: dvvideo, 1 reference frame, yuv420p(topleft), 720x576 [SAR 16:15 DAR 4:3], 0/1, 25000 kb/s, 25 fps, 25 tbr, 25 tbn, 25 tbc
62    Stream #0:1, 1, 1/30000: Audio: pcm_s16le, 48000 Hz, stereo, s16, 1536 kb/s
63Successfully opened the file.
64Parsing a group of options: output url /dev/null.
65Applying option t (record or transcode "duration" seconds of audio/video) with argument 5.
66Applying option f (force format) with argument null.
67Successfully parsed a group of options.
68Opening an output file: /dev/null.
69Successfully opened the file.
70detected 8 logical cores
71Stream mapping:
72  Stream #0:0 -> #0:0 (dvvideo (native) -> wrapped_avframe (native))
73  Stream #0:1 -> #0:1 (pcm_s16le (native) -> pcm_s16le (native))
74Press [q] to stop, [?] for help
75cur_dts is invalid (this is harmless if it occurs once at the start per stream)
76[graph 0 input from stream 0:0 @ 0x21d8a440] Setting 'video_size' to value '720x576'
77[graph 0 input from stream 0:0 @ 0x21d8a440] Setting 'pix_fmt' to value '0'
78[graph 0 input from stream 0:0 @ 0x21d8a440] Setting 'time_base' to value '1/25'
79[graph 0 input from stream 0:0 @ 0x21d8a440] Setting 'pixel_aspect' to value '16/15'
80[graph 0 input from stream 0:0 @ 0x21d8a440] Setting 'sws_param' to value 'flags=2'
81[graph 0 input from stream 0:0 @ 0x21d8a440] Setting 'frame_rate' to value '25/1'
82[graph 0 input from stream 0:0 @ 0x21d8a440] w:720 h:576 pixfmt:yuv420p tb:1/25 fr:25/1 sar:16/15 sws_param:flags=2
83[AVFilterGraph @ 0x21d88520] query_formats: 4 queried, 3 merged, 0 already done, 0 delayed
84cur_dts is invalid (this is harmless if it occurs once at the start per stream)
85    Last message repeated 1 times
86[graph_1_in_0_1 @ 0x21e00520] Setting 'time_base' to value '1/48000'
87[graph_1_in_0_1 @ 0x21e00520] Setting 'sample_rate' to value '48000'
88[graph_1_in_0_1 @ 0x21e00520] Setting 'sample_fmt' to value 's16'
89[graph_1_in_0_1 @ 0x21e00520] Setting 'channel_layout' to value '0x3'
90[graph_1_in_0_1 @ 0x21e00520] tb:1/48000 samplefmt:s16 samplerate:48000 chlayout:0x3
91[format_out_0_1 @ 0x21e02820] Setting 'sample_fmts' to value 's16'
92[AVFilterGraph @ 0x21dfe6e0] query_formats: 5 queried, 12 merged, 0 already done, 0 delayed
93Output #0, null, to '/dev/null':
94  Metadata:
95    encoder         : Lavf57.83.100
96    Stream #0:0, 0, 1/25: Video: wrapped_avframe, 1 reference frame, yuv420p(bottom coded first (swapped), topleft), 720x576 [SAR 16:15 DAR 4:3], 0/1, q=2-31, 200 kb/s, 25 fps, 25 tbn, 25 tbc
97    Metadata:
98      encoder         : Lavc57.107.100 wrapped_avframe
99    Stream #0:1, 0, 1/48000: Audio: pcm_s16le, 48000 Hz, stereo, s16, 1536 kb/s
100    Metadata:
101      encoder         : Lavc57.107.100 pcm_s16le
102frame=    1 fps=0.0 q=-0.0 size=N/A time=00:00:00.04 bitrate=N/A speed=0.0719x   
103frame=    3 fps=2.7 q=-0.0 size=N/A time=00:00:00.12 bitrate=N/A speed=0.108x   
104frame=   11 fps=6.6 q=-0.0 size=N/A time=00:00:00.44 bitrate=N/A speed=0.262x   
105frame=   19 fps=8.5 q=-0.0 size=N/A time=00:00:00.76 bitrate=N/A speed=0.339x   
106frame=   27 fps=9.6 q=-0.0 size=N/A time=00:00:01.08 bitrate=N/A speed=0.386x   
107frame=   35 fps= 10 q=-0.0 size=N/A time=00:00:01.40 bitrate=N/A speed=0.419x   
108frame=   43 fps= 11 q=-0.0 size=N/A time=00:00:01.72 bitrate=N/A speed=0.441x   
109frame=   51 fps= 11 q=-0.0 size=N/A time=00:00:02.04 bitrate=N/A speed=0.459x   
110frame=   59 fps= 12 q=-0.0 size=N/A time=00:00:02.36 bitrate=N/A speed=0.473x   
111frame=   67 fps= 12 q=-0.0 size=N/A time=00:00:02.68 bitrate=N/A speed=0.485x   
112frame=   75 fps= 12 q=-0.0 size=N/A time=00:00:03.00 bitrate=N/A speed=0.494x   
113frame=   83 fps= 13 q=-0.0 size=N/A time=00:00:03.32 bitrate=N/A speed=0.501x   
114frame=   91 fps= 13 q=-0.0 size=N/A time=00:00:03.64 bitrate=N/A speed=0.508x   
115frame=   99 fps= 13 q=-0.0 size=N/A time=00:00:03.96 bitrate=N/A speed=0.514x   
116frame=  107 fps= 13 q=-0.0 size=N/A time=00:00:04.28 bitrate=N/A speed=0.519x   
117frame=  115 fps= 13 q=-0.0 size=N/A time=00:00:04.60 bitrate=N/A speed=0.524x   
118frame=  123 fps= 13 q=-0.0 size=N/A time=00:00:04.92 bitrate=N/A speed=0.528x   
119[out_0_0 @ 0x21d8bc60] EOF on sink link out_0_0:default.
120[out_0_1 @ 0x21e01c40] EOF on sink link out_0_1:default.
121No more output streams to write to, finishing.
122frame=  125 fps= 13 q=-0.0 Lsize=N/A time=00:00:05.00 bitrate=N/A speed=0.52x   
123video:64kB audio:938kB subtitle:0kB other streams:0kB global headers:0kB muxing overhead: unknown
124Input file #0 (0):
125  Input stream #0:0 (video): 127 packets read (18288000 bytes); 127 frames decoded;
126  Input stream #0:1 (audio): 127 packets read (975324 bytes); 127 frames decoded (243831 samples);
127  Total: 254 packets (19263324 bytes) demuxed
128Output file #0 (/dev/null):
129  Output stream #0:0 (video): 125 frames encoded; 125 packets muxed (66000 bytes);
130  Output stream #0:1 (audio): 126 frames encoded (240000 samples); 126 packets muxed (960000 bytes);
131  Total: 251 packets (1026000 bytes) muxed
132254 frames successfully decoded, 0 decoding errors
133==20310==
134==20310== HEAP SUMMARY:
135==20310==     in use at exit: 64,468 bytes in 28 blocks
136==20310==   total heap usage: 73,835 allocs, 73,807 frees, 25,514,000 bytes allocated
137==20310==
138==20310== 8 bytes in 1 blocks are definitely lost in loss record 3 of 21
139==20310==    at 0x4C2CB8F: malloc (vg_replace_malloc.c:299)
140==20310==    by 0xADC8621: fw_start_fcp_listen (fw.c:1535)
141==20310==    by 0xAFCEBB0: avc1394_transaction (avc1394_simple.c:106)
142==20310==    by 0x4E4E467: iec61883_read_header (iec61883.c:339)
143==20310==    by 0x56BEBDF: avformat_open_input (utils.c:595)
144==20310==    by 0x11D03B: open_input_file (ffmpeg_opt.c:1060)
145==20310==    by 0x11EA11: open_files (ffmpeg_opt.c:3278)
146==20310==    by 0x11EA11: ffmpeg_parse_options (ffmpeg_opt.c:3318)
147==20310==    by 0x11411C: main (ffmpeg.c:4803)
148==20310==
149==20310== 64 bytes in 8 blocks are definitely lost in loss record 11 of 21
150==20310==    at 0x4C2CB8F: malloc (vg_replace_malloc.c:299)
151==20310==    by 0xADC8621: fw_start_fcp_listen (fw.c:1535)
152==20310==    by 0xAFCEDE8: avc1394_transaction_block2 (avc1394_simple.c:193)
153==20310==    by 0xAFCEF83: avc1394_transaction_block (avc1394_simple.c:267)
154==20310==    by 0xAFCF2AA: avc1394_subunit_info (avc1394_simple.c:422)
155==20310==    by 0xAFCF335: avc1394_check_subunit_type (avc1394_simple.c:449)
156==20310==    by 0x4E4E1F0: iec61883_read_header (iec61883.c:315)
157==20310==    by 0x56BEBDF: avformat_open_input (utils.c:595)
158==20310==    by 0x11D03B: open_input_file (ffmpeg_opt.c:1060)
159==20310==    by 0x11EA11: open_files (ffmpeg_opt.c:3278)
160==20310==    by 0x11EA11: ffmpeg_parse_options (ffmpeg_opt.c:3318)
161==20310==    by 0x11411C: main (ffmpeg.c:4803)
162==20310==
163==20310== 33,192 bytes in 1 blocks are definitely lost in loss record 21 of 21
164==20310==    at 0x4C2EEF6: memalign (vg_replace_malloc.c:857)
165==20310==    by 0x4C2F011: posix_memalign (vg_replace_malloc.c:1020)
166==20310==    by 0x79AFAC2: av_malloc (mem.c:87)
167==20310==    by 0x79AFDEC: av_mallocz (mem.c:224)
168==20310==    by 0x558D862: avpriv_dv_init_demux (dv.c:328)
169==20310==    by 0x4E4E295: iec61883_read_header (iec61883.c:383)
170==20310==    by 0x56BEBDF: avformat_open_input (utils.c:595)
171==20310==    by 0x11D03B: open_input_file (ffmpeg_opt.c:1060)
172==20310==    by 0x11EA11: open_files (ffmpeg_opt.c:3278)
173==20310==    by 0x11EA11: ffmpeg_parse_options (ffmpeg_opt.c:3318)
174==20310==    by 0x11411C: main (ffmpeg.c:4803)
175==20310==
176==20310== LEAK SUMMARY:
177==20310==    definitely lost: 33,264 bytes in 10 blocks
178==20310==    indirectly lost: 0 bytes in 0 blocks
179==20310==      possibly lost: 0 bytes in 0 blocks
180==20310==    still reachable: 31,204 bytes in 18 blocks
181==20310==         suppressed: 0 bytes in 0 blocks
182==20310== Reachable blocks (those to which a pointer was found) are not shown.
183==20310== To see them, rerun with: --leak-check=full --show-leak-kinds=all
184==20310==
185==20310== For counts of detected and suppressed errors, rerun with: -v
186==20310== Use --track-origins=yes to see where uninitialised values come from
187==20310== ERROR SUMMARY: 12 errors from 4 contexts (suppressed: 0 from 0)