Ticket #7016: plate.json

File plate.json, 6.4 KB (added by mcoliver, 8 months ago)

original 59.94 prores ffprobe json output

Line 
1{
2    "streams": [
3        {
4            "index": 0,
5            "codec_name": "pcm_s24le",
6            "codec_long_name": "PCM signed 24-bit little-endian",
7            "codec_type": "audio",
8            "codec_time_base": "1/48000",
9            "codec_tag_string": "in24",
10            "codec_tag": "0x34326e69",
11            "sample_fmt": "s32",
12            "sample_rate": "48000",
13            "channels": 1,
14            "bits_per_sample": 24,
15            "r_frame_rate": "0/0",
16            "avg_frame_rate": "0/0",
17            "time_base": "1/48000",
18            "start_pts": 0,
19            "start_time": "0.000000",
20            "duration_ts": 1499900,
21            "duration": "31.247917",
22            "bit_rate": "1152000",
23            "bits_per_raw_sample": "24",
24            "nb_frames": "1499900",
25            "disposition": {
26                "default": 1,
27                "dub": 0,
28                "original": 0,
29                "comment": 0,
30                "lyrics": 0,
31                "karaoke": 0,
32                "forced": 0,
33                "hearing_impaired": 0,
34                "visual_impaired": 0,
35                "clean_effects": 0,
36                "attached_pic": 0,
37                "timed_thumbnails": 0
38            },
39            "tags": {
40                "creation_time": "2018-01-31T17:31:25.000000Z",
41                "language": "eng",
42                "handler_name": "Linux Alias Data Handler"
43            }
44        },
45        {
46            "index": 1,
47            "codec_name": "pcm_s24le",
48            "codec_long_name": "PCM signed 24-bit little-endian",
49            "codec_type": "audio",
50            "codec_time_base": "1/48000",
51            "codec_tag_string": "in24",
52            "codec_tag": "0x34326e69",
53            "sample_fmt": "s32",
54            "sample_rate": "48000",
55            "channels": 1,
56            "bits_per_sample": 24,
57            "r_frame_rate": "0/0",
58            "avg_frame_rate": "0/0",
59            "time_base": "1/48000",
60            "start_pts": 0,
61            "start_time": "0.000000",
62            "duration_ts": 1499900,
63            "duration": "31.247917",
64            "bit_rate": "1152000",
65            "bits_per_raw_sample": "24",
66            "nb_frames": "1499900",
67            "disposition": {
68                "default": 1,
69                "dub": 0,
70                "original": 0,
71                "comment": 0,
72                "lyrics": 0,
73                "karaoke": 0,
74                "forced": 0,
75                "hearing_impaired": 0,
76                "visual_impaired": 0,
77                "clean_effects": 0,
78                "attached_pic": 0,
79                "timed_thumbnails": 0
80            },
81            "tags": {
82                "creation_time": "2018-01-31T17:31:25.000000Z",
83                "language": "eng",
84                "handler_name": "Linux Alias Data Handler"
85            }
86        },
87        {
88            "index": 2,
89            "codec_name": "prores",
90            "codec_long_name": "Apple ProRes (iCodec Pro)",
91            "codec_type": "video",
92            "codec_time_base": "50/2997",
93            "codec_tag_string": "apco",
94            "codec_tag": "0x6f637061",
95            "width": 1280,
96            "height": 720,
97            "coded_width": 1280,
98            "coded_height": 720,
99            "has_b_frames": 0,
100            "sample_aspect_ratio": "0:1",
101            "display_aspect_ratio": "0:1",
102            "pix_fmt": "yuv422p10le",
103            "level": -99,
104            "field_order": "progressive",
105            "refs": 1,
106            "r_frame_rate": "2997/50",
107            "avg_frame_rate": "2997/50",
108            "time_base": "1/5994",
109            "start_pts": 0,
110            "start_time": "0.000000",
111            "duration_ts": 187300,
112            "duration": "31.247915",
113            "bit_rate": "40578685",
114            "bits_per_raw_sample": "10",
115            "nb_frames": "1873",
116            "disposition": {
117                "default": 1,
118                "dub": 0,
119                "original": 0,
120                "comment": 0,
121                "lyrics": 0,
122                "karaoke": 0,
123                "forced": 0,
124                "hearing_impaired": 0,
125                "visual_impaired": 0,
126                "clean_effects": 0,
127                "attached_pic": 0,
128                "timed_thumbnails": 0
129            },
130            "tags": {
131                "creation_time": "2018-01-31T17:31:25.000000Z",
132                "language": "eng",
133                "handler_name": "Linux Alias Data Handler",
134                "encoder": "Apple ProRes 422(PX)",
135                "timecode": "09:31:58:30"
136            }
137        },
138        {
139            "index": 3,
140            "codec_type": "data",
141            "codec_tag_string": "tmcd",
142            "codec_tag": "0x64636d74",
143            "r_frame_rate": "0/0",
144            "avg_frame_rate": "60/1",
145            "time_base": "1/5994",
146            "start_pts": 0,
147            "start_time": "0.000000",
148            "duration_ts": 187300,
149            "duration": "31.247915",
150            "bit_rate": "1",
151            "nb_frames": "1",
152            "disposition": {
153                "default": 0,
154                "dub": 0,
155                "original": 0,
156                "comment": 0,
157                "lyrics": 0,
158                "karaoke": 0,
159                "forced": 0,
160                "hearing_impaired": 0,
161                "visual_impaired": 0,
162                "clean_effects": 0,
163                "attached_pic": 0,
164                "timed_thumbnails": 0
165            },
166            "tags": {
167                "rotate": "0",
168                "creation_time": "2018-01-31T17:31:25.000000Z",
169                "language": "eng",
170                "handler_name": "Libquicktime Time Code Media Handler",
171                "reel_name": "001",
172                "timecode": "09:31:58:30"
173            }
174        }
175    ],
176    "format": {
177        "filename": "SRC.mov",
178        "nb_streams": 4,
179        "nb_programs": 0,
180        "format_name": "mov,mp4,m4a,3gp,3g2,mj2",
181        "format_long_name": "QuickTime / MOV",
182        "start_time": "0.000000",
183        "duration": "31.247915",
184        "size": "167517691",
185        "bit_rate": "42887390",
186        "probe_score": 100,
187        "tags": {
188            "major_brand": "qt  ",
189            "minor_version": "537199360",
190            "compatible_brands": "qt  ",
191            "creation_time": "2018-01-31T17:31:25.000000Z"
192        }
193    }
194}