Ticket #6867: ffmpeg-20171125-124817.log

File ffmpeg-20171125-124817.log, 40.1 KB (added by mkver, 11 months ago)
Line 
1ffmpeg started on 2017-11-25 at 12:48:17
2Report written to "ffmpeg-20171125-124817.log"
3Command line:
4ffmpeg -report -i Inband.Header.mkv -f null -
5ffmpeg version N-89212-ga60b2425c3 Copyright (c) 2000-2017 the FFmpeg developers
6  built with gcc 7.2.0 (GCC)
7  configuration: --disable-static --enable-shared --enable-gpl --enable-version3 --enable-sdl2 --enable-bzlib --enable-fontconfig --enable-gnutls --enable-iconv --enable-libass --enable-libbluray --enable-libfreetype --enable-libmp3lame --enable-libopenjpeg --enable-libopus --enable-libshine --enable-libsnappy --enable-libsoxr --enable-libtheora --enable-libtwolame --enable-libvpx --enable-libwavpack --enable-libwebp --enable-libx264 --enable-libx265 --enable-libxml2 --enable-libzimg --enable-lzma --enable-zlib --enable-gmp --enable-libvidstab --enable-libvorbis --enable-cuda --enable-cuvid --enable-d3d11va --enable-nvenc --enable-dxva2 --enable-avisynth --enable-libmfx
8  libavutil      56.  2.100 / 56.  2.100
9  libavcodec     58.  3.105 / 58.  3.105
10  libavformat    58.  2.102 / 58.  2.102
11  libavdevice    58.  0.100 / 58.  0.100
12  libavfilter     7.  2.102 /  7.  2.102
13  libswscale      5.  0.101 /  5.  0.101
14  libswresample   3.  0.101 /  3.  0.101
15  libpostproc    55.  0.100 / 55.  0.100
16Splitting the commandline.
17Reading option '-report' ... matched as option 'report' (generate a report) with argument '1'.
18Reading option '-i' ... matched as input url with argument 'Inband.Header.mkv'.
19Reading option '-f' ... matched as option 'f' (force format) with argument 'null'.
20Reading option '-' ... matched as output url.
21Finished splitting the commandline.
22Parsing a group of options: global .
23Applying option report (generate a report) with argument 1.
24Successfully parsed a group of options.
25Parsing a group of options: input url Inband.Header.mkv.
26Successfully parsed a group of options.
27Opening an input file: Inband.Header.mkv.
28[NULL @ 0000000000146780] Opening 'Inband.Header.mkv' for reading
29[file @ 0000000000147f40] Setting default whitelist 'file,crypto'
30[matroska,webm @ 0000000000146780] Format matroska,webm probed with size=2048 and score=100
31st:0 removing common factor 1000000 from timebase
32[matroska,webm @ 0000000000146780] Before avformat_find_stream_info() pos: 665 bytes read:8879 seeks:0 nb_streams:1
33[h264 @ 0000000000159be0] nal_unit_type: 7, nal_ref_idc: 3
34[h264 @ 0000000000159be0] nal_unit_type: 8, nal_ref_idc: 3
35[h264 @ 0000000000159be0] nal_unit_type: 7, nal_ref_idc: 3
36[h264 @ 0000000000159be0] nal_unit_type: 8, nal_ref_idc: 3
37[h264 @ 0000000000159be0] Invalid NAL unit size (23330846 > 834).
38[h264 @ 0000000000159be0] missing picture in access unit with size 838
39[h264 @ 0000000000159be0] nal_unit_type: 7, nal_ref_idc: 3
40[h264 @ 0000000000159be0] nal_unit_type: 8, nal_ref_idc: 3
41[h264 @ 0000000000159be0] Invalid NAL unit size (23330846 > 144).
42[h264 @ 0000000000159be0] missing picture in access unit with size 148
43[h264 @ 0000000000159be0] nal_unit_type: 7, nal_ref_idc: 3
44[h264 @ 0000000000159be0] nal_unit_type: 8, nal_ref_idc: 3
45[h264 @ 0000000000159be0] Invalid NAL unit size (23330846 > 144).
46[h264 @ 0000000000159be0] missing picture in access unit with size 148
47[h264 @ 0000000000159be0] nal_unit_type: 7, nal_ref_idc: 3
48[h264 @ 0000000000159be0] nal_unit_type: 8, nal_ref_idc: 3
49[h264 @ 0000000000159be0] Invalid NAL unit size (23330846 > 144).
50[h264 @ 0000000000159be0] missing picture in access unit with size 148
51[h264 @ 0000000000159be0] nal_unit_type: 7, nal_ref_idc: 3
52[h264 @ 0000000000159be0] nal_unit_type: 8, nal_ref_idc: 3
53[h264 @ 0000000000159be0] nal_unit_type: 1, nal_ref_idc: 2
54[h264 @ 0000000000159be0] Reinit context to 640x480, pix_fmt: yuv420p
55[h264 @ 0000000000159be0] Frame num gap 1 -1
56[h264 @ 0000000000159be0] no picture
57[matroska,webm @ 0000000000146780] All info found
58[matroska,webm @ 0000000000146780] After avformat_find_stream_info() pos: 2099 bytes read:8879 seeks:0 frames:8
59Input #0, matroska,webm, from 'Inband.Header.mkv':
60  Metadata:
61    ENCODER         : Lavf58.2.102
62  Duration: 00:00:10.00, start: 0.000000, bitrate: 7 kb/s
63    Stream #0:0(eng), 8, 1/1000: Video: h264 (High), yuv420p(progressive), 640x480, SAR 1:1 DAR 4:3, 24 fps, 24 tbr, 1k tbn, 48 tbc (default)
64    Metadata:
65      DURATION        : 00:00:10.000000000
66Successfully opened the file.
67Parsing a group of options: output url -.
68Applying option f (force format) with argument null.
69Successfully parsed a group of options.
70Opening an output file: -.
71Successfully opened the file.
72detected 4 logical cores
73[h264 @ 00000000001bb480] nal_unit_type: 7, nal_ref_idc: 3
74[h264 @ 00000000001bb480] nal_unit_type: 8, nal_ref_idc: 3
75Stream mapping:
76  Stream #0:0 -> #0:0 (h264 (native) -> wrapped_avframe (native))
77Press [q] to stop, [?] for help
78cur_dts is invalid (this is harmless if it occurs once at the start per stream)
79cur_dts is invalid (this is harmless if it occurs once at the start per stream)
80[h264 @ 00000000001bb480] nal_unit_type: 7, nal_ref_idc: 3
81[h264 @ 00000000001bb480] nal_unit_type: 8, nal_ref_idc: 3
82cur_dts is invalid (this is harmless if it occurs once at the start per stream)
83[h264 @ 00000000001b7260] nal_unit_type: 7, nal_ref_idc: 3
84[h264 @ 00000000001b7260] nal_unit_type: 8, nal_ref_idc: 3
85cur_dts is invalid (this is harmless if it occurs once at the start per stream)
86[h264 @ 00000000001b7980] nal_unit_type: 7, nal_ref_idc: 3
87[h264 @ 00000000001b7980] nal_unit_type: 8, nal_ref_idc: 3
88cur_dts is invalid (this is harmless if it occurs once at the start per stream)
89[h264 @ 000000000015afe0] nal_unit_type: 7, nal_ref_idc: 3
90[h264 @ 000000000015afe0] nal_unit_type: 8, nal_ref_idc: 3
91cur_dts is invalid (this is harmless if it occurs once at the start per stream)
92[h264 @ 000000000015b720] nal_unit_type: 1, nal_ref_idc: 2
93[h264 @ 000000000015b720] Reinit context to 640x480, pix_fmt: yuv420p
94[h264 @ 000000000015b720] Frame num gap 1 -1
95[h264 @ 000000000015b720] no picture
96cur_dts is invalid (this is harmless if it occurs once at the start per stream)
97[h264 @ 00000000001bb480] nal_unit_type: 1, nal_ref_idc: 2
98[h264 @ 00000000001bb480] no picture
99cur_dts is invalid (this is harmless if it occurs once at the start per stream)
100[h264 @ 00000000001b7260] nal_unit_type: 1, nal_ref_idc: 0
101cur_dts is invalid (this is harmless if it occurs once at the start per stream)
102[h264 @ 00000000001b7980] nal_unit_type: 1, nal_ref_idc: 0
103cur_dts is invalid (this is harmless if it occurs once at the start per stream)
104[h264 @ 000000000015afe0] nal_unit_type: 1, nal_ref_idc: 2
105cur_dts is invalid (this is harmless if it occurs once at the start per stream)
106[h264 @ 000000000015b720] nal_unit_type: 1, nal_ref_idc: 2
107cur_dts is invalid (this is harmless if it occurs once at the start per stream)
108[h264 @ 00000000001bb480] nal_unit_type: 1, nal_ref_idc: 0
109cur_dts is invalid (this is harmless if it occurs once at the start per stream)
110[h264 @ 00000000001b7260] nal_unit_type: 1, nal_ref_idc: 0
111cur_dts is invalid (this is harmless if it occurs once at the start per stream)
112[h264 @ 00000000001b7980] nal_unit_type: 1, nal_ref_idc: 2
113cur_dts is invalid (this is harmless if it occurs once at the start per stream)
114[h264 @ 000000000015afe0] nal_unit_type: 1, nal_ref_idc: 2
115cur_dts is invalid (this is harmless if it occurs once at the start per stream)
116[h264 @ 000000000015b720] nal_unit_type: 1, nal_ref_idc: 0
117cur_dts is invalid (this is harmless if it occurs once at the start per stream)
118[h264 @ 00000000001bb480] nal_unit_type: 1, nal_ref_idc: 0
119cur_dts is invalid (this is harmless if it occurs once at the start per stream)
120[h264 @ 00000000001b7260] nal_unit_type: 1, nal_ref_idc: 2
121cur_dts is invalid (this is harmless if it occurs once at the start per stream)
122[h264 @ 00000000001b7980] nal_unit_type: 1, nal_ref_idc: 2
123cur_dts is invalid (this is harmless if it occurs once at the start per stream)
124[h264 @ 000000000015afe0] nal_unit_type: 1, nal_ref_idc: 0
125[h264 @ 000000000015b720] nal_unit_type: 1, nal_ref_idc: 0
126cur_dts is invalid (this is harmless if it occurs once at the start per stream)
127cur_dts is invalid (this is harmless if it occurs once at the start per stream)
128[h264 @ 00000000001bb480] nal_unit_type: 1, nal_ref_idc: 2
129cur_dts is invalid (this is harmless if it occurs once at the start per stream)
130[h264 @ 00000000001b7260] nal_unit_type: 1, nal_ref_idc: 2
131cur_dts is invalid (this is harmless if it occurs once at the start per stream)
132[h264 @ 00000000001b7980] nal_unit_type: 1, nal_ref_idc: 0
133cur_dts is invalid (this is harmless if it occurs once at the start per stream)
134[h264 @ 000000000015afe0] nal_unit_type: 1, nal_ref_idc: 0
135cur_dts is invalid (this is harmless if it occurs once at the start per stream)
136[h264 @ 000000000015b720] nal_unit_type: 1, nal_ref_idc: 2
137cur_dts is invalid (this is harmless if it occurs once at the start per stream)
138[h264 @ 00000000001bb480] nal_unit_type: 1, nal_ref_idc: 2
139[h264 @ 00000000001b7260] nal_unit_type: 1, nal_ref_idc: 0
140cur_dts is invalid (this is harmless if it occurs once at the start per stream)
141cur_dts is invalid (this is harmless if it occurs once at the start per stream)
142[h264 @ 00000000001b7980] nal_unit_type: 1, nal_ref_idc: 0
143cur_dts is invalid (this is harmless if it occurs once at the start per stream)
144[h264 @ 000000000015afe0] nal_unit_type: 1, nal_ref_idc: 2
145cur_dts is invalid (this is harmless if it occurs once at the start per stream)
146[h264 @ 000000000015b720] nal_unit_type: 1, nal_ref_idc: 2
147cur_dts is invalid (this is harmless if it occurs once at the start per stream)
148[h264 @ 00000000001bb480] nal_unit_type: 1, nal_ref_idc: 0
149cur_dts is invalid (this is harmless if it occurs once at the start per stream)
150[h264 @ 00000000001b7260] nal_unit_type: 1, nal_ref_idc: 0
151cur_dts is invalid (this is harmless if it occurs once at the start per stream)
152[h264 @ 00000000001b7980] nal_unit_type: 1, nal_ref_idc: 2
153cur_dts is invalid (this is harmless if it occurs once at the start per stream)
154[h264 @ 000000000015afe0] nal_unit_type: 1, nal_ref_idc: 2
155cur_dts is invalid (this is harmless if it occurs once at the start per stream)
156[h264 @ 000000000015b720] nal_unit_type: 1, nal_ref_idc: 0
157cur_dts is invalid (this is harmless if it occurs once at the start per stream)
158[h264 @ 00000000001bb480] nal_unit_type: 1, nal_ref_idc: 0
159cur_dts is invalid (this is harmless if it occurs once at the start per stream)
160[h264 @ 00000000001b7260] nal_unit_type: 1, nal_ref_idc: 2
161cur_dts is invalid (this is harmless if it occurs once at the start per stream)
162[h264 @ 00000000001b7980] nal_unit_type: 1, nal_ref_idc: 2
163cur_dts is invalid (this is harmless if it occurs once at the start per stream)
164[h264 @ 000000000015afe0] nal_unit_type: 1, nal_ref_idc: 0
165cur_dts is invalid (this is harmless if it occurs once at the start per stream)
166[h264 @ 000000000015b720] nal_unit_type: 1, nal_ref_idc: 0
167cur_dts is invalid (this is harmless if it occurs once at the start per stream)
168[h264 @ 00000000001bb480] nal_unit_type: 1, nal_ref_idc: 2
169cur_dts is invalid (this is harmless if it occurs once at the start per stream)
170[h264 @ 00000000001b7260] nal_unit_type: 1, nal_ref_idc: 2
171[h264 @ 00000000001b7980] nal_unit_type: 1, nal_ref_idc: 0
172cur_dts is invalid (this is harmless if it occurs once at the start per stream)
173cur_dts is invalid (this is harmless if it occurs once at the start per stream)
174[h264 @ 000000000015afe0] nal_unit_type: 1, nal_ref_idc: 0
175cur_dts is invalid (this is harmless if it occurs once at the start per stream)
176[h264 @ 000000000015b720] nal_unit_type: 1, nal_ref_idc: 2
177cur_dts is invalid (this is harmless if it occurs once at the start per stream)
178[h264 @ 00000000001bb480] nal_unit_type: 1, nal_ref_idc: 2
179cur_dts is invalid (this is harmless if it occurs once at the start per stream)
180[h264 @ 00000000001b7260] nal_unit_type: 1, nal_ref_idc: 0
181cur_dts is invalid (this is harmless if it occurs once at the start per stream)
182[h264 @ 00000000001b7980] nal_unit_type: 1, nal_ref_idc: 0
183cur_dts is invalid (this is harmless if it occurs once at the start per stream)
184[h264 @ 000000000015afe0] nal_unit_type: 1, nal_ref_idc: 2
185cur_dts is invalid (this is harmless if it occurs once at the start per stream)
186[h264 @ 000000000015b720] nal_unit_type: 1, nal_ref_idc: 2
187cur_dts is invalid (this is harmless if it occurs once at the start per stream)
188[h264 @ 00000000001bb480] nal_unit_type: 1, nal_ref_idc: 0
189cur_dts is invalid (this is harmless if it occurs once at the start per stream)
190[h264 @ 00000000001b7260] nal_unit_type: 1, nal_ref_idc: 0
191cur_dts is invalid (this is harmless if it occurs once at the start per stream)
192[h264 @ 00000000001b7980] nal_unit_type: 1, nal_ref_idc: 2
193cur_dts is invalid (this is harmless if it occurs once at the start per stream)
194[h264 @ 000000000015afe0] nal_unit_type: 1, nal_ref_idc: 2
195[h264 @ 000000000015b720] nal_unit_type: 1, nal_ref_idc: 0
196cur_dts is invalid (this is harmless if it occurs once at the start per stream)
197cur_dts is invalid (this is harmless if it occurs once at the start per stream)
198[h264 @ 00000000001bb480] nal_unit_type: 1, nal_ref_idc: 0
199cur_dts is invalid (this is harmless if it occurs once at the start per stream)
200[h264 @ 00000000001b7260] nal_unit_type: 1, nal_ref_idc: 2
201cur_dts is invalid (this is harmless if it occurs once at the start per stream)
202[h264 @ 00000000001b7980] nal_unit_type: 1, nal_ref_idc: 2
203cur_dts is invalid (this is harmless if it occurs once at the start per stream)
204[h264 @ 000000000015afe0] nal_unit_type: 1, nal_ref_idc: 0
205[h264 @ 000000000015b720] nal_unit_type: 1, nal_ref_idc: 0
206cur_dts is invalid (this is harmless if it occurs once at the start per stream)
207cur_dts is invalid (this is harmless if it occurs once at the start per stream)
208[h264 @ 00000000001bb480] nal_unit_type: 1, nal_ref_idc: 2
209cur_dts is invalid (this is harmless if it occurs once at the start per stream)
210[h264 @ 00000000001b7260] nal_unit_type: 1, nal_ref_idc: 2
211[h264 @ 00000000001b7980] nal_unit_type: 1, nal_ref_idc: 0
212cur_dts is invalid (this is harmless if it occurs once at the start per stream)
213cur_dts is invalid (this is harmless if it occurs once at the start per stream)
214[h264 @ 000000000015afe0] nal_unit_type: 1, nal_ref_idc: 0
215cur_dts is invalid (this is harmless if it occurs once at the start per stream)
216[h264 @ 000000000015b720] nal_unit_type: 1, nal_ref_idc: 2
217cur_dts is invalid (this is harmless if it occurs once at the start per stream)
218[h264 @ 00000000001bb480] nal_unit_type: 1, nal_ref_idc: 2
219[h264 @ 00000000001b7260] nal_unit_type: 1, nal_ref_idc: 0
220cur_dts is invalid (this is harmless if it occurs once at the start per stream)
221cur_dts is invalid (this is harmless if it occurs once at the start per stream)
222[h264 @ 00000000001b7980] nal_unit_type: 1, nal_ref_idc: 0
223cur_dts is invalid (this is harmless if it occurs once at the start per stream)
224[h264 @ 000000000015afe0] nal_unit_type: 1, nal_ref_idc: 2
225cur_dts is invalid (this is harmless if it occurs once at the start per stream)
226[h264 @ 000000000015b720] nal_unit_type: 1, nal_ref_idc: 2
227cur_dts is invalid (this is harmless if it occurs once at the start per stream)
228[h264 @ 00000000001bb480] nal_unit_type: 1, nal_ref_idc: 0
229[h264 @ 00000000001b7260] nal_unit_type: 1, nal_ref_idc: 0
230cur_dts is invalid (this is harmless if it occurs once at the start per stream)
231cur_dts is invalid (this is harmless if it occurs once at the start per stream)
232[h264 @ 00000000001b7980] nal_unit_type: 1, nal_ref_idc: 2
233cur_dts is invalid (this is harmless if it occurs once at the start per stream)
234[h264 @ 000000000015afe0] nal_unit_type: 1, nal_ref_idc: 2
235cur_dts is invalid (this is harmless if it occurs once at the start per stream)
236[h264 @ 000000000015b720] nal_unit_type: 1, nal_ref_idc: 0
237cur_dts is invalid (this is harmless if it occurs once at the start per stream)
238[h264 @ 00000000001bb480] nal_unit_type: 1, nal_ref_idc: 0
239cur_dts is invalid (this is harmless if it occurs once at the start per stream)
240[h264 @ 00000000001b7260] nal_unit_type: 1, nal_ref_idc: 2
241cur_dts is invalid (this is harmless if it occurs once at the start per stream)
242[h264 @ 00000000001b7980] nal_unit_type: 1, nal_ref_idc: 2
243[h264 @ 000000000015afe0] nal_unit_type: 1, nal_ref_idc: 0
244cur_dts is invalid (this is harmless if it occurs once at the start per stream)
245cur_dts is invalid (this is harmless if it occurs once at the start per stream)
246[h264 @ 000000000015b720] nal_unit_type: 1, nal_ref_idc: 0
247cur_dts is invalid (this is harmless if it occurs once at the start per stream)
248[h264 @ 00000000001bb480] nal_unit_type: 1, nal_ref_idc: 2
249cur_dts is invalid (this is harmless if it occurs once at the start per stream)
250[h264 @ 00000000001b7260] nal_unit_type: 1, nal_ref_idc: 2
251cur_dts is invalid (this is harmless if it occurs once at the start per stream)
252[h264 @ 00000000001b7980] nal_unit_type: 1, nal_ref_idc: 0
253cur_dts is invalid (this is harmless if it occurs once at the start per stream)
254[h264 @ 000000000015afe0] nal_unit_type: 1, nal_ref_idc: 0
255cur_dts is invalid (this is harmless if it occurs once at the start per stream)
256[h264 @ 000000000015b720] nal_unit_type: 1, nal_ref_idc: 2
257cur_dts is invalid (this is harmless if it occurs once at the start per stream)
258[h264 @ 00000000001bb480] nal_unit_type: 1, nal_ref_idc: 2
259cur_dts is invalid (this is harmless if it occurs once at the start per stream)
260[h264 @ 00000000001b7260] nal_unit_type: 1, nal_ref_idc: 0
261[h264 @ 00000000001b7980] nal_unit_type: 1, nal_ref_idc: 0
262cur_dts is invalid (this is harmless if it occurs once at the start per stream)
263cur_dts is invalid (this is harmless if it occurs once at the start per stream)
264[h264 @ 000000000015afe0] nal_unit_type: 1, nal_ref_idc: 2
265cur_dts is invalid (this is harmless if it occurs once at the start per stream)
266[h264 @ 000000000015b720] nal_unit_type: 1, nal_ref_idc: 2
267[h264 @ 00000000001bb480] nal_unit_type: 1, nal_ref_idc: 0
268cur_dts is invalid (this is harmless if it occurs once at the start per stream)
269cur_dts is invalid (this is harmless if it occurs once at the start per stream)
270[h264 @ 00000000001b7260] nal_unit_type: 1, nal_ref_idc: 0
271cur_dts is invalid (this is harmless if it occurs once at the start per stream)
272[h264 @ 00000000001b7980] nal_unit_type: 1, nal_ref_idc: 2
273cur_dts is invalid (this is harmless if it occurs once at the start per stream)
274[h264 @ 000000000015afe0] nal_unit_type: 1, nal_ref_idc: 2
275[h264 @ 000000000015b720] nal_unit_type: 1, nal_ref_idc: 0
276cur_dts is invalid (this is harmless if it occurs once at the start per stream)
277cur_dts is invalid (this is harmless if it occurs once at the start per stream)
278[h264 @ 00000000001bb480] nal_unit_type: 1, nal_ref_idc: 0
279cur_dts is invalid (this is harmless if it occurs once at the start per stream)
280[h264 @ 00000000001b7260] nal_unit_type: 1, nal_ref_idc: 2
281cur_dts is invalid (this is harmless if it occurs once at the start per stream)
282[h264 @ 00000000001b7980] nal_unit_type: 1, nal_ref_idc: 2
283[h264 @ 000000000015afe0] nal_unit_type: 1, nal_ref_idc: 0
284cur_dts is invalid (this is harmless if it occurs once at the start per stream)
285cur_dts is invalid (this is harmless if it occurs once at the start per stream)
286[h264 @ 000000000015b720] nal_unit_type: 1, nal_ref_idc: 0
287cur_dts is invalid (this is harmless if it occurs once at the start per stream)
288[h264 @ 00000000001bb480] nal_unit_type: 1, nal_ref_idc: 2
289cur_dts is invalid (this is harmless if it occurs once at the start per stream)
290[h264 @ 00000000001b7260] nal_unit_type: 1, nal_ref_idc: 2
291[h264 @ 00000000001b7980] nal_unit_type: 1, nal_ref_idc: 0
292cur_dts is invalid (this is harmless if it occurs once at the start per stream)
293cur_dts is invalid (this is harmless if it occurs once at the start per stream)
294[h264 @ 000000000015afe0] nal_unit_type: 1, nal_ref_idc: 0
295cur_dts is invalid (this is harmless if it occurs once at the start per stream)
296[h264 @ 000000000015b720] nal_unit_type: 1, nal_ref_idc: 2
297cur_dts is invalid (this is harmless if it occurs once at the start per stream)
298[h264 @ 00000000001bb480] nal_unit_type: 1, nal_ref_idc: 2
299[h264 @ 00000000001b7260] nal_unit_type: 1, nal_ref_idc: 0
300cur_dts is invalid (this is harmless if it occurs once at the start per stream)
301[h264 @ 00000000001b7980] nal_unit_type: 1, nal_ref_idc: 0
302cur_dts is invalid (this is harmless if it occurs once at the start per stream)
303cur_dts is invalid (this is harmless if it occurs once at the start per stream)
304[h264 @ 000000000015afe0] nal_unit_type: 1, nal_ref_idc: 2
305cur_dts is invalid (this is harmless if it occurs once at the start per stream)
306[h264 @ 000000000015b720] nal_unit_type: 1, nal_ref_idc: 2
307[h264 @ 00000000001bb480] nal_unit_type: 1, nal_ref_idc: 0
308cur_dts is invalid (this is harmless if it occurs once at the start per stream)
309cur_dts is invalid (this is harmless if it occurs once at the start per stream)
310[h264 @ 00000000001b7260] nal_unit_type: 1, nal_ref_idc: 0
311cur_dts is invalid (this is harmless if it occurs once at the start per stream)
312[h264 @ 00000000001b7980] nal_unit_type: 1, nal_ref_idc: 2
313[h264 @ 000000000015afe0] nal_unit_type: 1, nal_ref_idc: 2
314cur_dts is invalid (this is harmless if it occurs once at the start per stream)
315cur_dts is invalid (this is harmless if it occurs once at the start per stream)
316[h264 @ 000000000015b720] nal_unit_type: 1, nal_ref_idc: 0
317cur_dts is invalid (this is harmless if it occurs once at the start per stream)
318[h264 @ 00000000001bb480] nal_unit_type: 1, nal_ref_idc: 0
319cur_dts is invalid (this is harmless if it occurs once at the start per stream)
320[h264 @ 00000000001b7260] nal_unit_type: 1, nal_ref_idc: 2
321cur_dts is invalid (this is harmless if it occurs once at the start per stream)
322[h264 @ 00000000001b7980] nal_unit_type: 1, nal_ref_idc: 2
323cur_dts is invalid (this is harmless if it occurs once at the start per stream)
324[h264 @ 000000000015afe0] nal_unit_type: 1, nal_ref_idc: 0
325cur_dts is invalid (this is harmless if it occurs once at the start per stream)
326[h264 @ 000000000015b720] nal_unit_type: 1, nal_ref_idc: 0
327cur_dts is invalid (this is harmless if it occurs once at the start per stream)
328[h264 @ 00000000001bb480] nal_unit_type: 1, nal_ref_idc: 2
329cur_dts is invalid (this is harmless if it occurs once at the start per stream)
330[h264 @ 00000000001b7260] nal_unit_type: 1, nal_ref_idc: 2
331cur_dts is invalid (this is harmless if it occurs once at the start per stream)
332[h264 @ 00000000001b7980] nal_unit_type: 1, nal_ref_idc: 0
333[h264 @ 000000000015afe0] nal_unit_type: 1, nal_ref_idc: 0
334cur_dts is invalid (this is harmless if it occurs once at the start per stream)
335cur_dts is invalid (this is harmless if it occurs once at the start per stream)
336[h264 @ 000000000015b720] nal_unit_type: 1, nal_ref_idc: 2
337cur_dts is invalid (this is harmless if it occurs once at the start per stream)
338[h264 @ 00000000001bb480] nal_unit_type: 1, nal_ref_idc: 2
339cur_dts is invalid (this is harmless if it occurs once at the start per stream)
340[h264 @ 00000000001b7260] nal_unit_type: 1, nal_ref_idc: 0
341cur_dts is invalid (this is harmless if it occurs once at the start per stream)
342[h264 @ 00000000001b7980] nal_unit_type: 1, nal_ref_idc: 0
343cur_dts is invalid (this is harmless if it occurs once at the start per stream)
344[h264 @ 000000000015afe0] nal_unit_type: 1, nal_ref_idc: 2
345cur_dts is invalid (this is harmless if it occurs once at the start per stream)
346[h264 @ 000000000015b720] nal_unit_type: 1, nal_ref_idc: 2
347[h264 @ 00000000001bb480] nal_unit_type: 1, nal_ref_idc: 0
348cur_dts is invalid (this is harmless if it occurs once at the start per stream)
349cur_dts is invalid (this is harmless if it occurs once at the start per stream)
350[h264 @ 00000000001b7260] nal_unit_type: 1, nal_ref_idc: 0
351cur_dts is invalid (this is harmless if it occurs once at the start per stream)
352[h264 @ 00000000001b7980] nal_unit_type: 1, nal_ref_idc: 2
353cur_dts is invalid (this is harmless if it occurs once at the start per stream)
354[h264 @ 000000000015afe0] nal_unit_type: 1, nal_ref_idc: 2
355cur_dts is invalid (this is harmless if it occurs once at the start per stream)
356[h264 @ 000000000015b720] nal_unit_type: 1, nal_ref_idc: 0
357[h264 @ 00000000001bb480] nal_unit_type: 1, nal_ref_idc: 0
358cur_dts is invalid (this is harmless if it occurs once at the start per stream)
359cur_dts is invalid (this is harmless if it occurs once at the start per stream)
360[h264 @ 00000000001b7260] nal_unit_type: 1, nal_ref_idc: 2
361cur_dts is invalid (this is harmless if it occurs once at the start per stream)
362[h264 @ 00000000001b7980] nal_unit_type: 1, nal_ref_idc: 2
363cur_dts is invalid (this is harmless if it occurs once at the start per stream)
364[h264 @ 000000000015afe0] nal_unit_type: 1, nal_ref_idc: 0
365cur_dts is invalid (this is harmless if it occurs once at the start per stream)
366[h264 @ 000000000015b720] nal_unit_type: 1, nal_ref_idc: 0
367cur_dts is invalid (this is harmless if it occurs once at the start per stream)
368[h264 @ 00000000001bb480] nal_unit_type: 1, nal_ref_idc: 2
369cur_dts is invalid (this is harmless if it occurs once at the start per stream)
370[h264 @ 00000000001b7260] nal_unit_type: 1, nal_ref_idc: 2
371cur_dts is invalid (this is harmless if it occurs once at the start per stream)
372[h264 @ 00000000001b7980] nal_unit_type: 1, nal_ref_idc: 0
373cur_dts is invalid (this is harmless if it occurs once at the start per stream)
374[h264 @ 000000000015afe0] nal_unit_type: 1, nal_ref_idc: 0
375cur_dts is invalid (this is harmless if it occurs once at the start per stream)
376[h264 @ 000000000015b720] nal_unit_type: 1, nal_ref_idc: 2
377cur_dts is invalid (this is harmless if it occurs once at the start per stream)
378[h264 @ 00000000001bb480] nal_unit_type: 1, nal_ref_idc: 2
379cur_dts is invalid (this is harmless if it occurs once at the start per stream)
380[h264 @ 00000000001b7260] nal_unit_type: 1, nal_ref_idc: 0
381cur_dts is invalid (this is harmless if it occurs once at the start per stream)
382[h264 @ 00000000001b7980] nal_unit_type: 1, nal_ref_idc: 0
383cur_dts is invalid (this is harmless if it occurs once at the start per stream)
384[h264 @ 000000000015afe0] nal_unit_type: 1, nal_ref_idc: 2
385cur_dts is invalid (this is harmless if it occurs once at the start per stream)
386[h264 @ 000000000015b720] nal_unit_type: 1, nal_ref_idc: 2
387cur_dts is invalid (this is harmless if it occurs once at the start per stream)
388[h264 @ 00000000001bb480] nal_unit_type: 1, nal_ref_idc: 0
389cur_dts is invalid (this is harmless if it occurs once at the start per stream)
390[h264 @ 00000000001b7260] nal_unit_type: 1, nal_ref_idc: 0
391cur_dts is invalid (this is harmless if it occurs once at the start per stream)
392[h264 @ 00000000001b7980] nal_unit_type: 1, nal_ref_idc: 2
393cur_dts is invalid (this is harmless if it occurs once at the start per stream)
394[h264 @ 000000000015afe0] nal_unit_type: 1, nal_ref_idc: 2
395cur_dts is invalid (this is harmless if it occurs once at the start per stream)
396[h264 @ 000000000015b720] nal_unit_type: 1, nal_ref_idc: 0
397cur_dts is invalid (this is harmless if it occurs once at the start per stream)
398[h264 @ 00000000001bb480] nal_unit_type: 1, nal_ref_idc: 0
399cur_dts is invalid (this is harmless if it occurs once at the start per stream)
400[h264 @ 00000000001b7260] nal_unit_type: 1, nal_ref_idc: 2
401cur_dts is invalid (this is harmless if it occurs once at the start per stream)
402[h264 @ 00000000001b7980] nal_unit_type: 1, nal_ref_idc: 2
403cur_dts is invalid (this is harmless if it occurs once at the start per stream)
404[h264 @ 000000000015afe0] nal_unit_type: 1, nal_ref_idc: 0
405cur_dts is invalid (this is harmless if it occurs once at the start per stream)
406[h264 @ 000000000015b720] nal_unit_type: 1, nal_ref_idc: 0
407cur_dts is invalid (this is harmless if it occurs once at the start per stream)
408[h264 @ 00000000001bb480] nal_unit_type: 1, nal_ref_idc: 2
409[h264 @ 00000000001b7260] nal_unit_type: 1, nal_ref_idc: 2
410cur_dts is invalid (this is harmless if it occurs once at the start per stream)
411[h264 @ 00000000001b7980] nal_unit_type: 1, nal_ref_idc: 0
412cur_dts is invalid (this is harmless if it occurs once at the start per stream)
413cur_dts is invalid (this is harmless if it occurs once at the start per stream)
414[h264 @ 000000000015afe0] nal_unit_type: 1, nal_ref_idc: 0
415cur_dts is invalid (this is harmless if it occurs once at the start per stream)
416[h264 @ 000000000015b720] nal_unit_type: 1, nal_ref_idc: 2
417cur_dts is invalid (this is harmless if it occurs once at the start per stream)
418[h264 @ 00000000001bb480] nal_unit_type: 1, nal_ref_idc: 2
419cur_dts is invalid (this is harmless if it occurs once at the start per stream)
420[h264 @ 00000000001b7260] nal_unit_type: 1, nal_ref_idc: 0
421[h264 @ 00000000001b7980] nal_unit_type: 1, nal_ref_idc: 0
422cur_dts is invalid (this is harmless if it occurs once at the start per stream)
423cur_dts is invalid (this is harmless if it occurs once at the start per stream)
424[h264 @ 000000000015afe0] nal_unit_type: 1, nal_ref_idc: 2
425cur_dts is invalid (this is harmless if it occurs once at the start per stream)
426[h264 @ 000000000015b720] nal_unit_type: 1, nal_ref_idc: 2
427cur_dts is invalid (this is harmless if it occurs once at the start per stream)
428[h264 @ 00000000001bb480] nal_unit_type: 1, nal_ref_idc: 0
429cur_dts is invalid (this is harmless if it occurs once at the start per stream)
430[h264 @ 00000000001b7260] nal_unit_type: 1, nal_ref_idc: 0
431cur_dts is invalid (this is harmless if it occurs once at the start per stream)
432[h264 @ 00000000001b7980] nal_unit_type: 1, nal_ref_idc: 2
433cur_dts is invalid (this is harmless if it occurs once at the start per stream)
434[h264 @ 000000000015afe0] nal_unit_type: 1, nal_ref_idc: 2
435cur_dts is invalid (this is harmless if it occurs once at the start per stream)
436[h264 @ 000000000015b720] nal_unit_type: 1, nal_ref_idc: 0
437[h264 @ 00000000001bb480] nal_unit_type: 1, nal_ref_idc: 0
438cur_dts is invalid (this is harmless if it occurs once at the start per stream)
439cur_dts is invalid (this is harmless if it occurs once at the start per stream)
440[h264 @ 00000000001b7260] nal_unit_type: 1, nal_ref_idc: 2
441cur_dts is invalid (this is harmless if it occurs once at the start per stream)
442[h264 @ 00000000001b7980] nal_unit_type: 1, nal_ref_idc: 2
443cur_dts is invalid (this is harmless if it occurs once at the start per stream)
444[h264 @ 000000000015afe0] nal_unit_type: 1, nal_ref_idc: 0
445cur_dts is invalid (this is harmless if it occurs once at the start per stream)
446[h264 @ 000000000015b720] nal_unit_type: 1, nal_ref_idc: 0
447cur_dts is invalid (this is harmless if it occurs once at the start per stream)
448[h264 @ 00000000001bb480] nal_unit_type: 1, nal_ref_idc: 2
449cur_dts is invalid (this is harmless if it occurs once at the start per stream)
450[h264 @ 00000000001b7260] nal_unit_type: 1, nal_ref_idc: 2
451cur_dts is invalid (this is harmless if it occurs once at the start per stream)
452[h264 @ 00000000001b7980] nal_unit_type: 1, nal_ref_idc: 0
453cur_dts is invalid (this is harmless if it occurs once at the start per stream)
454[h264 @ 000000000015afe0] nal_unit_type: 1, nal_ref_idc: 0
455cur_dts is invalid (this is harmless if it occurs once at the start per stream)
456[h264 @ 000000000015b720] nal_unit_type: 1, nal_ref_idc: 2
457cur_dts is invalid (this is harmless if it occurs once at the start per stream)
458[h264 @ 00000000001bb480] nal_unit_type: 1, nal_ref_idc: 2
459[h264 @ 00000000001b7260] nal_unit_type: 1, nal_ref_idc: 0
460cur_dts is invalid (this is harmless if it occurs once at the start per stream)
461cur_dts is invalid (this is harmless if it occurs once at the start per stream)
462[h264 @ 00000000001b7980] nal_unit_type: 1, nal_ref_idc: 0
463cur_dts is invalid (this is harmless if it occurs once at the start per stream)
464[h264 @ 000000000015afe0] nal_unit_type: 1, nal_ref_idc: 2
465cur_dts is invalid (this is harmless if it occurs once at the start per stream)
466[h264 @ 000000000015b720] nal_unit_type: 1, nal_ref_idc: 2
467[h264 @ 00000000001bb480] nal_unit_type: 1, nal_ref_idc: 0
468cur_dts is invalid (this is harmless if it occurs once at the start per stream)
469cur_dts is invalid (this is harmless if it occurs once at the start per stream)
470[h264 @ 00000000001b7260] nal_unit_type: 1, nal_ref_idc: 0
471cur_dts is invalid (this is harmless if it occurs once at the start per stream)
472[h264 @ 00000000001b7980] nal_unit_type: 1, nal_ref_idc: 2
473cur_dts is invalid (this is harmless if it occurs once at the start per stream)
474[h264 @ 000000000015afe0] nal_unit_type: 1, nal_ref_idc: 2
475cur_dts is invalid (this is harmless if it occurs once at the start per stream)
476[h264 @ 000000000015b720] nal_unit_type: 1, nal_ref_idc: 0
477cur_dts is invalid (this is harmless if it occurs once at the start per stream)
478[h264 @ 00000000001bb480] nal_unit_type: 1, nal_ref_idc: 0
479cur_dts is invalid (this is harmless if it occurs once at the start per stream)
480[h264 @ 00000000001b7260] nal_unit_type: 1, nal_ref_idc: 2
481cur_dts is invalid (this is harmless if it occurs once at the start per stream)
482[h264 @ 00000000001b7980] nal_unit_type: 1, nal_ref_idc: 2
483cur_dts is invalid (this is harmless if it occurs once at the start per stream)
484[h264 @ 000000000015afe0] nal_unit_type: 1, nal_ref_idc: 0
485cur_dts is invalid (this is harmless if it occurs once at the start per stream)
486[h264 @ 000000000015b720] nal_unit_type: 1, nal_ref_idc: 0
487cur_dts is invalid (this is harmless if it occurs once at the start per stream)
488[h264 @ 00000000001bb480] nal_unit_type: 1, nal_ref_idc: 2
489[h264 @ 00000000001b7260] nal_unit_type: 1, nal_ref_idc: 2
490cur_dts is invalid (this is harmless if it occurs once at the start per stream)
491[h264 @ 00000000001b7980] nal_unit_type: 1, nal_ref_idc: 0
492cur_dts is invalid (this is harmless if it occurs once at the start per stream)
493cur_dts is invalid (this is harmless if it occurs once at the start per stream)
494[h264 @ 000000000015afe0] nal_unit_type: 1, nal_ref_idc: 0
495cur_dts is invalid (this is harmless if it occurs once at the start per stream)
496[h264 @ 000000000015b720] nal_unit_type: 1, nal_ref_idc: 2
497cur_dts is invalid (this is harmless if it occurs once at the start per stream)
498[h264 @ 00000000001bb480] nal_unit_type: 1, nal_ref_idc: 2
499cur_dts is invalid (this is harmless if it occurs once at the start per stream)
500[h264 @ 00000000001b7260] nal_unit_type: 1, nal_ref_idc: 0
501cur_dts is invalid (this is harmless if it occurs once at the start per stream)
502[h264 @ 00000000001b7980] nal_unit_type: 1, nal_ref_idc: 0
503cur_dts is invalid (this is harmless if it occurs once at the start per stream)
504[h264 @ 000000000015afe0] nal_unit_type: 1, nal_ref_idc: 2
505cur_dts is invalid (this is harmless if it occurs once at the start per stream)
506[h264 @ 000000000015b720] nal_unit_type: 1, nal_ref_idc: 2
507[h264 @ 00000000001bb480] nal_unit_type: 1, nal_ref_idc: 0
508cur_dts is invalid (this is harmless if it occurs once at the start per stream)
509cur_dts is invalid (this is harmless if it occurs once at the start per stream)
510[h264 @ 00000000001b7260] nal_unit_type: 1, nal_ref_idc: 0
511cur_dts is invalid (this is harmless if it occurs once at the start per stream)
512[h264 @ 00000000001b7980] nal_unit_type: 1, nal_ref_idc: 2
513[h264 @ 000000000015afe0] nal_unit_type: 1, nal_ref_idc: 2
514cur_dts is invalid (this is harmless if it occurs once at the start per stream)
515[h264 @ 000000000015b720] nal_unit_type: 1, nal_ref_idc: 0
516cur_dts is invalid (this is harmless if it occurs once at the start per stream)
517cur_dts is invalid (this is harmless if it occurs once at the start per stream)
518[h264 @ 00000000001bb480] nal_unit_type: 1, nal_ref_idc: 0
519cur_dts is invalid (this is harmless if it occurs once at the start per stream)
520[h264 @ 00000000001b7260] nal_unit_type: 1, nal_ref_idc: 2
521[h264 @ 00000000001b7980] nal_unit_type: 1, nal_ref_idc: 2
522cur_dts is invalid (this is harmless if it occurs once at the start per stream)
523cur_dts is invalid (this is harmless if it occurs once at the start per stream)
524[h264 @ 000000000015afe0] nal_unit_type: 1, nal_ref_idc: 0
525[h264 @ 000000000015b720] nal_unit_type: 1, nal_ref_idc: 0
526cur_dts is invalid (this is harmless if it occurs once at the start per stream)
527cur_dts is invalid (this is harmless if it occurs once at the start per stream)
528[h264 @ 00000000001bb480] nal_unit_type: 1, nal_ref_idc: 2
529cur_dts is invalid (this is harmless if it occurs once at the start per stream)
530[h264 @ 00000000001b7260] nal_unit_type: 1, nal_ref_idc: 2
531cur_dts is invalid (this is harmless if it occurs once at the start per stream)
532[h264 @ 00000000001b7980] nal_unit_type: 1, nal_ref_idc: 0
533[h264 @ 000000000015afe0] nal_unit_type: 1, nal_ref_idc: 0
534cur_dts is invalid (this is harmless if it occurs once at the start per stream)
535cur_dts is invalid (this is harmless if it occurs once at the start per stream)
536[h264 @ 000000000015b720] nal_unit_type: 1, nal_ref_idc: 2
537cur_dts is invalid (this is harmless if it occurs once at the start per stream)
538[h264 @ 00000000001bb480] nal_unit_type: 1, nal_ref_idc: 2
539cur_dts is invalid (this is harmless if it occurs once at the start per stream)
540[h264 @ 00000000001b7260] nal_unit_type: 1, nal_ref_idc: 0
541[h264 @ 00000000001b7980] nal_unit_type: 1, nal_ref_idc: 0
542cur_dts is invalid (this is harmless if it occurs once at the start per stream)
543cur_dts is invalid (this is harmless if it occurs once at the start per stream)
544[h264 @ 000000000015afe0] nal_unit_type: 1, nal_ref_idc: 2
545[h264 @ 000000000015b720] nal_unit_type: 1, nal_ref_idc: 2
546cur_dts is invalid (this is harmless if it occurs once at the start per stream)
547[h264 @ 00000000001bb480] nal_unit_type: 1, nal_ref_idc: 0
548cur_dts is invalid (this is harmless if it occurs once at the start per stream)
549cur_dts is invalid (this is harmless if it occurs once at the start per stream)
550[h264 @ 00000000001b7260] nal_unit_type: 1, nal_ref_idc: 0
551cur_dts is invalid (this is harmless if it occurs once at the start per stream)
552[h264 @ 00000000001b7980] nal_unit_type: 1, nal_ref_idc: 2
553cur_dts is invalid (this is harmless if it occurs once at the start per stream)
554[h264 @ 000000000015afe0] nal_unit_type: 1, nal_ref_idc: 2
555cur_dts is invalid (this is harmless if it occurs once at the start per stream)
556[h264 @ 000000000015b720] nal_unit_type: 1, nal_ref_idc: 0
557[h264 @ 00000000001bb480] nal_unit_type: 1, nal_ref_idc: 0
558cur_dts is invalid (this is harmless if it occurs once at the start per stream)
559cur_dts is invalid (this is harmless if it occurs once at the start per stream)
560[h264 @ 00000000001b7260] nal_unit_type: 1, nal_ref_idc: 2
561cur_dts is invalid (this is harmless if it occurs once at the start per stream)
562[h264 @ 00000000001b7980] nal_unit_type: 1, nal_ref_idc: 2
563cur_dts is invalid (this is harmless if it occurs once at the start per stream)
564[h264 @ 000000000015afe0] nal_unit_type: 1, nal_ref_idc: 0
565cur_dts is invalid (this is harmless if it occurs once at the start per stream)
566[h264 @ 000000000015b720] nal_unit_type: 1, nal_ref_idc: 0
567No more output streams to write to, finishing.
568Finishing stream 0:0 without any data written to it.
569[graph 0 input from stream 0:0 @ 00000000025e9dc0] Setting 'video_size' to value '640x480'
570[graph 0 input from stream 0:0 @ 00000000025e9dc0] Setting 'pix_fmt' to value '0'
571[graph 0 input from stream 0:0 @ 00000000025e9dc0] Setting 'time_base' to value '1/1000'
572[graph 0 input from stream 0:0 @ 00000000025e9dc0] Setting 'pixel_aspect' to value '0/1'
573[graph 0 input from stream 0:0 @ 00000000025e9dc0] Setting 'sws_param' to value 'flags=2'
574[graph 0 input from stream 0:0 @ 00000000025e9dc0] Setting 'frame_rate' to value '24/1'
575[graph 0 input from stream 0:0 @ 00000000025e9dc0] w:640 h:480 pixfmt:yuv420p tb:1/1000 fr:24/1 sar:0/1 sws_param:flags=2
576[AVFilterGraph @ 00000000037bba80] query_formats: 3 queried, 2 merged, 0 already done, 0 delayed
577Output #0, null, to 'pipe:':
578  Metadata:
579    encoder         : Lavf58.2.102
580    Stream #0:0(eng), 0, 1/24: Video: wrapped_avframe, yuv420p, 640x480, q=2-31, 200 kb/s, 24 fps, 24 tbn, 24 tbc (default)
581    Metadata:
582      DURATION        : 00:00:10.000000000
583      encoder         : Lavc58.3.105 wrapped_avframe
584frame=    0 fps=0.0 q=0.0 Lsize=N/A time=00:00:00.00 bitrate=N/A speed=   0x   
585video:0kB audio:0kB subtitle:0kB other streams:0kB global headers:0kB muxing overhead: unknown
586Input file #0 (Inband.Header.mkv):
587  Input stream #0:0 (video): 240 packets read (6642 bytes); 0 frames decoded;
588  Total: 240 packets (6642 bytes) demuxed
589Output file #0 (pipe:):
590  Output stream #0:0 (video): 0 frames encoded; 0 packets muxed (0 bytes);
591  Total: 0 packets (0 bytes) muxed
592Output file is empty, nothing was encoded (check -ss / -t / -frames parameters if used)
5930 frames successfully decoded, 0 decoding errors
594[AVIOContext @ 0000000000150100] Statistics: 8879 bytes read, 0 seeks