Ticket #6779: ffmpeg-20171027-045637.log

File ffmpeg-20171027-045637.log, 10.3 KB (added by omniplex, 12 months ago)

Working 3.0 (Einstein) conversion report of the same file instead of 3.3.3

Line 
1ffmpeg started on 2017-10-27 at 04:56:37
2Report written to "ffmpeg-20171027-045637.log"
3Command line:
4ffmpeg.exe -report -err_detect aggressive -v verbose -i battle_of_kings_preview.mp3 -vn -filter:a "aresample=48000:resampler=soxr:precision=28:ocl=downmix:cheby=1:matrix_encoding=dolby:tsf=s32" -f ogg -c:a libvorbis -b:a 25KiB "C:\\Temp\\battle_of_kings_preview.oga"
5ffmpeg version 3.0 Copyright (c) 2000-2016 the FFmpeg developers
6  built with gcc 5.3.0 (GCC)
7  configuration: --enable-gpl --enable-version3 --disable-w32threads --enable-avisynth --enable-bzlib --enable-fontconfig --enable-frei0r --enable-gnutls --enable-iconv --enable-libass --enable-libbluray --enable-libbs2b --enable-libcaca --enable-libdcadec --enable-libfreetype --enable-libgme --enable-libgsm --enable-libilbc --enable-libmodplug --enable-libmp3lame --enable-libopencore-amrnb --enable-libopencore-amrwb --enable-libopenjpeg --enable-libopus --enable-librtmp --enable-libschroedinger --enable-libsoxr --enable-libspeex --enable-libtheora --enable-libtwolame --enable-libvidstab --enable-libvo-amrwbenc --enable-libvorbis --enable-libvpx --enable-libwavpack --enable-libwebp --enable-libx264 --enable-libx265 --enable-libxavs --enable-libxvid --enable-libzimg --enable-lzma --enable-decklink --enable-zlib
8  libavutil      55. 17.103 / 55. 17.103
9  libavcodec     57. 24.102 / 57. 24.102
10  libavformat    57. 25.100 / 57. 25.100
11  libavdevice    57.  0.101 / 57.  0.101
12  libavfilter     6. 31.100 /  6. 31.100
13  libswscale      4.  0.100 /  4.  0.100
14  libswresample   2.  0.101 /  2.  0.101
15  libpostproc    54.  0.100 / 54.  0.100
16Splitting the commandline.
17Reading option '-report' ... matched as option 'report' (generate a report) with argument '1'.
18Reading option '-err_detect' ...Routing option err_detect to both codec and muxer layer
19 matched as AVOption 'err_detect' with argument 'aggressive'.
20Reading option '-v' ... matched as option 'v' (set logging level) with argument 'verbose'.
21Reading option '-i' ... matched as input file with argument 'battle_of_kings_preview.mp3'.
22Reading option '-vn' ... matched as option 'vn' (disable video) with argument '1'.
23Reading option '-filter:a' ... matched as option 'filter' (set stream filtergraph) with argument 'aresample=48000:resampler=soxr:precision=28:ocl=downmix:cheby=1:matrix_encoding=dolby:tsf=s32'.
24Reading option '-f' ... matched as option 'f' (force format) with argument 'ogg'.
25Reading option '-c:a' ... matched as option 'c' (codec name) with argument 'libvorbis'.
26Reading option '-b:a' ... matched as option 'b' (video bitrate (please use -b:v)) with argument '25KiB'.
27Reading option 'C:\Temp\battle_of_kings_preview.oga' ... matched as output file.
28Finished splitting the commandline.
29Parsing a group of options: global .
30Applying option report (generate a report) with argument 1.
31Applying option v (set logging level) with argument verbose.
32Successfully parsed a group of options.
33Parsing a group of options: input file battle_of_kings_preview.mp3.
34Successfully parsed a group of options.
35Opening an input file: battle_of_kings_preview.mp3.
36[file @ 00000000004c6280] Setting default whitelist 'file'
37[mp3 @ 00000000004c5b60] Format mp3 probed with size=131072 and score=51
38[mp3 @ 00000000004c5b60] id3v2 ver:3 flags:00 len:120115
39[mp3 @ 00000000004c5b60] Skipping 0 bytes of junk at 120125.
40[mp3 @ 00000000004c5b60] Before avformat_find_stream_info() pos: 120125 bytes read:131072 seeks:0
41[mp3 @ 00000000004c5b60] max_analyze_duration 5000000 reached at 5015510 microseconds st:0
42[mp3 @ 00000000004c5b60] Estimating duration from bitrate, this may be inaccurate
43[mp3 @ 00000000004c5b60] After avformat_find_stream_info() pos: 323901 bytes read:327680 seeks:0 frames:195
44Input #0, mp3, from 'battle_of_kings_preview.mp3':
45  Metadata:
46    album           : Machinimasound 2012
47    artist          : Machinimasound
48    album_artist    : MachinimaSound
49    composer        : MachinimaSound
50    copyright       : Creative Commons Attribution 2.0
51    publisher       : Machinimasound
52    title           : Battle of Kings
53    date            : 2012
54  Duration: 00:03:28.36, start: 0.000000, bitrate: 324 kb/s
55    Stream #0:0, 194, 1/14112000: Audio: mp3, 44100 Hz, stereo, s16p, 320 kb/s
56    Stream #0:1, 1, 1/90000: Video: png, 1 reference frame, rgb24(pc), 600x600 (0x0), 90k tbr, 90k tbn, 90k tbc
57    Metadata:
58      comment         : Cover (front)
59Successfully opened the file.
60Parsing a group of options: output file C:\Temp\battle_of_kings_preview.oga.
61Applying option vn (disable video) with argument 1.
62Applying option filter:a (set stream filtergraph) with argument aresample=48000:resampler=soxr:precision=28:ocl=downmix:cheby=1:matrix_encoding=dolby:tsf=s32.
63Applying option f (force format) with argument ogg.
64Applying option c:a (codec name) with argument libvorbis.
65Applying option b:a (video bitrate (please use -b:v)) with argument 25KiB.
66Successfully parsed a group of options.
67Opening an output file: C:\Temp\battle_of_kings_preview.oga.
68[file @ 00000000004adec0] Setting default whitelist 'file'
69Successfully opened the file.
70detected 4 logical cores
71[Parsed_aresample_0 @ 0000000000555100] Setting 'sample_rate' to value '48000'
72[Parsed_aresample_0 @ 0000000000555100] Setting 'resampler' to value 'soxr'
73[Parsed_aresample_0 @ 0000000000555100] Setting 'precision' to value '28'
74[Parsed_aresample_0 @ 0000000000555100] Setting 'ocl' to value 'downmix'
75[Parsed_aresample_0 @ 0000000000555100] Setting 'cheby' to value '1'
76[Parsed_aresample_0 @ 0000000000555100] Setting 'matrix_encoding' to value 'dolby'
77[Parsed_aresample_0 @ 0000000000555100] Setting 'tsf' to value 's32'
78[graph 0 input from stream 0:0 @ 00000000005551c0] Setting 'time_base' to value '1/44100'
79[graph 0 input from stream 0:0 @ 00000000005551c0] Setting 'sample_rate' to value '44100'
80[graph 0 input from stream 0:0 @ 00000000005551c0] Setting 'sample_fmt' to value 's16p'
81[graph 0 input from stream 0:0 @ 00000000005551c0] Setting 'channel_layout' to value '0x3'
82[graph 0 input from stream 0:0 @ 00000000005551c0] tb:1/44100 samplefmt:s16p samplerate:44100 chlayout:0x3
83[audio format for output stream 0:0 @ 0000000000555340] Setting 'sample_fmts' to value 'fltp'
84[AVFilterGraph @ 00000000005437c0] query_formats: 4 queried, 9 merged, 0 already done, 0 delayed
85[Parsed_aresample_0 @ 0000000000555100] [SWR @ 0000000002df00a0] Using fltp internally between filters
86[Parsed_aresample_0 @ 0000000000555100] [SWR @ 0000000002df00a0] Matrix coefficients:
87[Parsed_aresample_0 @ 0000000000555100] [SWR @ 0000000002df00a0] FL: FL:1.000000 FR:0.000000
88[Parsed_aresample_0 @ 0000000000555100] [SWR @ 0000000002df00a0] FR: FL:0.000000 FR:1.000000
89[Parsed_aresample_0 @ 0000000000555100] ch:2 chl:stereo fmt:s16p r:44100Hz -> ch:2 chl:downmix fmt:fltp r:48000Hz
90Output #0, ogg, to 'C:\Temp\battle_of_kings_preview.oga':
91  Metadata:
92    album           : Machinimasound 2012
93    artist          : Machinimasound
94    album_artist    : MachinimaSound
95    composer        : MachinimaSound
96    copyright       : Creative Commons Attribution 2.0
97    publisher       : Machinimasound
98    title           : Battle of Kings
99    date            : 2012
100    encoder         : Lavf57.25.100
101    Stream #0:0, 0, 1/48000: Audio: vorbis (libvorbis), 48000 Hz, downmix, fltp, 204 kb/s
102    Metadata:
103      encoder         : Lavc57.24.102 libvorbis
104      album           : Machinimasound 2012
105      artist          : Machinimasound
106      ALBUMARTIST     : MachinimaSound
107      composer        : MachinimaSound
108      copyright       : Creative Commons Attribution 2.0
109      publisher       : Machinimasound
110      title           : Battle of Kings
111      date            : 2012
112Stream mapping:
113  Stream #0:0 -> #0:0 (mp3 (native) -> vorbis (libvorbis))
114Press [q] to stop, [?] for help
115cur_dts is invalid (this is harmless if it occurs once at the start per stream)
116cur_dts is invalid (this is harmless if it occurs once at the start per stream)
117cur_dts is invalid (this is harmless if it occurs once at the start per stream)
118cur_dts is invalid (this is harmless if it occurs once at the start per stream)
119size=     192kB time=00:00:10.46 bitrate= 150.5kbits/s speed=20.9x   
120size=     434kB time=00:00:21.77 bitrate= 163.4kbits/s speed=21.8x   
121size=     698kB time=00:00:32.87 bitrate= 174.0kbits/s speed=21.9x   
122size=     970kB time=00:00:44.20 bitrate= 179.7kbits/s speed=22.1x   
123size=    1236kB time=00:00:55.28 bitrate= 183.2kbits/s speed=22.1x   
124size=    1512kB time=00:01:06.82 bitrate= 185.4kbits/s speed=22.3x   
125size=    1766kB time=00:01:18.39 bitrate= 184.5kbits/s speed=22.4x   
126size=    2028kB time=00:01:29.76 bitrate= 185.1kbits/s speed=22.4x   
127size=    2312kB time=00:01:41.29 bitrate= 187.0kbits/s speed=22.5x   
128size=    2573kB time=00:01:52.79 bitrate= 186.9kbits/s speed=22.5x   
129size=    2857kB time=00:02:04.19 bitrate= 188.5kbits/s speed=22.6x   
130size=    3090kB time=00:02:15.99 bitrate= 186.1kbits/s speed=22.6x   
131size=    3386kB time=00:02:27.49 bitrate= 188.1kbits/s speed=22.7x   
132size=    3661kB time=00:02:38.89 bitrate= 188.8kbits/s speed=22.7x   
133size=    3936kB time=00:02:50.33 bitrate= 189.3kbits/s speed=22.7x   
134size=    4224kB time=00:03:01.78 bitrate= 190.4kbits/s speed=22.7x   
135size=    4490kB time=00:03:13.29 bitrate= 190.3kbits/s speed=22.7x   
136size=    4743kB time=00:03:25.58 bitrate= 189.0kbits/s speed=22.8x   
137[output stream 0:0 @ 0000000000555280] EOF on sink link output stream 0:0:default.
138No more output streams to write to, finishing.
139[libvorbis @ 000000000051ce20] Trying to remove 33 more samples than there are in the queue
140size=    4835kB time=00:03:28.33 bitrate= 190.1kbits/s speed=22.7x   
141video:0kB audio:4801kB subtitle:0kB other streams:0kB global headers:4kB muxing overhead: 0.696587%
142Input file #0 (battle_of_kings_preview.mp3):
143  Input stream #0:0 (audio): 7976 packets read (8334106 bytes); 7976 frames decoded (9188352 samples);
144  Input stream #0:1 (video): 1 packets read (117645 bytes);
145  Total: 7977 packets (8451751 bytes) demuxed
146Output file #0 (C:\Temp\battle_of_kings_preview.oga):
147  Output stream #0:0 (audio): 156265 frames encoded (10000927 samples); 14682 packets muxed (4916401 bytes);
148  Total: 14682 packets (4916401 bytes) muxed
1497976 frames successfully decoded, 0 decoding errors
150[AVIOContext @ 00000000004c4860] Statistics: 0 seeks, 209 writeouts
151[AVIOContext @ 00000000004d0360] Statistics: 8454359 bytes read, 0 seeks