Ticket #5795: ffmpeg-20160824-142434.log

File ffmpeg-20160824-142434.log, 4.8 KB (added by jrun, 3 years ago)
Line 
1ffmpeg started on 2016-08-24 at 14:24:34
2Report written to "ffmpeg-20160824-142434.log"
3Command line:
4ffmpeg -report -i in.pbm -f null -
5ffmpeg version N-81451-g8a78fc5 Copyright (c) 2000-2016 the FFmpeg developers
6  built with gcc 4.9.3 (Gentoo 4.9.3 p1.5, pie-0.6.4)
7  configuration: --prefix=/usr --libdir=/usr/lib64 --shlibdir=/usr/lib64 --docdir=/usr/share/doc/ffmpeg-9999/html --mandir=/usr/share/man --enable-shared --cc=x86_64-pc-linux-gnu-gcc --cxx=x86_64-pc-linux-gnu-g++ --ar=x86_64-pc-linux-gnu-ar --optflags='-O2 -pipe' --disable-static --enable-avfilter --enable-avresample --disable-stripping --disable-indev=v4l2 --disable-outdev=v4l2 --disable-indev=oss --disable-indev=jack --disable-outdev=oss --disable-outdev=sdl --enable-bzlib --disable-runtime-cpudetect --disable-debug --disable-gcrypt --disable-gnutls --disable-gmp --enable-gpl --enable-hardcoded-tables --enable-iconv --disable-lzma --enable-network --disable-openssl --enable-postproc --disable-libsmbclient --disable-ffplay --disable-sdl --disable-vaapi --enable-vdpau --disable-xlib --enable-libxcb --enable-libxcb-shm --enable-libxcb-xfixes --enable-zlib --disable-libcdio --disable-libiec61883 --disable-libdc1394 --disable-libcaca --disable-openal --enable-opengl --disable-libv4l2 --disable-libpulse --disabl  libavutil      55. 29.100 / 55. 29.100
8  libavcodec     57. 54.100 / 57. 54.100
9  libavformat    57. 48.100 / 57. 48.100
10  libavdevice    57.  0.102 / 57.  0.102
11  libavfilter     6. 54.100 /  6. 54.100
12  libavresample   3.  0.  0 /  3.  0.  0
13  libswscale      4.  1.100 /  4.  1.100
14  libswresample   2.  1.100 /  2.  1.100
15  libpostproc    54.  0.100 / 54.  0.100
16Splitting the commandline.
17Reading option '-report' ... matched as option 'report' (generate a report) with argument '1'.
18Reading option '-i' ... matched as input file with argument 'in.pbm'.
19Reading option '-f' ... matched as option 'f' (force format) with argument 'null'.
20Reading option '-' ... matched as output file.
21Finished splitting the commandline.
22Parsing a group of options: global .
23Applying option report (generate a report) with argument 1.
24Successfully parsed a group of options.
25Parsing a group of options: input file in.pbm.
26Successfully parsed a group of options.
27Opening an input file: in.pbm.
28[file @ 0x1bf4e80] Setting default whitelist 'file,crypto'
29[pbm_pipe @ 0x1bf4790] Format pbm_pipe probed with size=2048 and score=52
30[pbm_pipe @ 0x1bf4790] Before avformat_find_stream_info() pos: 0 bytes read:128 seeks:0 nb_streams:1
31[pbm_pipe @ 0x1bf4790] After avformat_find_stream_info() pos: 128 bytes read:128 seeks:0 frames:1
32Input #0, pbm_pipe, from 'in.pbm':
33  Duration: N/A, bitrate: N/A
34    Stream #0:0, 1, 1/25: Video: pbm, monow, 6x10, 25 tbr, 25 tbn, 25 tbc
35Successfully opened the file.
36Parsing a group of options: output file -.
37Applying option f (force format) with argument null.
38Successfully parsed a group of options.
39Opening an output file: -.
40Successfully opened the file.
41detected 4 logical cores
42[graph 0 input from stream 0:0 @ 0x1bf90a0] Setting 'video_size' to value '6x10'
43[graph 0 input from stream 0:0 @ 0x1bf90a0] Setting 'pix_fmt' to value '9'
44[graph 0 input from stream 0:0 @ 0x1bf90a0] Setting 'time_base' to value '1/25'
45[graph 0 input from stream 0:0 @ 0x1bf90a0] Setting 'pixel_aspect' to value '0/1'
46[graph 0 input from stream 0:0 @ 0x1bf90a0] Setting 'sws_param' to value 'flags=2'
47[graph 0 input from stream 0:0 @ 0x1bf90a0] Setting 'frame_rate' to value '25/1'
48[graph 0 input from stream 0:0 @ 0x1bf90a0] w:6 h:10 pixfmt:monow tb:1/25 fr:25/1 sar:0/1 sws_param:flags=2
49[AVFilterGraph @ 0x1bf86f0] query_formats: 3 queried, 2 merged, 0 already done, 0 delayed
50[null @ 0x1bf6f20] Using AVStream.codec to pass codec parameters to muxers is deprecated, use AVStream.codecpar instead.
51Output #0, null, to 'pipe:':
52  Metadata:
53    encoder         : Lavf57.48.100
54    Stream #0:0, 0, 1/25: Video: wrapped_avframe, monow, 6x10, q=2-31, 200 kb/s, 25 fps, 25 tbn, 25 tbc
55    Metadata:
56      encoder         : Lavc57.54.100 wrapped_avframe
57Stream mapping:
58  Stream #0:0 -> #0:0 (pbm (native) -> wrapped_avframe (native))
59Press [q] to stop, [?] for help
60cur_dts is invalid (this is harmless if it occurs once at the start per stream)
61[output stream 0:0 @ 0x1bf9400] EOF on sink link output stream 0:0:default.
62No more output streams to write to, finishing.
63frame=    1 fps=0.0 q=-0.0 Lsize=N/A time=00:00:00.04 bitrate=N/A speed= 519x   
64video:0kB audio:0kB subtitle:0kB other streams:0kB global headers:0kB muxing overhead: unknown
65Input file #0 (in.pbm):
66  Input stream #0:0 (video): 1 packets read (128 bytes); 1 frames decoded;
67  Total: 1 packets (128 bytes) demuxed
68Output file #0 (pipe:):
69  Output stream #0:0 (video): 1 frames encoded; 1 packets muxed (488 bytes);
70  Total: 1 packets (488 bytes) muxed
711 frames successfully decoded, 0 decoding errors
72[AVIOContext @ 0x1bfd070] Statistics: 128 bytes read, 0 seeks