Ticket #5472: packages.txt

File packages.txt, 1.1 KB (added by susnux, 3 years ago)

Some subtitle packages from ffprobe output

Line 
1[PACKET]
2codec_type=subtitle
3stream_index=4
4pts=14875
5pts_time=14.875000
6dts=14875
7dts_time=14.875000
8duration=N/A
9duration_time=N/A
10convergence_duration=N/A
11convergence_duration_time=N/A
12size=22
13pos=24032416
14flags=K
15[/PACKET]
16[PACKET]
17codec_type=subtitle
18stream_index=4
19pts=14874
20pts_time=14.874000
21dts=14874
22dts_time=14.874000
23duration=N/A
24duration_time=N/A
25convergence_duration=N/A
26convergence_duration_time=N/A
27size=13
28pos=24032455
29flags=K
30[/PACKET]
31[PACKET]
32codec_type=subtitle
33stream_index=4
34pts=14809
35pts_time=14.809000
36dts=14809
37dts_time=14.809000
38duration=N/A
39duration_time=N/A
40convergence_duration=N/A
41convergence_duration_time=N/A
42size=1280
43pos=24032489
44flags=K
45[/PACKET]
46[PACKET]
47codec_type=subtitle
48stream_index=4
49pts=14811
50pts_time=14.811000
51dts=14811
52dts_time=14.811000
53duration=N/A
54duration_time=N/A
55convergence_duration=N/A
56convergence_duration_time=N/A
57size=16659
58pos=24033708
59flags=K
60[/PACKET]
61[PACKET]
62codec_type=subtitle
63stream_index=4
64pts=14811
65pts_time=14.811000
66dts=14811
67dts_time=14.811000
68duration=N/A
69duration_time=N/A
70convergence_duration=N/A
71convergence_duration_time=N/A
72size=3
73pos=24038938
74flags=K
75[/PACKET]