Ticket #4806: backtrace.txt

File backtrace.txt, 27.8 KB (added by turlando, 4 years ago)
Line 
1valgrind ./ffmpeg_g -i ~/06_-_Remarc_-_Sound_Murderer_\(Loafin\'_In_Brockley_Mix\).flac -c:a libvorbis -q:a 9 -vn out.ogg                                                                                 ✭master
2==2671== Memcheck, a memory error detector
3==2671== Copyright (C) 2002-2013, and GNU GPL'd, by Julian Seward et al.
4==2671== Using Valgrind-3.10.1 and LibVEX; rerun with -h for copyright info
5==2671== Command: ./ffmpeg_g -i /home/radiocarbon/06_-_Remarc_-_Sound_Murderer_(Loafin'_In_Brockley_Mix).flac -c:a libvorbis -q:a 9 -vn out.ogg
6==2671==
7ffmpeg version N-74650-ga16251a Copyright (c) 2000-2015 the FFmpeg developers
8  built with gcc 4.9.3 (Gentoo 4.9.3 p1.0, pie-0.6.2)
9  configuration: --enable-libvorbis --disable-stripping --disable-optimizations --enable-debug
10  libavutil      54. 31.100 / 54. 31.100
11  libavcodec     56. 58.100 / 56. 58.100
12  libavformat    56. 40.101 / 56. 40.101
13  libavdevice    56.  4.100 / 56.  4.100
14  libavfilter     5. 37.100 /  5. 37.100
15  libswscale      3.  1.101 /  3.  1.101
16  libswresample   1.  2.101 /  1.  2.101
17Input #0, flac, from '/home/radiocarbon/06_-_Remarc_-_Sound_Murderer_(Loafin'_In_Brockley_Mix).flac':
18  Metadata:
19    ALBUM           : Sound Murderer
20    ALBUM ARTIST    : Remarc!
21    ARTIST          : Remarc
22    BPM             : 82
23    COMMENT         : EAC v0.99pb5 => FLAC v1.2.1 => metaflac v1.2.1
24    EXTRACTIONLOG   : Exact Audio Copy V0.99 prebeta 5 from 4. May 2009
25                    :
26                    : EAC extraction logfile from 15. May 2009, 21:59
27                    :
28                    : Various Artists / Sound Murderer
29                    :
30                    : Used drive  : HL-DT-STDVD-RAM GH22NP20   Adapter: 1  ID: 0
31                    :
32                    : Read mode               : Secure
33                    : Utilize accurate stream : Yes
34                    : Defeat audio cache      : Yes
35                    : Make use of C2 pointers : No
36                    :
37                    : Read offset correction                      : 102
38                    : Overread into Lead-In and Lead-Out          : No
39                    : Fill up missing offset samples with silence : Yes
40                    : Delete leading and trailing silent blocks   : No
41                    : Null samples used in CRC calculations       : Yes
42                    : Used interface                              : Native Win32 interface for Win NT & 2000
43                    : Gap handling                                : Left out
44                    :
45                    : Used output format              : User Defined Encoder
46                    : Selected bitrate                : 128 kBit/s
47                    : Quality                         : Low
48                    : Add ID3 tag                     : No
49                    : Command line compressor         : C:\Windows\System32\cmd.exe
50                    : Additional command line options : /a /d /k E:\afterripprocessing.bat "%a" "%t" "%g" "%y" %n "%m" %s %d "Planet Mu ZIQ084CD"
51                    :
52                    :
53                    : TOC of the extracted CD
54                    :
55                    :      Track |   Start  |  Length  | Start sector | End sector
56                    :     ---------------------------------------------------------
57                    :         1  |  0:00.00 |  0:23.11 |         0    |     1735
58                    :         2  |  0:23.11 |  3:27.35 |      1736    |    17295
59                    :         3  |  3:50.46 |  5:30.62 |     17296    |    42107
60                    :         4  |  9:21.33 |  4:55.63 |     42108    |    64295
61                    :         5  | 14:17.21 |  5:42.49 |     64296    |    89994
62                    :         6  | 19:59.70 |  4:50.17 |     89995    |   111761
63                    :         7  | 24:50.12 |  5:09.15 |    111762    |   134951
64                    :         8  | 29:59.27 |  5:48.57 |    134952    |   161108
65                    :         9  | 35:48.09 |  5:38.04 |    161109    |   186462
66                    :        10  | 41:26.13 |  4:20.50 |    186463    |   206012
67                    :        11  | 45:46.63 |  5:21.27 |    206013    |   230114
68                    :        12  | 51:08.15 |  6:15.43 |    230115    |   258282
69                    :        13  | 57:23.58 |  5:13.26 |    258283    |   281783
70                    :
71                    :
72                    : Track  1
73                    :
74                    :      Filename E:\Remarc!_-_Sound_Murderer\01_-_Remarc_+_MC_Eksman_-_Intro.wav
75                    :
76                    :      Pre-gap length  0:00:02.00
77                    :
78                    :      Peak level 62.8 %
79                    :      Track quality 100.0 %
80                    :      Test CRC 19F4AF0C
81                    :      Copy CRC 19F4AF0C
82                    :      Accurately ripped (confidence 1)  [DE22D149]
83                    :      Copy OK
84                    :
85                    : Track  2
86                    :
87                    :      Filename E:\Remarc!_-_Sound_Murderer\02_-_Remarc_-_Not_4_U.wav
88                    :
89                    :      Peak level 100.0 %
90                    :      Track quality 100.0 %
91                    :      Test CRC 7B0DE60A
92                    :      Copy CRC 7B0DE60A
93                    :      Accurately ripped (confidence 1)  [A6F403E5]
94                    :      Copy OK
95                    :
96                    : Track  3
97                    :
98                    :      Filename E:\Remarc!_-_Sound_Murderer\03_-_Remarc_-_Ice_Cream_+_Syrup_(Hard_Mix).wav
99                    :
100                    :      Peak level 84.1 %
101                    :      Track quality 100.0 %
102                    :      Test CRC BE323F65
103                    :      Copy CRC BE323F65
104                    :      Accurately ripped (confidence 1)  [56482E12]
105                    :      Copy OK
106                    :
107                    : Track  4
108                    :
109                    :      Filename E:\Remarc!_-_Sound_Murderer\04_-_Remarc_+_Simpleton_-_Unity_(Re-Mix).wav
110                    :
111                    :      Peak level 100.0 %
112                    :      Track quality 99.9 %
113                    :      Test CRC 09542F12
114                    :      Copy CRC 09542F12
115                    :      Accurately ripped (confidence 1)  [2723EAD7]
116                    :      Copy OK
117                    :
118                    : Track  5
119                    :
120                    :      Filename E:\Remarc!_-_Sound_Murderer\05_-_Remarc_-_Drum_N'_Bass_Wise_(Remix).wav
121                    :
122                    :      Peak level 97.7 %
123                    :      Track quality 99.9 %
124                    :      Test CRC C180D843
125                    :      Copy CRC C180D843
126                    :      Accurately ripped (confidence 1)  [478FB578]
127                    :      Copy OK
128                    :
129                    : Track  6
130                    :
131                    :      Filename E:\Remarc!_-_Sound_Murderer\06_-_Remarc_-_Sound_Murderer_(Loafin'_In_Brockley_Mix).wav
132                    :
133                    :      Peak level 99.1 %
134                    :      Track quality 99.9 %
135                    :      Test CRC 03598502
136                    :      Copy CRC 03598502
137                    :      Accurately ripped (confidence 1)  [4E072F71]
138                    :      Copy OK
139                    :
140                    : Track  7
141                    :
142                    :      Filename E:\Remarc!_-_Sound_Murderer\07_-_Bagga_Worries_&_Jooxie_Nice_-_Legalise_(Remarc_VIP_Mix).wav
143                    :
144                    :      Peak level 100.0 %
145                    :      Track quality 100.0 %
146                    :      Test CRC 9A1210A5
147                    :      Copy CRC 9A1210A5
148                    :      Accurately ripped (confidence 1)  [A5A89418]
149                    :      Copy OK
150                    :
151                    : Track  8
152                    :
153                    :      Filename E:\Remarc!_-_Sound_Murderer\08_-_Remarc_-_R.I.P._(Remarc_Remix).wav
154                    :
155                    :      Peak level 92.2 %
156                    :      Track quality 100.0 %
157                    :      Test CRC 24C5DEA9
158                    :      Copy CRC 24C5DEA9
159                    :      Accurately ripped (confidence 1)  [44E33AE8]
160                    :      Copy OK
161                    :
162                    : Track  9
163                    :
164                    :      Filename E:\Remarc!_-_Sound_Murderer\09_-_Physics_N'_Tricks_-_Meridian_(Remarc_Remix).wav
165                    :
166                    :      Peak level 86.1 %
167                    :      Track quality 99.9 %
168                    :      Test CRC 2C9F312B
169                    :      Copy CRC 2C9F312B
170                    :      Accurately ripped (confidence 1)  [D1315115]
171                    :      Copy OK
172                    :
173                    : Track 10
174                    :
175                    :      Filename E:\Remarc!_-_Sound_Murderer\10_-_Remarc_+_Schwarzenegger_-_For_Real_Remix.wav
176                    :
177                    :      Peak level 93.2 %
178                    :      Track quality 99.9 %
179                    :      Test CRC F1E9891C
180                    :      Copy CRC F1E9891C
181                    :      Accurately ripped (confidence 1)  [22817A10]
182                    :      Copy OK
183                    :
184                    : Track 11
185                    :
186                    :      Filename E:\Remarc!_-_Sound_Murderer\11_-_Remarc_-_Thunderclap.wav
187                    :
188                    :      Peak level 72.4 %
189                    :      Track quality 100.0 %
190                    :      Test CRC 15F2952B
191                    :      Copy CRC 15F2952B
192                    :      Accurately ripped (confidence 1)  [64E1DA7B]
193                    :      Copy OK
194                    :
195                    : Track 12
196                    :
197                    :      Filename E:\Remarc!_-_Sound_Murderer\12_-_Remarc_-_Menace,_J.A.P.M..wav
198                    :
199                    :      Peak level 97.7 %
200                    :      Track quality 99.9 %
201                    :      Test CRC 5A0C6BA8
202                    :      Copy CRC 5A0C6BA8
203                    :      Accurately ripped (confidence 1)  [288B8D41]
204                    :      Copy OK
205                    :
206                    : Track 13
207                    :
208                    :      Filename E:\Remarc!_-_Sound_Murderer\13_-_Remarc_-_2-01.wav
209                    :
210                    :      Peak level 88.1 %
211                    :      Track quality 100.0 %
212                    :      Test CRC C693FE85
213                    :      Copy CRC C693FE85
214                    :      Accurately ripped (confidence 1)  [190913FD]
215                    :      Copy OK
216                    :
217                    :
218                    : All tracks accurately ripped
219                    :
220                    : No errors occurred
221                    :
222                    : End of status report
223                    :
224    GENRE           : Jungle
225    ORIGINALCUESHEET: REM GENRE Jungle
226                    : REM DATE 2003
227                    : REM DISCID 9F0EAD0D
228                    : REM COMMENT "ExactAudioCopy v0.99pb5"
229                    : PERFORMER "Various Artists"
230                    : TITLE "Sound Murderer"
231                    : FILE "01_-_Remarc_+_MC_Eksman_-_Intro.wav" WAVE
232                    :   TRACK 01 AUDIO
233                    :     TITLE "Intro"
234                    :     PERFORMER "Remarc + MC Eksman"
235                    :     INDEX 01 00:00:00
236                    : FILE "02_-_Remarc_-_Not_4_U.wav" WAVE
237                    :   TRACK 02 AUDIO
238                    :     TITLE "Not 4 U"
239                    :     PERFORMER "Remarc"
240                    :     INDEX 01 00:00:00
241                    : FILE "03_-_Remarc_-_Ice_Cream_+_Syrup_(Hard_Mix).wav" WAVE
242                    :   TRACK 03 AUDIO
243                    :     TITLE "Ice Cream + Syrup (Hard Mix)"
244                    :     PERFORMER "Remarc"
245                    :     INDEX 01 00:00:00
246                    : FILE "04_-_Remarc_+_Simpleton_-_Unity_(Re-Mix).wav" WAVE
247                    :   TRACK 04 AUDIO
248                    :     TITLE "Unity (Re-Mix)"
249                    :     PERFORMER "Remarc + Simpleton"
250                    :     INDEX 01 00:00:00
251                    : FILE "05_-_Remarc_-_Drum_N'_Bass_Wise_(Remix).wav" WAVE
252                    :   TRACK 05 AUDIO
253                    :     TITLE "Drum N' Bass Wise (Remix)"
254                    :     PERFORMER "Remarc"
255                    :     INDEX 01 00:00:00
256                    : FILE "06_-_Remarc_-_Sound_Murderer_(Loafin'_In_Brockley_Mix).wav" WAVE
257                    :   TRACK 06 AUDIO
258                    :     TITLE "Sound Murderer (Loafin' In Brockley Mix)"
259                    :     PERFORMER "Remarc"
260                    :     INDEX 01 00:00:00
261                    : FILE "07_-_Bagga_Worries_&_Jooxie_Nice_-_Legalise_(Remarc_VIP_Mix).wav" WAVE
262                    :   TRACK 07 AUDIO
263                    :     TITLE "Legalise (Remarc VIP Mix)"
264                    :     PERFORMER "Bagga Worries & Jooxie Nice"
265                    :     INDEX 01 00:00:00
266                    : FILE "08_-_Remarc_-_R.I.P._(Remarc_Remix).wav" WAVE
267                    :   TRACK 08 AUDIO
268                    :     TITLE "R.I.P. (Remarc Remix)"
269                    :     PERFORMER "Remarc"
270                    :     INDEX 01 00:00:00
271                    : FILE "09_-_Physics_N'_Tricks_-_Meridian_(Remarc_Remix).wav" WAVE
272                    :   TRACK 09 AUDIO
273                    :     TITLE "Meridian (Remarc Remix)"
274                    :     PERFORMER "Physics N' Tricks"
275                    :     INDEX 01 00:00:00
276                    : FILE "10_-_Remarc_+_Schwarzenegger_-_For_Real_Remix.wav" WAVE
277                    :   TRACK 10 AUDIO
278                    :     TITLE "For Real Remix"
279                    :     PERFORMER "Remarc + Schwarzenegger"
280                    :     INDEX 01 00:00:00
281                    : FILE "11_-_Remarc_-_Thunderclap.wav" WAVE
282                    :   TRACK 11 AUDIO
283                    :     TITLE "Thunderclap"
284                    :     PERFORMER "Remarc"
285                    :     INDEX 01 00:00:00
286                    : FILE "12_-_Remarc_-_Menace,_J.A.P.M..wav" WAVE
287                    :   TRACK 12 AUDIO
288                    :     TITLE "Menace, J.A.P.M."
289                    :     PERFORMER "Remarc"
290                    :     INDEX 01 00:00:00
291                    : FILE "13_-_Remarc_-_2-01.wav" WAVE
292                    :   TRACK 13 AUDIO
293                    :     TITLE "2:01"
294                    :     PERFORMER "Remarc"
295                    :     INDEX 01 00:00:00
296                    :
297    PUBLISHER       : Planet Mu ZIQ084CD
298    REPLAYGAIN_ALBUM_GAIN: -6.23 dB
299    REPLAYGAIN_ALBUM_PEAK: 1.00000000
300    REPLAYGAIN_REFERENCE_LOUDNESS: 89.0 dB
301    REPLAYGAIN_TRACK_GAIN: -7.04 dB
302    REPLAYGAIN_TRACK_PEAK: 0.99176025
303    TITLE           : Sound Murderer (Loafin' In Brockley Mix)
304    TOTALTRACKS     : 13
305    track           : 6
306    TRAKTOR4        : dlVHD{RKC"AAAA4wlZhtBAC"BAAA::<y~XAAAAAAAAL#*RFt?b&RiAAAAAAAuW1DOs&6+Z/wAAAAAAAAFBAAXL5d}LR^YBuWBAAAU5(d]"KDAAAAAA,FJAAAiBAAXLAAAAEtbARBQQaS,>KAhANBxNlB+hIApALB}IDH,>JArApB3L5FvWK"lANBMM5FBAF"VA?A|D<cp1CtQAyc|+`e5z?~*(4@vQ)q`s6dV`*O#L~si&N~E%S#@9{o?~M~,?t
307  Duration: 00:04:50.23, start: 0.000000, bitrate: 879 kb/s
308    Stream #0:0: Audio: flac, 44100 Hz, stereo, s16
309    Side data:
310      replaygain: track gain - -7.040000, track peak - 0.000023, album gain - -6.230000, album peak - 0.000023,
311    Stream #0:1: Video: mjpeg, yuvj444p(pc, bt470bg/unknown/unknown), 301x300 [SAR 72:72 DAR 301:300], 90k tbr, 90k tbn, 90k tbc
312    Metadata:
313      comment         : Cover (front)
314      title           : front cover
315    Stream #0:2: Video: mjpeg, yuvj444p(pc, bt470bg/unknown/unknown), 300x300 [SAR 72:72 DAR 1:1], 90k tbr, 90k tbn, 90k tbc
316    Metadata:
317      comment         : Media (e.g. label side of CD)
318      title           : disc
319    Stream #0:3: Video: mjpeg, yuvj444p(pc, bt470bg/unknown/unknown), 350x300 [SAR 72:72 DAR 7:6], 90k tbr, 90k tbn, 90k tbc
320    Metadata:
321      comment         : Cover (back)
322      title           : back cover
323File 'out.ogg' already exists. Overwrite ? [y/N] ==2671==    at 0x13D905D: VALGRIND_PRINTF_BACKTRACE (valgrind.h:6280)
324==2671==    by 0x13D9B3D: av_log_default_callback (log.c:346)
325==2671==    by 0x13D9CFB: av_vlog (log.c:374)
326==2671==    by 0x13D9CA4: av_log (log.c:366)
327==2671==    by 0x41EFAC: term_exit (ffmpeg.c:313)
328==2671==    by 0x410BC8: assert_file_overwrite (ffmpeg_opt.c:767)
329==2671==    by 0x417CBB: open_output_file (ffmpeg_opt.c:2242)
330==2671==    by 0x41A34B: open_files (ffmpeg_opt.c:2896)
331==2671==    by 0x41A560: ffmpeg_parse_options (ffmpeg_opt.c:2947)
332==2671==    by 0x42EF31: main (ffmpeg.c:4138)
333y
334==2671== Invalid write of size 8
335==2671==    at 0x4C307E7: memset (vg_replace_strmem.c:1094)
336==2671==    by 0x6CF889: ogg_buffer_data (oggenc.c:249)
337==2671==    by 0x6D0BBC: ogg_write_header (oggenc.c:555)
338==2671==    by 0x6AB34F: avformat_write_header (mux.c:442)
339==2671==    by 0x42B693: transcode_init (ffmpeg.c:3208)
340==2671==    by 0x42E8D1: transcode (ffmpeg.c:3948)
341==2671==    by 0x42EFCA: main (ffmpeg.c:4160)
342==2671==  Address 0x882db10 is 0 bytes after a block of size 65,392 alloc'd
343==2671==    at 0x4C2C530: memalign (vg_replace_malloc.c:760)
344==2671==    by 0x4C2C647: posix_memalign (vg_replace_malloc.c:913)
345==2671==    by 0x13DC3EC: av_malloc (mem.c:97)
346==2671==    by 0x13DC72B: av_mallocz (mem.c:254)
347==2671==    by 0x6D0553: ogg_write_header (oggenc.c:461)
348==2671==    by 0x6AB34F: avformat_write_header (mux.c:442)
349==2671==    by 0x42B693: transcode_init (ffmpeg.c:3208)
350==2671==    by 0x42E8D1: transcode (ffmpeg.c:3948)
351==2671==    by 0x42EFCA: main (ffmpeg.c:4160)
352==2671==
353==2671==
354==2671== Process terminating with default action of signal 11 (SIGSEGV): dumping core
355==2671==  Bad permissions for mapped region at address 0x8AF1000
356==2671==    at 0x4C307E7: memset (vg_replace_strmem.c:1094)
357==2671==    by 0x6CF889: ogg_buffer_data (oggenc.c:249)
358==2671==    by 0x6D0BBC: ogg_write_header (oggenc.c:555)
359==2671==    by 0x6AB34F: avformat_write_header (mux.c:442)
360==2671==    by 0x42B693: transcode_init (ffmpeg.c:3208)
361==2671==    by 0x42E8D1: transcode (ffmpeg.c:3948)
362==2671==    by 0x42EFCA: main (ffmpeg.c:4160)
363==2671==
364==2671== HEAP SUMMARY:
365==2671==     in use at exit: 2,481,957 bytes in 1,606 blocks
366==2671==   total heap usage: 4,552 allocs, 2,946 frees, 5,567,250 bytes allocated
367==2671==
368==2671== LEAK SUMMARY:
369==2671==    definitely lost: 155,158 bytes in 39 blocks
370==2671==    indirectly lost: 0 bytes in 0 blocks
371==2671==      possibly lost: 5,184 bytes in 18 blocks
372==2671==    still reachable: 2,321,615 bytes in 1,549 blocks
373==2671==         suppressed: 0 bytes in 0 blocks
374==2671== Rerun with --leak-check=full to see details of leaked memory
375==2671==
376==2671== For counts of detected and suppressed errors, rerun with: -v
377==2671== ERROR SUMMARY: 315247 errors from 1 contexts (suppressed: 0 from 0)
378
379
380(gdb) bt
381#0  0x00007fc868d550c0 in __memset_sse2 () from /lib64/libc.so.6
382#1  0x00000000006cf88a in ogg_buffer_data (s=0x3ddacc0, st=0x3d6fb60, data=0x3f01940 '\377' <repeats 200 times>..., size=89915, granule=0, header=1) at libavformat/oggenc.c:249
383#2  0x00000000006d0bbd in ogg_write_header (s=0x3ddacc0) at libavformat/oggenc.c:555
384#3  0x00000000006ab350 in avformat_write_header (s=0x3ddacc0, options=0x3f9b6a8) at libavformat/mux.c:442
385#4  0x000000000042b694 in transcode_init () at ffmpeg.c:3208
386#5  0x000000000042e8d2 in transcode () at ffmpeg.c:3948
387#6  0x000000000042efcb in main (argc=9, argv=0x7ffe7aa55fe8) at ffmpeg.c:4160
388
389(gdb) disass $pc-32,$pc+32
390Dump of assembler code from 0x7fc868d550a0 to 0x7fc868d550e0:
391   0x00007fc868d550a0 <__memset_sse2+128>:      movq   %mm0,0x30(%rdi)
392   0x00007fc868d550a4 <__memset_sse2+132>:      movdqu %xmm8,-0x40(%rdi,%rdx,1)
393   0x00007fc868d550ab <__memset_sse2+139>:      add    %rdi,%rdx
394   0x00007fc868d550ae <__memset_sse2+142>:      and    $0xffffffffffffffc0,%rdx
395   0x00007fc868d550b2 <__memset_sse2+146>:      cmp    %rdx,%rcx
396   0x00007fc868d550b5 <__memset_sse2+149>:      je     0x7fc868d5505a <__memset_sse2+58>
397   0x00007fc868d550b7 <__memset_sse2+151>:      nopw   0x0(%rax,%rax,1)
398=> 0x00007fc868d550c0 <__memset_sse2+160>:      movdqa %xmm8,(%rcx)
399   0x00007fc868d550c5 <__memset_sse2+165>:      movdqa %xmm8,0x10(%rcx)
400   0x00007fc868d550cb <__memset_sse2+171>:      movdqa %xmm8,0x20(%rcx)
401   0x00007fc868d550d1 <__memset_sse2+177>:      movdqa %xmm8,0x30(%rcx)
402   0x00007fc868d550d7 <__memset_sse2+183>:      add    $0x40,%rcx
403   0x00007fc868d550db <__memset_sse2+187>:      cmp    %rcx,%rdx
404   0x00007fc868d550de <__memset_sse2+190>:      jne    0x7fc868d550c0 <__memset_sse2+160>
405End of assembler dump.
406
407
408(gdb) info all-registers
409rax            0x3ef1afd        66001661
410rbx            0x0      0
411rcx            0x3fea000        67018752
412rdx            0x3ef1ac0        66001600
413rsi            0xff     255
414rdi            0x3ef1afd        66001661
415rbp            0x7ffe7aa55770   0x7ffe7aa55770
416rsp            0x7ffe7aa556b8   0x7ffe7aa556b8
417r8             0xfe0    4064
418r9             0xfe0    4064
419r10            0xfffffffffff27a08       -886264
420r11            0x1      1
421r12            0x407740 4224832
422r13            0x7ffe7aa55fe0   140730956079072
423r14            0x0      0
424r15            0x0      0
425rip            0x7fc868d550c0   0x7fc868d550c0 <__memset_sse2+160>
426eflags         0x10287  [ CF PF SF IF RF ]
427cs             0x33     51
428ss             0x2b     43
429ds             0x0      0
430es             0x0      0
431fs             0x0      0
432gs             0x0      0
433st0            -nan(0x7b008000770081)   (raw 0xffff007b008000770081)
434st1            -nan(0x770000007d)       (raw 0xffff000000770000007d)
435st2            -nan(0x790000007e)       (raw 0xffff000000790000007e)
436st3            -nan(0x7b00000080)       (raw 0xffff0000007b00000080)
437st4            -nan(0x7d008100770080)   (raw 0xffff007d008100770080)
438st5            -nan(0x79007e00770082)   (raw 0xffff0079007e00770082)
439st6            -nan(0x77007d00770082)   (raw 0xffff0077007d00770082)
440st7            -nan(0x7d00000081)       (raw 0xffff0000007d00000081)
441fctrl          0x37f    895
442fstat          0x0      0
443ftag           0xffff   65535
444fiseg          0x0      0
445fioff          0x0      0
446foseg          0x0      0
447fooff          0x0      0
448fop            0x0      0
449xmm0           {v4_float = {0x0, 0x0, 0x0, 0x0}, v2_double = {0x0, 0x0}, v16_int8 = {0x0 <repeats 16 times>}, v8_int16 = {0x0, 0x0, 0x0, 0x0, 0x0, 0x0, 0x0, 0x0}, v4_int32 = {0x0, 0x0, 0x0, 0x0}, v2_int64 = {0x0, 0x0},
450  uint128 = 0x00000000000000000000000000000000}
451xmm1           {v4_float = {0x0, 0x0, 0x0, 0x0}, v2_double = {0x0, 0x0}, v16_int8 = {0x0 <repeats 16 times>}, v8_int16 = {0x0, 0x0, 0x0, 0x0, 0x0, 0x0, 0x0, 0x0}, v4_int32 = {0x0, 0x0, 0x0, 0x0}, v2_int64 = {0x0, 0x0},
452  uint128 = 0x00000000000000000000000000000000}
453xmm2           {v4_float = {0x0, 0x0, 0x0, 0x0}, v2_double = {0x8000000000000000, 0x8000000000000000}, v16_int8 = {0xff <repeats 16 times>}, v8_int16 = {0xffff, 0xffff, 0xffff, 0xffff, 0xffff, 0xffff, 0xffff, 0xffff}, v4_int32 = {
454    0xffffffff, 0xffffffff, 0xffffffff, 0xffffffff}, v2_int64 = {0xffffffffffffffff, 0xffffffffffffffff}, uint128 = 0xffffffffffffffffffffffffffffffff}
455xmm3           {v4_float = {0x0, 0x0, 0x0, 0x0}, v2_double = {0x8000000000000000, 0x8000000000000000}, v16_int8 = {0x0, 0xff, 0xff, 0xff, 0xff, 0xff, 0xff, 0xff, 0xff, 0x0, 0xff, 0x0, 0xff, 0xff, 0xff, 0xff}, v8_int16 = {0xff00, 0xffff,
456    0xffff, 0xffff, 0xff, 0xff, 0xffff, 0xffff}, v4_int32 = {0xffffff00, 0xffffffff, 0xff00ff, 0xffffffff}, v2_int64 = {0xffffffffffffff00, 0xffffffff00ff00ff}, uint128 = 0xffffffff00ff00ffffffffffffffff00}
457xmm4           {v4_float = {0x0, 0x0, 0x0, 0x0}, v2_double = {0x8000000000000000, 0x8000000000000000}, v16_int8 = {0x70, 0x68, 0x61, 0x0, 0x53, 0x6b, 0x69, 0x70, 0x20, 0x70, 0x72, 0x6f, 0x63, 0x65, 0x73, 0x73}, v8_int16 = {0x6870, 0x61,
458    0x6b53, 0x7069, 0x7020, 0x6f72, 0x6563, 0x7373}, v4_int32 = {0x616870, 0x70696b53, 0x6f727020, 0x73736563}, v2_int64 = {0x70696b5300616870, 0x737365636f727020}, uint128 = 0x737365636f72702070696b5300616870}
459xmm5           {v4_float = {0x0, 0x0, 0x0, 0x0}, v2_double = {0x8000000000000000, 0x8000000000000000}, v16_int8 = {0x5f, 0x70, 0x61, 0x63, 0x6b, 0x65, 0x74, 0x73, 0x0, 0x73, 0x6b, 0x69, 0x70, 0x5f, 0x61, 0x6c}, v8_int16 = {0x705f,
460    0x6361, 0x656b, 0x7374, 0x7300, 0x696b, 0x5f70, 0x6c61}, v4_int32 = {0x6361705f, 0x7374656b, 0x696b7300, 0x6c615f70}, v2_int64 = {0x7374656b6361705f, 0x6c615f70696b7300}, uint128 = 0x6c615f70696b73007374656b6361705f}
461xmm6           {v4_float = {0x0, 0x0, 0x0, 0x0}, v2_double = {0x8000000000000000, 0x8000000000000000}, v16_int8 = {0x73, 0x0, 0x73, 0x69, 0x64, 0x65, 0x5f, 0x64, 0x61, 0x74, 0x61, 0x5f, 0x6f, 0x6e, 0x6c, 0x79}, v8_int16 = {0x73, 0x6973,
462    0x6564, 0x645f, 0x7461, 0x5f61, 0x6e6f, 0x796c}, v4_int32 = {0x69730073, 0x645f6564, 0x5f617461, 0x796c6e6f}, v2_int64 = {0x645f656469730073, 0x796c6e6f5f617461}, uint128 = 0x796c6e6f5f617461645f656469730073}
463xmm7           {v4_float = {0x0, 0x0, 0x0, 0x0}, v2_double = {0x0, 0x0}, v16_int8 = {0x0 <repeats 16 times>}, v8_int16 = {0x0, 0x0, 0x0, 0x0, 0x0, 0x0, 0x0, 0x0}, v4_int32 = {0x0, 0x0, 0x0, 0x0}, v2_int64 = {0x0, 0x0},
464  uint128 = 0x00000000000000000000000000000000}
465xmm8           {v4_float = {0x0, 0x0, 0x0, 0x0}, v2_double = {0x8000000000000000, 0x8000000000000000}, v16_int8 = {0xff <repeats 16 times>}, v8_int16 = {0xffff, 0xffff, 0xffff, 0xffff, 0xffff, 0xffff, 0xffff, 0xffff}, v4_int32 = {
466    0xffffffff, 0xffffffff, 0xffffffff, 0xffffffff}, v2_int64 = {0xffffffffffffffff, 0xffffffffffffffff}, uint128 = 0xffffffffffffffffffffffffffffffff}
467xmm9           {v4_float = {0x0, 0x0, 0x0, 0x0}, v2_double = {0x8000000000000000, 0x8000000000000000}, v16_int8 = {0xff, 0xff, 0xff, 0xff, 0xff, 0xff, 0xff, 0xff, 0x0, 0xff, 0x0, 0xff, 0xff, 0xff, 0xff, 0xff}, v8_int16 = {0xffff, 0xffff,
468    0xffff, 0xffff, 0xff00, 0xff00, 0xffff, 0xffff}, v4_int32 = {0xffffffff, 0xffffffff, 0xff00ff00, 0xffffffff}, v2_int64 = {0xffffffffffffffff, 0xffffffffff00ff00}, uint128 = 0xffffffffff00ff00ffffffffffffffff}
469xmm10          {v4_float = {0x0, 0x0, 0x0, 0x0}, v2_double = {0x8000000000000000, 0x8000000000000000}, v16_int8 = {0xff <repeats 16 times>}, v8_int16 = {0xffff, 0xffff, 0xffff, 0xffff, 0xffff, 0xffff, 0xffff, 0xffff}, v4_int32 = {
470    0xffffffff, 0xffffffff, 0xffffffff, 0xffffffff}, v2_int64 = {0xffffffffffffffff, 0xffffffffffffffff}, uint128 = 0xffffffffffffffffffffffffffffffff}
471xmm11          {v4_float = {0x0, 0x0, 0x0, 0x0}, v2_double = {0x8000000000000000, 0x8000000000000000}, v16_int8 = {0xff <repeats 16 times>}, v8_int16 = {0xffff, 0xffff, 0xffff, 0xffff, 0xffff, 0xffff, 0xffff, 0xffff}, v4_int32 = {
472    0xffffffff, 0xffffffff, 0xffffffff, 0xffffffff}, v2_int64 = {0xffffffffffffffff, 0xffffffffffffffff}, uint128 = 0xffffffffffffffffffffffffffffffff}
473xmm12          {v4_float = {0x0, 0x0, 0x0, 0x0}, v2_double = {0x0, 0x0}, v16_int8 = {0x0 <repeats 16 times>}, v8_int16 = {0x0, 0x0, 0x0, 0x0, 0x0, 0x0, 0x0, 0x0}, v4_int32 = {0x0, 0x0, 0x0, 0x0}, v2_int64 = {0x0, 0x0},
474  uint128 = 0x00000000000000000000000000000000}
475xmm13          {v4_float = {0x0, 0x0, 0x0, 0x0}, v2_double = {0x0, 0x0}, v16_int8 = {0x0 <repeats 16 times>}, v8_int16 = {0x0, 0x0, 0x0, 0x0, 0x0, 0x0, 0x0, 0x0}, v4_int32 = {0x0, 0x0, 0x0, 0x0}, v2_int64 = {0x0, 0x0},
476  uint128 = 0x00000000000000000000000000000000}
477xmm14          {v4_float = {0x0, 0x0, 0x0, 0x0}, v2_double = {0x0, 0x0}, v16_int8 = {0x48, 0x5d, 0x8a, 0x85, 0xce, 0x77, 0x43, 0x39, 0x0, 0x0, 0x0, 0x0, 0x0, 0x0, 0x0, 0x0}, v8_int16 = {0x5d48, 0x858a, 0x77ce, 0x3943, 0x0, 0x0, 0x0,
478    0x0}, v4_int32 = {0x858a5d48, 0x394377ce, 0x0, 0x0}, v2_int64 = {0x394377ce858a5d48, 0x0}, uint128 = 0x0000000000000000394377ce858a5d48}
479xmm15          {v4_float = {0x0, 0x0, 0x0, 0x0}, v2_double = {0x0, 0x0}, v16_int8 = {0x0 <repeats 16 times>}, v8_int16 = {0x0, 0x0, 0x0, 0x0, 0x0, 0x0, 0x0, 0x0}, v4_int32 = {0x0, 0x0, 0x0, 0x0}, v2_int64 = {0x0, 0x0},
480  uint128 = 0x00000000000000000000000000000000}
481mxcsr          0x1fa0   [ PE IM DM ZM OM UM PM ]