Ticket #3059: ffmpeg.log

File ffmpeg.log, 5.6 KB (added by spookybathtub, 6 years ago)
Line 
1ffmpeg started on 2013-10-18 at 17:57:34
2Report written to "/Volumes/RAID/BUFFALO/Transcodes/ffmpeg.log"
3Command line:
4ffmpeg -loglevel fatal -stats -i 1.mov -vn 1.mp4
5ffmpeg version N-56979-g162e22e Copyright (c) 2000-2013 the FFmpeg developers
6  built on Oct  8 2013 12:15:29 with llvm-gcc 4.2.1 (LLVM build 2336.11.00)
7  configuration: --arch=x86_64 --enable-gpl --enable-version3 --enable-postproc --enable-libfdk-aac --enable-libfreetype --enable-libmp3lame --enable-libass --enable-libopenjpeg --enable-openssl --enable-libopus --enable-libschroedinger --enable-libspeex --enable-libtheora --enable-libvorbis --enable-libvpx --enable-libx264 --enable-yasm --enable-swscale --enable-avfilter --enable-libmodplug --enable-libbluray --enable-gnutls --enable-shared --enable-pthreads --enable-nonfree --enable-opencl --enable-avresample
8  libavutil      52. 46.101 / 52. 46.101
9  libavcodec     55. 35.100 / 55. 35.100
10  libavformat    55. 19.100 / 55. 19.100
11  libavdevice    55.  4.100 / 55.  4.100
12  libavfilter     3. 88.101 /  3. 88.101
13  libavresample   1.  1.  0 /  1.  1.  0
14  libswscale      2.  5.101 /  2.  5.101
15  libswresample   0. 17.103 /  0. 17.103
16  libpostproc    52.  3.100 / 52.  3.100
17Splitting the commandline.
18Reading option '-loglevel' ... matched as option 'loglevel' (set logging level) with argument 'fatal'.
19Reading option '-stats' ... matched as option 'stats' (print progress report during encoding) with argument '1'.
20Reading option '-i' ... matched as input file with argument '1.mov'.
21Reading option '-vn' ... matched as option 'vn' (disable video) with argument '1'.
22Reading option '1.mp4' ... matched as output file.
23Finished splitting the commandline.
24Parsing a group of options: global .
25Applying option loglevel (set logging level) with argument fatal.
26Applying option stats (print progress report during encoding) with argument 1.
27Successfully parsed a group of options.
28Parsing a group of options: input file 1.mov.
29Successfully parsed a group of options.
30Opening an input file: 1.mov.
31[mov,mp4,m4a,3gp,3g2,mj2 @ 0x7fd8eb818200] Format mov,mp4,m4a,3gp,3g2,mj2 probed with size=2048 and score=100
32[mov,mp4,m4a,3gp,3g2,mj2 @ 0x7fd8eb818200] File position before avformat_find_stream_info() is 1073743131
33[mov,mp4,m4a,3gp,3g2,mj2 @ 0x7fd8eb818200] All info found
34[mov,mp4,m4a,3gp,3g2,mj2 @ 0x7fd8eb818200] File position after avformat_find_stream_info() is 949880
35Input #0, mov,mp4,m4a,3gp,3g2,mj2, from '1.mov':
36  Metadata:
37    creation_time   : 2013-10-16 19:41:13
38  Duration: 00:00:49.84, start: 0.000000, bitrate: 172345 kb/s
39    Stream #0:0(eng), 1, 1/24000: Video: prores (apch / 0x68637061), yuv422p10le, 1920x1080, 168885 kb/s, SAR 1:1 DAR 16:9, 23.98 fps, 23.98 tbr, 24k tbn, 24k tbc (default)
40    Metadata:
41      creation_time   : 2013-10-16 19:41:13
42      handler_name    : Apple Alias Data Handler
43      timecode        : 09:47:53:20
44    Stream #0:1(eng), 8, 1/48000: Audio: pcm_s24le (lpcm / 0x6D63706C), 48000 Hz, 3.0, s32, 3456 kb/s (default)
45    Metadata:
46      creation_time   : 2013-10-16 19:41:13
47      handler_name    : Apple Alias Data Handler
48    Stream #0:2(eng), 0, 1/24000: Data: none (tmcd / 0x64636D74) (default)
49    Metadata:
50      creation_time   : 2013-10-16 19:42:07
51      handler_name    : Apple Alias Data Handler
52      timecode        : 09:47:53:20
53Successfully opened the file.
54Parsing a group of options: output file 1.mp4.
55Applying option vn (disable video) with argument 1.
56Successfully parsed a group of options.
57Opening an output file: 1.mp4.
58Successfully opened the file.
59detected 16 logical cores
60[graph 0 input from stream 0:1 @ 0x7fd8ec0003a0] Setting 'time_base' to value '1/48000'
61[graph 0 input from stream 0:1 @ 0x7fd8ec0003a0] Setting 'sample_rate' to value '48000'
62[graph 0 input from stream 0:1 @ 0x7fd8ec0003a0] Setting 'sample_fmt' to value 's32'
63[graph 0 input from stream 0:1 @ 0x7fd8ec0003a0] Setting 'channel_layout' to value '0x7'
64[graph 0 input from stream 0:1 @ 0x7fd8ec0003a0] tb:1/48000 samplefmt:s32 samplerate:48000 chlayout:0x7
65[audio format for output stream 0:0 @ 0x7fd8ec000920] Setting 'sample_fmts' to value 's16'
66[audio format for output stream 0:0 @ 0x7fd8ec000920] Setting 'sample_rates' to value '96000|88200|64000|48000|44100|32000|24000|22050|16000|12000|11025|8000'
67[audio format for output stream 0:0 @ 0x7fd8ec000920] Setting 'channel_layouts' to value '0x4|0x3|0x7|0x107|0x37|0x3f'
68[audio format for output stream 0:0 @ 0x7fd8ec000920] auto-inserting filter 'auto-inserted resampler 0' between the filter 'Parsed_anull_0' and the filter 'audio format for output stream 0:0'
69[AVFilterGraph @ 0x7fd8eb42c760] query_formats: 4 queried, 6 merged, 3 already done, 0 delayed
70[auto-inserted resampler 0 @ 0x7fd8ec000e20] ch:3 chl:3.0 fmt:s32 r:48000Hz -> ch:3 chl:3.0 fmt:s16 r:48000Hz
71Output #0, mp4, to '1.mp4':
72  Metadata:
73    encoder         : Lavf55.19.100
74    Stream #0:0(eng), 0, 1/48000: Audio: aac (libfdk_aac) ([64][0][0][0] / 0x0040), 48000 Hz, 3.0, s16, 244 kb/s (default)
75    Metadata:
76      creation_time   : 2013-10-16 19:41:13
77      handler_name    : Apple Alias Data Handler
78Stream mapping:
79  Stream #0:1 -> #0:0 (pcm_s24le -> libfdk_aac)
80Press [q] to stop, [?] for help
81[output stream 0:0 @ 0x7fd8ec000760] EOF on sink link output stream 0:0:default.
82No more output streams to write to, finishing.
83[libfdk_aac @ 0x7fd8eb840200] Trying to remove 698 more samples than there are in the queue
84
85video:0kB audio:1488kB subtitle:0 global headers:0kB muxing overhead 0.663965%
862390 frames successfully decoded, 0 decoding errors
87[AVIOContext @ 0x7fd8eb42a420] Statistics: 30 seeks, 2362 writeouts
88[AVIOContext @ 0x7fd8eb42cb00] Statistics: 30098765 bytes read, 298 seeks