Ticket #2746: ffmpeg-20130703-175119.log

File ffmpeg-20130703-175119.log, 40.4 KB (added by aivus, 5 years ago)
Line 
1ffmpeg started on 2013-07-03 at 17:51:19
2Report written to "ffmpeg-20130703-175119.log"
3Command line:
4ffmpeg.exe -report -ss 10 -i "video\\\\orig_51d32ada7179a5.91859583.avi" -to 20 test.gif
5ffmpeg version N-54362-ge0be3cb Copyright (c) 2000-2013 the FFmpeg developers
6  built on Jul  2 2013 22:15:59 with gcc 4.7.3 (GCC)
7  configuration: --enable-gpl --enable-version3 --disable-w32threads --enable-avisynth --enable-bzlib --enable-fontconfig --enable-frei0r --enable-gnutls --enable-iconv --enable-libass --enable-libbluray --enable-libcaca --enable-libfreetype --enable-libgsm --enable-libilbc --enable-libmodplug --enable-libmp3lame --enable-libopencore-amrnb --enable-libopencore-amrwb --enable-libopenjpeg --enable-libopus --enable-librtmp --enable-libschroedinger --enable-libsoxr --enable-libspeex --enable-libtheora --enable-libtwolame --enable-libvo-aacenc --enable-libvo-amrwbenc --enable-libvorbis --enable-libvpx --enable-libx264 --enable-libxavs --enable-libxvid --enable-zlib
8  libavutil      52. 38.100 / 52. 38.100
9  libavcodec     55. 18.100 / 55. 18.100
10  libavformat    55. 11.100 / 55. 11.100
11  libavdevice    55.  2.100 / 55.  2.100
12  libavfilter     3. 77.101 /  3. 77.101
13  libswscale      2.  3.100 /  2.  3.100
14  libswresample   0. 17.102 /  0. 17.102
15  libpostproc    52.  3.100 / 52.  3.100
16Splitting the commandline.
17Reading option '-report' ... matched as option 'report' (generate a report) with argument '1'.
18Reading option '-ss' ... matched as option 'ss' (set the start time offset) with argument '10'.
19Reading option '-i' ... matched as input file with argument 'video\\orig_51d32ada7179a5.91859583.avi'.
20Reading option '-to' ... matched as option 'to' (record or transcode stop time) with argument '20'.
21Reading option 'test.gif' ... matched as output file.
22Finished splitting the commandline.
23Parsing a group of options: global .
24Applying option report (generate a report) with argument 1.
25Successfully parsed a group of options.
26Parsing a group of options: input file video\\orig_51d32ada7179a5.91859583.avi.
27Applying option ss (set the start time offset) with argument 10.
28Successfully parsed a group of options.
29Opening an input file: video\\orig_51d32ada7179a5.91859583.avi.
30[avi @ 0003ca60] Format avi probed with size=2048 and score=100
31[avi @ 0409f500] use odml:1
32st:1 removing common factor 4 from timebase
33[avi @ 0003ca60] non-interleaved AVI
34[avi @ 0003ca60] File position before avformat_find_stream_info() is 2048
35[avi @ 0003ca60] parser not found for codec pcm_s16le, packets or times may be invalid.
36[mpeg4 @ 0003a9a0] Invalid and inefficient vfw-avi packed B frames detected
37[avi @ 0003ca60] parser not found for codec pcm_s16le, packets or times may be invalid.
38[avi @ 0003ca60] All info found
39[avi @ 0003ca60] File position after avformat_find_stream_info() is 6152
40Guessed Channel Layout for  Input Stream #0.1 : stereo
41Input #0, avi, from 'video\\orig_51d32ada7179a5.91859583.avi':
42  Metadata:
43    TCOD            : 0
44    TCDO            : 923200000
45  Duration: 00:01:32.32, start: 0.000000, bitrate: 4978 kb/s
46    Stream #0:0, 1, 1/25: Video: mpeg4 (Advanced Simple Profile) (XVID / 0x44495658), yuv420p, 640x480 [SAR 1:1 DAR 4:3], 25 tbr, 25 tbn, 25 tbc
47    Stream #0:1, 1, 1/48000: Audio: pcm_s16le ([1][0][0][0] / 0x0001), 48000 Hz, stereo, s16, 1536 kb/s
48Successfully opened the file.
49Parsing a group of options: output file test.gif.
50Applying option to (record or transcode stop time) with argument 20.
51Successfully parsed a group of options.
52Opening an output file: test.gif.
53Successfully opened the file.
54detected 4 logical cores
55[graph 0 input from stream 0:0 @ 040aef00] Setting 'video_size' to value '640x480'
56[graph 0 input from stream 0:0 @ 040aef00] Setting 'pix_fmt' to value '0'
57[graph 0 input from stream 0:0 @ 040aef00] Setting 'time_base' to value '1/25'
58[graph 0 input from stream 0:0 @ 040aef00] Setting 'pixel_aspect' to value '1/1'
59[graph 0 input from stream 0:0 @ 040aef00] Setting 'sws_param' to value 'flags=2'
60[graph 0 input from stream 0:0 @ 040aef00] Setting 'frame_rate' to value '25/1'
61[graph 0 input from stream 0:0 @ 040aef00] w:640 h:480 pixfmt:yuv420p tb:1/25 fr:25/1 sar:1/1 sws_param:flags=2
62[format @ 040af7e0] compat: called with args=[rgb8|bgr8|rgb4_byte|bgr4_byte|gray|pal8]
63[format @ 040af7e0] Setting 'pix_fmts' to value 'rgb8|bgr8|rgb4_byte|bgr4_byte|gray|pal8'
64[auto-inserted scaler 0 @ 040efa20] Setting 'flags' to value '0x4'
65[auto-inserted scaler 0 @ 040efa20] w:iw h:ih flags:'0x4' interl:0
66[format @ 040af7e0] auto-inserting filter 'auto-inserted scaler 0' between the filter 'Parsed_null_0' and the filter 'format'
67[AVFilterGraph @ 000349a0] query_formats: 4 queried, 3 merged, 1 already done, 0 delayed
68[auto-inserted scaler 0 @ 040efa20] picking bgr8 out of 6 ref:yuv420p alpha:0
69[swscaler @ 040f29a0] No accelerated colorspace conversion found from yuv420p to bgr8.
70[swscaler @ 040f8740] No accelerated colorspace conversion found from yuv420p to bgr8.
71[swscaler @ 040fefc0] No accelerated colorspace conversion found from yuv420p to bgr8.
72[auto-inserted scaler 0 @ 040efa20] w:640 h:480 fmt:yuv420p sar:1/1 -> w:640 h:480 fmt:bgr8 sar:1/1 flags:0x4
73Output #0, gif, to 'test.gif':
74  Metadata:
75    TCOD            : 0
76    TCDO            : 923200000
77    encoder         : Lavf55.11.100
78    Stream #0:0, 0, 1/100: Video: gif, bgr8, 640x480 [SAR 1:1 DAR 4:3], q=2-31, 200 kb/s, 100 tbn, 25 tbc
79Stream mapping:
80  Stream #0:0 -> #0:0 (mpeg4 -> gif)
81Press [q] to stop, [?] for help
82[mpeg4 @ 0003a9a0] Invalid and inefficient vfw-avi packed B frames detected
83[mpeg4 @ 040a7fa0] Invalid and inefficient vfw-avi packed B frames detected
84*** drop!
85*** drop!
86*** drop!
87*** drop!
88*** drop!
89*** drop!
90*** drop!
91*** drop!
92*** drop!
93*** drop!
94*** drop!
95*** drop!
96*** drop!
97*** drop!
98*** drop!
99*** drop!
100*** drop!
101*** drop!
102*** drop!
103*** drop!
104*** drop!
105*** drop!
106*** drop!
107*** drop!
108*** drop!
109*** drop!
110*** drop!
111*** drop!
112*** drop!
113*** drop!
114*** drop!
115*** drop!
116*** drop!
117*** drop!
118*** drop!
119*** drop!
120*** drop!
121*** drop!
122*** drop!
123*** drop!
124*** drop!
125*** drop!
126*** drop!
127*** drop!
128*** drop!
129*** drop!
130*** drop!
131*** drop!
132*** drop!
133*** drop!
134*** drop!
135*** drop!
136*** drop!
137*** drop!
138*** drop!
139*** drop!
140*** drop!
141*** drop!
142*** drop!
143*** drop!
144*** drop!
145*** drop!
146*** drop!
147*** drop!
148*** drop!
149*** drop!
150*** drop!
151*** drop!
152*** drop!
153*** drop!
154*** drop!
155*** drop!
156*** drop!
157*** drop!
158*** drop!
159*** drop!
160*** drop!
161*** drop!
162*** drop!
163*** drop!
164*** drop!
165*** drop!
166frame=    0 fps=0.0 q=0.0 size=       1kB time=00:00:00.00 bitrate=N/A dup=0 drop=82   
167*** drop!
168*** drop!
169*** drop!
170*** drop!
171*** drop!
172*** drop!
173*** drop!
174*** drop!
175*** drop!
176*** drop!
177*** drop!
178*** drop!
179*** drop!
180*** drop!
181*** drop!
182*** drop!
183*** drop!
184*** drop!
185*** drop!
186*** drop!
187*** drop!
188*** drop!
189*** drop!
190*** drop!
191*** drop!
192*** drop!
193*** drop!
194*** drop!
195*** drop!
196*** drop!
197*** drop!
198*** drop!
199*** drop!
200*** drop!
201*** drop!
202*** drop!
203*** drop!
204*** drop!
205*** drop!
206*** drop!
207*** drop!
208*** drop!
209*** drop!
210*** drop!
211*** drop!
212*** drop!
213*** drop!
214*** drop!
215*** drop!
216*** drop!
217*** drop!
218*** drop!
219*** drop!
220*** drop!
221*** drop!
222*** drop!
223*** drop!
224*** drop!
225*** drop!
226*** drop!
227*** drop!
228*** drop!
229*** drop!
230*** drop!
231*** drop!
232*** drop!
233*** drop!
234*** drop!
235*** drop!
236*** drop!
237*** drop!
238*** drop!
239*** drop!
240*** drop!
241*** drop!
242*** drop!
243*** drop!
244*** drop!
245*** drop!
246*** drop!
247*** drop!
248*** drop!
249*** drop!
250*** drop!
251*** drop!
252*** drop!
253*** drop!
254*** drop!
255*** drop!
256*** drop!
257*** drop!
258*** drop!
259*** drop!
260*** drop!
261*** drop!
262frame=    0 fps=0.0 q=0.0 size=       1kB time=00:00:00.00 bitrate=N/A dup=0 drop=177   
263*** drop!
264*** drop!
265*** drop!
266*** drop!
267*** drop!
268*** drop!
269*** drop!
270*** drop!
271*** drop!
272*** drop!
273*** drop!
274*** drop!
275*** drop!
276*** drop!
277*** drop!
278*** drop!
279*** drop!
280*** drop!
281*** drop!
282*** drop!
283*** drop!
284*** drop!
285*** drop!
286*** drop!
287*** drop!
288*** drop!
289*** drop!
290*** drop!
291*** drop!
292*** drop!
293*** drop!
294*** drop!
295*** drop!
296*** drop!
297*** drop!
298*** drop!
299*** drop!
300*** drop!
301*** drop!
302*** drop!
303*** drop!
304*** drop!
305*** drop!
306*** drop!
307*** drop!
308*** drop!
309*** drop!
310*** drop!
311*** drop!
312*** drop!
313*** drop!
314*** drop!
315*** drop!
316*** drop!
317*** drop!
318*** drop!
319*** drop!
320*** drop!
321*** drop!
322*** drop!
323*** drop!
324*** drop!
325*** drop!
326*** drop!
327[gif @ 0003e8a0] 351x480 image at pos (145;0) [area:640x480]
328[gif @ 0003e8a0] 351x480 image at pos (145;0) [area:640x480]
329[gif @ 0003e8a0] 351x480 image at pos (145;0) [area:640x480]
330[gif @ 0003e8a0] 351x480 image at pos (145;0) [area:640x480]
331[gif @ 0003e8a0] 351x480 image at pos (145;0) [area:640x480]
332[gif @ 0003e8a0] 351x480 image at pos (145;0) [area:640x480]
333[gif @ 0003e8a0] 351x480 image at pos (145;0) [area:640x480]
334[gif @ 0003e8a0] 351x480 image at pos (145;0) [area:640x480]
335[gif @ 0003e8a0] 351x480 image at pos (145;0) [area:640x480]
336frame=   10 fps=6.6 q=0.0 size=     542kB time=00:00:00.40 bitrate=11105.0kbits/s dup=0 drop=241   
337351x480 image at pos (145;0) [area:640x480]
338[gif @ 0003e8a0] 351x480 image at pos (145;0) [area:640x480]
339[gif @ 0003e8a0] 351x480 image at pos (145;0) [area:640x480]
340[gif @ 0003e8a0] 351x480 image at pos (145;0) [area:640x480]
341[gif @ 0003e8a0] 351x480 image at pos (145;0) [area:640x480]
342[gif @ 0003e8a0] 349x480 image at pos (147;0) [area:640x480]
343[gif @ 0003e8a0] 351x480 image at pos (145;0) [area:640x480]
344[mpeg4 @ 0003a9a0] frame skip 8
345[mpeg4 @ 0413cee0] frame skip 8
346[gif @ 0003e8a0] 349x480 image at pos (147;0) [area:640x480]
347[gif @ 0003e8a0] 349x480 image at pos (147;0) [area:640x480]
348[gif @ 0003e8a0] 351x480 image at pos (145;0) [area:640x480]
349[gif @ 0003e8a0] 349x480 image at pos (147;0) [area:640x480]
350[gif @ 0003e8a0] 351x480 image at pos (145;0) [area:640x480]
351[gif @ 0003e8a0] 349x480 image at pos (147;0) [area:640x480]
352[gif @ 0003e8a0] 351x480 image at pos (145;0) [area:640x480]
353[gif @ 0003e8a0] 349x480 image at pos (147;0) [area:640x480]
354[gif @ 0003e8a0] 349x480 image at pos (147;0) [area:640x480]
355[gif @ 0003e8a0] 349x480 image at pos (147;0) [area:640x480]
356[gif @ 0003e8a0] 349x480 image at pos (147;0) [area:640x480]
357[gif @ 0003e8a0] 349x480 image at pos (147;0) [area:640x480]
358[gif @ 0003e8a0] 349x480 image at pos (147;0) [area:640x480]
359[gif @ 0003e8a0] 351x480 image at pos (145;0) [area:640x480]
360[gif @ 0003e8a0] 351x480 image at pos (145;0) [area:640x480]
361[gif @ 0003e8a0] 351x480 image at pos (145;0) [area:640x480]
362[gif @ 0003e8a0] 351x480 image at pos (145;0) [area:640x480]
363[gif @ 0003e8a0] 349x480 image at pos (147;0) [area:640x480]
364[gif @ 0003e8a0] 349x480 image at pos (147;0) [area:640x480]
365[gif @ 0003e8a0] 349x480 image at pos (147;0) [area:640x480]
366[gif @ 0003e8a0] 349x480 image at pos (147;0) [area:640x480]
367[gif @ 0003e8a0] 349x480 image at pos (147;0) [area:640x480]
368[gif @ 0003e8a0] 349x480 image at pos (147;0) [area:640x480]
369frame=   40 fps= 20 q=0.0 size=    2090kB time=00:00:01.60 bitrate=10700.6kbits/s dup=0 drop=241   
370351x480 image at pos (145;0) [area:640x480]
371[gif @ 0003e8a0] 351x480 image at pos (145;0) [area:640x480]
372[gif @ 0003e8a0] 349x480 image at pos (147;0) [area:640x480]
373[gif @ 0003e8a0] 351x480 image at pos (145;0) [area:640x480]
374[gif @ 0003e8a0] 351x480 image at pos (145;0) [area:640x480]
375[gif @ 0003e8a0] 351x480 image at pos (145;0) [area:640x480]
376[gif @ 0003e8a0] 351x480 image at pos (145;0) [area:640x480]
377[gif @ 0003e8a0] 351x480 image at pos (145;0) [area:640x480]
378[gif @ 0003e8a0] 351x480 image at pos (145;0) [area:640x480]
379[gif @ 0003e8a0] 351x480 image at pos (145;0) [area:640x480]
380[gif @ 0003e8a0] 351x480 image at pos (145;0) [area:640x480]
381[gif @ 0003e8a0] 349x480 image at pos (147;0) [area:640x480]
382[gif @ 0003e8a0] 349x480 image at pos (147;0) [area:640x480]
383[gif @ 0003e8a0] 351x480 image at pos (145;0) [area:640x480]
384[gif @ 0003e8a0] 351x480 image at pos (145;0) [area:640x480]
385[gif @ 0003e8a0] 349x480 image at pos (147;0) [area:640x480]
386[gif @ 0003e8a0] 351x480 image at pos (145;0) [area:640x480]
387[gif @ 0003e8a0] 349x480 image at pos (147;0) [area:640x480]
388[gif @ 0003e8a0] 351x480 image at pos (145;0) [area:640x480]
389[gif @ 0003e8a0] 351x480 image at pos (145;0) [area:640x480]
390[gif @ 0003e8a0] 351x480 image at pos (145;0) [area:640x480]
391[gif @ 0003e8a0] 351x480 image at pos (145;0) [area:640x480]
392[gif @ 0003e8a0] 349x480 image at pos (147;0) [area:640x480]
393[gif @ 0003e8a0] 349x480 image at pos (147;0) [area:640x480]
394[gif @ 0003e8a0] 351x480 image at pos (145;0) [area:640x480]
395[gif @ 0003e8a0] 351x480 image at pos (145;0) [area:640x480]
396[gif @ 0003e8a0] 351x480 image at pos (145;0) [area:640x480]
397[gif @ 0003e8a0] 351x480 image at pos (145;0) [area:640x480]
398[gif @ 0003e8a0] 351x480 image at pos (145;0) [area:640x480]
399[gif @ 0003e8a0] 351x480 image at pos (145;0) [area:640x480]
400frame=   70 fps= 28 q=0.0 size=    3648kB time=00:00:02.80 bitrate=10671.5kbits/s dup=0 drop=241   
401351x480 image at pos (145;0) [area:640x480]
402[gif @ 0003e8a0] 351x480 image at pos (145;0) [area:640x480]
403[gif @ 0003e8a0] 351x480 image at pos (145;0) [area:640x480]
404[gif @ 0003e8a0] 349x480 image at pos (147;0) [area:640x480]
405[gif @ 0003e8a0] 349x480 image at pos (147;0) [area:640x480]
406[gif @ 0003e8a0] 351x480 image at pos (145;0) [area:640x480]
407[gif @ 0003e8a0] 351x480 image at pos (145;0) [area:640x480]
408[gif @ 0003e8a0] 351x480 image at pos (145;0) [area:640x480]
409[gif @ 0003e8a0] 351x480 image at pos (145;0) [area:640x480]
410[gif @ 0003e8a0] 351x480 image at pos (145;0) [area:640x480]
411[gif @ 0003e8a0] 351x480 image at pos (145;0) [area:640x480]
412[gif @ 0003e8a0] 351x480 image at pos (145;0) [area:640x480]
413[gif @ 0003e8a0] 349x480 image at pos (147;0) [area:640x480]
414[gif @ 0003e8a0] 351x480 image at pos (145;0) [area:640x480]
415[gif @ 0003e8a0] 351x480 image at pos (145;0) [area:640x480]
416[gif @ 0003e8a0] 351x480 image at pos (145;0) [area:640x480]
417[gif @ 0003e8a0] 349x480 image at pos (147;0) [area:640x480]
418[gif @ 0003e8a0] 351x480 image at pos (145;0) [area:640x480]
419[gif @ 0003e8a0] 351x480 image at pos (145;0) [area:640x480]
420[gif @ 0003e8a0] 351x480 image at pos (145;0) [area:640x480]
421[gif @ 0003e8a0] 351x480 image at pos (145;0) [area:640x480]
422[gif @ 0003e8a0] 351x480 image at pos (145;0) [area:640x480]
423[gif @ 0003e8a0] 349x480 image at pos (147;0) [area:640x480]
424[gif @ 0003e8a0] 351x480 image at pos (145;0) [area:640x480]
425[gif @ 0003e8a0] 351x480 image at pos (145;0) [area:640x480]
426[gif @ 0003e8a0] 351x480 image at pos (145;0) [area:640x480]
427[gif @ 0003e8a0] 349x480 image at pos (147;0) [area:640x480]
428[gif @ 0003e8a0] 351x480 image at pos (145;0) [area:640x480]
429[gif @ 0003e8a0] 351x480 image at pos (145;0) [area:640x480]
430[gif @ 0003e8a0] 349x480 image at pos (147;0) [area:640x480]
431[gif @ 0003e8a0] 349x480 image at pos (147;0) [area:640x480]
432[gif @ 0003e8a0] 351x480 image at pos (145;0) [area:640x480]
433frame=  102 fps= 34 q=0.0 size=    5131kB time=00:00:04.08 bitrate=10301.4kbits/s dup=0 drop=241   
434351x480 image at pos (145;0) [area:640x480]
435[gif @ 0003e8a0] 351x480 image at pos (145;0) [area:640x480]
436[gif @ 0003e8a0] 351x480 image at pos (145;0) [area:640x480]
437[gif @ 0003e8a0] 351x480 image at pos (145;0) [area:640x480]
438[gif @ 0003e8a0] 351x480 image at pos (145;0) [area:640x480]
439[gif @ 0003e8a0] 351x480 image at pos (145;0) [area:640x480]
440[gif @ 0003e8a0] 351x480 image at pos (145;0) [area:640x480]
441[gif @ 0003e8a0] 351x480 image at pos (145;0) [area:640x480]
442[gif @ 0003e8a0] 351x480 image at pos (145;0) [area:640x480]
443[gif @ 0003e8a0] 351x480 image at pos (145;0) [area:640x480]
444[gif @ 0003e8a0] 351x480 image at pos (145;0) [area:640x480]
445[gif @ 0003e8a0] 349x480 image at pos (147;0) [area:640x480]
446[gif @ 0003e8a0] 351x480 image at pos (145;0) [area:640x480]
447[gif @ 0003e8a0] 351x480 image at pos (145;0) [area:640x480]
448[gif @ 0003e8a0] 349x480 image at pos (147;0) [area:640x480]
449[gif @ 0003e8a0] 349x480 image at pos (147;0) [area:640x480]
450[gif @ 0003e8a0] 349x480 image at pos (147;0) [area:640x480]
451[gif @ 0003e8a0] 349x480 image at pos (147;0) [area:640x480]
452[gif @ 0003e8a0] 349x480 image at pos (147;0) [area:640x480]
453[gif @ 0003e8a0] 349x480 image at pos (147;0) [area:640x480]
454[gif @ 0003e8a0] 349x480 image at pos (147;0) [area:640x480]
455[gif @ 0003e8a0] 351x480 image at pos (145;0) [area:640x480]
456[gif @ 0003e8a0] 351x480 image at pos (145;0) [area:640x480]
457[gif @ 0003e8a0] 351x480 image at pos (145;0) [area:640x480]
458[gif @ 0003e8a0] 351x480 image at pos (145;0) [area:640x480]
459[gif @ 0003e8a0] 349x480 image at pos (147;0) [area:640x480]
460[gif @ 0003e8a0] 351x480 image at pos (145;0) [area:640x480]
461[gif @ 0003e8a0] 351x480 image at pos (145;0) [area:640x480]
462[gif @ 0003e8a0] 351x480 image at pos (145;0) [area:640x480]
463[gif @ 0003e8a0] 351x480 image at pos (145;0) [area:640x480]
464frame=  132 fps= 37 q=0.0 size=    6516kB time=00:00:05.28 bitrate=10109.5kbits/s dup=0 drop=241   
465349x480 image at pos (147;0) [area:640x480]
466[gif @ 0003e8a0] 349x480 image at pos (147;0) [area:640x480]
467[gif @ 0003e8a0] 351x480 image at pos (145;0) [area:640x480]
468[gif @ 0003e8a0] 351x480 image at pos (145;0) [area:640x480]
469[gif @ 0003e8a0] 351x480 image at pos (145;0) [area:640x480]
470[gif @ 0003e8a0] 351x480 image at pos (145;0) [area:640x480]
471[gif @ 0003e8a0] 351x480 image at pos (145;0) [area:640x480]
472[gif @ 0003e8a0] 351x480 image at pos (145;0) [area:640x480]
473[gif @ 0003e8a0] 351x480 image at pos (145;0) [area:640x480]
474[gif @ 0003e8a0] 351x480 image at pos (145;0) [area:640x480]
475[gif @ 0003e8a0] 351x480 image at pos (145;0) [area:640x480]
476[gif @ 0003e8a0] 351x480 image at pos (145;0) [area:640x480]
477[gif @ 0003e8a0] 351x480 image at pos (145;0) [area:640x480]
478[gif @ 0003e8a0] 349x480 image at pos (147;0) [area:640x480]
479[gif @ 0003e8a0] 349x480 image at pos (147;0) [area:640x480]
480[gif @ 0003e8a0] 351x480 image at pos (145;0) [area:640x480]
481[gif @ 0003e8a0] 351x480 image at pos (145;0) [area:640x480]
482[gif @ 0003e8a0] 351x480 image at pos (145;0) [area:640x480]
483[gif @ 0003e8a0] 351x480 image at pos (145;0) [area:640x480]
484[gif @ 0003e8a0] 351x480 image at pos (145;0) [area:640x480]
485[gif @ 0003e8a0] 349x480 image at pos (147;0) [area:640x480]
486[gif @ 0003e8a0] 349x480 image at pos (147;0) [area:640x480]
487[gif @ 0003e8a0] 349x480 image at pos (147;0) [area:640x480]
488[gif @ 0003e8a0] 351x480 image at pos (145;0) [area:640x480]
489[gif @ 0003e8a0] 351x480 image at pos (145;0) [area:640x480]
490[gif @ 0003e8a0] 351x480 image at pos (145;0) [area:640x480]
491[gif @ 0003e8a0] 351x480 image at pos (145;0) [area:640x480]
492[gif @ 0003e8a0] 349x480 image at pos (147;0) [area:640x480]
493frame=  160 fps= 40 q=0.0 size=    7931kB time=00:00:06.40 bitrate=10151.2kbits/s dup=0 drop=241   
494351x479 image at pos (145;0) [area:640x480]
495[gif @ 0003e8a0] 351x480 image at pos (145;0) [area:640x480]
496[gif @ 0003e8a0] 345x480 image at pos (151;0) [area:640x480]
497[gif @ 0003e8a0] 351x480 image at pos (145;0) [area:640x480]
498[gif @ 0003e8a0] 345x480 image at pos (151;0) [area:640x480]
499[gif @ 0003e8a0] 351x480 image at pos (145;0) [area:640x480]
500[gif @ 0003e8a0] 345x480 image at pos (151;0) [area:640x480]
501[gif @ 0003e8a0] 351x480 image at pos (145;0) [area:640x480]
502[gif @ 0003e8a0] 349x480 image at pos (147;0) [area:640x480]
503[gif @ 0003e8a0] 351x480 image at pos (145;0) [area:640x480]
504[gif @ 0003e8a0] 349x480 image at pos (147;0) [area:640x480]
505[gif @ 0003e8a0] 351x480 image at pos (145;0) [area:640x480]
506[gif @ 0003e8a0] 351x480 image at pos (145;0) [area:640x480]
507[gif @ 0003e8a0] 349x480 image at pos (147;0) [area:640x480]
508[gif @ 0003e8a0] 351x480 image at pos (145;0) [area:640x480]
509[gif @ 0003e8a0] 351x480 image at pos (145;0) [area:640x480]
510[gif @ 0003e8a0] 349x480 image at pos (147;0) [area:640x480]
511[gif @ 0003e8a0] 349x480 image at pos (147;0) [area:640x480]
512[gif @ 0003e8a0] 351x480 image at pos (145;0) [area:640x480]
513[gif @ 0003e8a0] 349x480 image at pos (147;0) [area:640x480]
514[gif @ 0003e8a0] 351x480 image at pos (145;0) [area:640x480]
515[gif @ 0003e8a0] 351x480 image at pos (145;0) [area:640x480]
516[gif @ 0003e8a0] 351x480 image at pos (145;0) [area:640x480]
517[gif @ 0003e8a0] 351x480 image at pos (145;0) [area:640x480]
518[gif @ 0003e8a0] 351x480 image at pos (145;0) [area:640x480]
519[gif @ 0003e8a0] 351x480 image at pos (145;0) [area:640x480]
520[gif @ 0003e8a0] 351x480 image at pos (145;0) [area:640x480]
521[gif @ 0003e8a0] 351x480 image at pos (145;0) [area:640x480]
522[gif @ 0003e8a0] 351x480 image at pos (145;0) [area:640x480]
523[gif @ 0003e8a0] 351x480 image at pos (145;0) [area:640x480]
524frame=  190 fps= 42 q=0.0 size=    9348kB time=00:00:07.60 bitrate=10076.4kbits/s dup=0 drop=241   
525351x480 image at pos (145;0) [area:640x480]
526[gif @ 0003e8a0] 351x480 image at pos (145;0) [area:640x480]
527[gif @ 0003e8a0] 351x480 image at pos (145;0) [area:640x480]
528[gif @ 0003e8a0] 349x480 image at pos (147;0) [area:640x480]
529[gif @ 0003e8a0] 351x480 image at pos (145;0) [area:640x480]
530[gif @ 0003e8a0] 351x480 image at pos (145;0) [area:640x480]
531[gif @ 0003e8a0] 351x480 image at pos (145;0) [area:640x480]
532[gif @ 0003e8a0] 349x480 image at pos (147;0) [area:640x480]
533[gif @ 0003e8a0] 347x480 image at pos (149;0) [area:640x480]
534[gif @ 0003e8a0] 351x480 image at pos (145;0) [area:640x480]
535[gif @ 0003e8a0] 349x480 image at pos (147;0) [area:640x480]
536[gif @ 0003e8a0] 351x480 image at pos (145;0) [area:640x480]
537[gif @ 0003e8a0] 345x480 image at pos (151;0) [area:640x480]
538[gif @ 0003e8a0] 349x480 image at pos (147;0) [area:640x480]
539[gif @ 0003e8a0] 351x480 image at pos (145;0) [area:640x480]
540[gif @ 0003e8a0] 349x480 image at pos (147;0) [area:640x480]
541[gif @ 0003e8a0] 351x480 image at pos (145;0) [area:640x480]
542[gif @ 0003e8a0] 351x480 image at pos (145;0) [area:640x480]
543[gif @ 0003e8a0] 351x480 image at pos (145;0) [area:640x480]
544[gif @ 0003e8a0] 351x480 image at pos (145;0) [area:640x480]
545[gif @ 0003e8a0] 349x480 image at pos (147;0) [area:640x480]
546[gif @ 0003e8a0] 351x480 image at pos (145;0) [area:640x480]
547[gif @ 0003e8a0] 351x480 image at pos (145;0) [area:640x480]
548[gif @ 0003e8a0] 351x480 image at pos (145;0) [area:640x480]
549[gif @ 0003e8a0] 349x480 image at pos (147;0) [area:640x480]
550[gif @ 0003e8a0] 351x480 image at pos (145;0) [area:640x480]
551[gif @ 0003e8a0] 349x480 image at pos (147;0) [area:640x480]
552[gif @ 0003e8a0] 351x480 image at pos (145;0) [area:640x480]
553[gif @ 0003e8a0] 351x480 image at pos (145;0) [area:640x480]
554[gif @ 0003e8a0] 349x480 image at pos (147;0) [area:640x480]
555frame=  220 fps= 43 q=0.0 size=   10993kB time=00:00:08.80 bitrate=10233.8kbits/s dup=0 drop=241   
556351x480 image at pos (145;0) [area:640x480]
557[gif @ 0003e8a0] 351x480 image at pos (145;0) [area:640x480]
558[gif @ 0003e8a0] 351x480 image at pos (145;0) [area:640x480]
559[gif @ 0003e8a0] 351x480 image at pos (145;0) [area:640x480]
560[gif @ 0003e8a0] 351x480 image at pos (145;0) [area:640x480]
561[gif @ 0003e8a0] 351x480 image at pos (145;0) [area:640x480]
562[gif @ 0003e8a0] 351x480 image at pos (145;0) [area:640x480]
563[gif @ 0003e8a0] 351x480 image at pos (145;0) [area:640x480]
564[gif @ 0003e8a0] 349x480 image at pos (147;0) [area:640x480]
565[gif @ 0003e8a0] 349x480 image at pos (147;0) [area:640x480]
566[gif @ 0003e8a0] 345x480 image at pos (151;0) [area:640x480]
567[gif @ 0003e8a0] 351x480 image at pos (145;0) [area:640x480]
568[gif @ 0003e8a0] 351x480 image at pos (145;0) [area:640x480]
569[gif @ 0003e8a0] 351x480 image at pos (145;0) [area:640x480]
570[gif @ 0003e8a0] 351x480 image at pos (145;0) [area:640x480]
571[gif @ 0003e8a0] 349x480 image at pos (147;0) [area:640x480]
572[gif @ 0003e8a0] 349x480 image at pos (147;0) [area:640x480]
573[gif @ 0003e8a0] 349x480 image at pos (147;0) [area:640x480]
574[gif @ 0003e8a0] 349x480 image at pos (147;0) [area:640x480]
575[gif @ 0003e8a0] 349x480 image at pos (147;0) [area:640x480]
576[gif @ 0003e8a0] 349x480 image at pos (147;0) [area:640x480]
577[gif @ 0003e8a0] 349x480 image at pos (147;0) [area:640x480]
578[gif @ 0003e8a0] 349x480 image at pos (147;0) [area:640x480]
579[gif @ 0003e8a0] 351x480 image at pos (145;0) [area:640x480]
580[gif @ 0003e8a0] 351x480 image at pos (145;0) [area:640x480]
581[gif @ 0003e8a0] 349x480 image at pos (147;0) [area:640x480]
582[gif @ 0003e8a0] 351x480 image at pos (145;0) [area:640x480]
583[gif @ 0003e8a0] 349x480 image at pos (147;0) [area:640x480]
584[gif @ 0003e8a0] 349x480 image at pos (147;0) [area:640x480]
585frame=  249 fps= 45 q=0.0 size=   12500kB time=00:00:09.96 bitrate=10280.8kbits/s dup=0 drop=241   
586351x480 image at pos (145;0) [area:640x480]
587[gif @ 0003e8a0] 349x480 image at pos (147;0) [area:640x480]
588[gif @ 0003e8a0] 345x480 image at pos (151;0) [area:640x480]
589[gif @ 0003e8a0] 351x480 image at pos (145;0) [area:640x480]
590[gif @ 0003e8a0] 351x480 image at pos (145;0) [area:640x480]
591[gif @ 0003e8a0] 351x480 image at pos (145;0) [area:640x480]
592[gif @ 0003e8a0] 351x480 image at pos (145;0) [area:640x480]
593[gif @ 0003e8a0] 351x480 image at pos (145;0) [area:640x480]
594[gif @ 0003e8a0] 351x480 image at pos (145;0) [area:640x480]
595[gif @ 0003e8a0] 351x480 image at pos (145;0) [area:640x480]
596[gif @ 0003e8a0] 349x480 image at pos (147;0) [area:640x480]
597[gif @ 0003e8a0] 349x480 image at pos (147;0) [area:640x480]
598[gif @ 0003e8a0] 349x480 image at pos (147;0) [area:640x480]
599[gif @ 0003e8a0] 351x480 image at pos (145;0) [area:640x480]
600[gif @ 0003e8a0] 349x480 image at pos (147;0) [area:640x480]
601[gif @ 0003e8a0] 351x480 image at pos (145;0) [area:640x480]
602[gif @ 0003e8a0] 349x480 image at pos (147;0) [area:640x480]
603[gif @ 0003e8a0] 351x480 image at pos (145;0) [area:640x480]
604[gif @ 0003e8a0] 351x480 image at pos (145;0) [area:640x480]
605[gif @ 0003e8a0] 349x480 image at pos (147;0) [area:640x480]
606[gif @ 0003e8a0] 349x480 image at pos (147;0) [area:640x480]
607[gif @ 0003e8a0] 351x480 image at pos (145;0) [area:640x480]
608[gif @ 0003e8a0] 349x480 image at pos (147;0) [area:640x480]
609[gif @ 0003e8a0] 351x480 image at pos (145;0) [area:640x480]
610[gif @ 0003e8a0] 351x480 image at pos (145;0) [area:640x480]
611[gif @ 0003e8a0] 349x480 image at pos (147;0) [area:640x480]
612[gif @ 0003e8a0] 349x480 image at pos (147;0) [area:640x480]
613[gif @ 0003e8a0] 349x480 image at pos (147;0) [area:640x480]
614[gif @ 0003e8a0] 351x480 image at pos (145;0) [area:640x480]
615frame=  278 fps= 46 q=0.0 size=   13861kB time=00:00:11.12 bitrate=10210.9kbits/s dup=0 drop=241   
616343x480 image at pos (153;0) [area:640x480]
617[gif @ 0003e8a0] 349x480 image at pos (147;0) [area:640x480]
618[gif @ 0003e8a0] 349x480 image at pos (147;0) [area:640x480]
619[gif @ 0003e8a0] 351x480 image at pos (145;0) [area:640x480]
620[gif @ 0003e8a0] 351x480 image at pos (145;0) [area:640x480]
621[gif @ 0003e8a0] 351x480 image at pos (145;0) [area:640x480]
622[gif @ 0003e8a0] 351x480 image at pos (145;0) [area:640x480]
623[gif @ 0003e8a0] 351x480 image at pos (145;0) [area:640x480]
624[gif @ 0003e8a0] 351x480 image at pos (145;0) [area:640x480]
625[gif @ 0003e8a0] 351x480 image at pos (145;0) [area:640x480]
626[gif @ 0003e8a0] 351x480 image at pos (145;0) [area:640x480]
627[gif @ 0003e8a0] 351x480 image at pos (145;0) [area:640x480]
628[gif @ 0003e8a0] 351x480 image at pos (145;0) [area:640x480]
629[gif @ 0003e8a0] 349x480 image at pos (147;0) [area:640x480]
630[gif @ 0003e8a0] 351x480 image at pos (145;0) [area:640x480]
631[gif @ 0003e8a0] 349x480 image at pos (147;0) [area:640x480]
632[gif @ 0003e8a0] 349x480 image at pos (147;0) [area:640x480]
633[gif @ 0003e8a0] 351x480 image at pos (145;0) [area:640x480]
634[gif @ 0003e8a0] 351x480 image at pos (145;0) [area:640x480]
635[gif @ 0003e8a0] 349x480 image at pos (147;0) [area:640x480]
636[gif @ 0003e8a0] 349x480 image at pos (147;0) [area:640x480]
637[gif @ 0003e8a0] 351x480 image at pos (145;0) [area:640x480]
638[gif @ 0003e8a0] 351x480 image at pos (145;0) [area:640x480]
639[gif @ 0003e8a0] 349x480 image at pos (147;0) [area:640x480]
640[gif @ 0003e8a0] 351x480 image at pos (145;0) [area:640x480]
641[gif @ 0003e8a0] 349x480 image at pos (147;0) [area:640x480]
642[gif @ 0003e8a0] 349x480 image at pos (147;0) [area:640x480]
643[gif @ 0003e8a0] 351x480 image at pos (145;0) [area:640x480]
644[gif @ 0003e8a0] 351x480 image at pos (145;0) [area:640x480]
645[gif @ 0003e8a0] 351x480 image at pos (145;0) [area:640x480]
646frame=  308 fps= 47 q=0.0 size=   15305kB time=00:00:12.32 bitrate=10176.8kbits/s dup=0 drop=241   
647351x480 image at pos (145;0) [area:640x480]
648[gif @ 0003e8a0] 351x480 image at pos (145;0) [area:640x480]
649[gif @ 0003e8a0] 351x480 image at pos (145;0) [area:640x480]
650[gif @ 0003e8a0] 349x480 image at pos (147;0) [area:640x480]
651[gif @ 0003e8a0] 351x480 image at pos (145;0) [area:640x480]
652[gif @ 0003e8a0] 349x480 image at pos (147;0) [area:640x480]
653[gif @ 0003e8a0] 349x480 image at pos (147;0) [area:640x480]
654[gif @ 0003e8a0] 351x480 image at pos (145;0) [area:640x480]
655[gif @ 0003e8a0] 349x480 image at pos (147;0) [area:640x480]
656[gif @ 0003e8a0] 351x480 image at pos (145;0) [area:640x480]
657[gif @ 0003e8a0] 349x480 image at pos (147;0) [area:640x480]
658[gif @ 0003e8a0] 345x480 image at pos (151;0) [area:640x480]
659[gif @ 0003e8a0] 351x480 image at pos (145;0) [area:640x480]
660[gif @ 0003e8a0] 351x480 image at pos (145;0) [area:640x480]
661[gif @ 0003e8a0] 349x480 image at pos (147;0) [area:640x480]
662[gif @ 0003e8a0] 351x480 image at pos (145;0) [area:640x480]
663[gif @ 0003e8a0] 349x480 image at pos (147;0) [area:640x480]
664[gif @ 0003e8a0] 349x480 image at pos (147;0) [area:640x480]
665[gif @ 0003e8a0] 349x480 image at pos (147;0) [area:640x480]
666[gif @ 0003e8a0] 349x480 image at pos (147;0) [area:640x480]
667[gif @ 0003e8a0] 349x480 image at pos (147;0) [area:640x480]
668[gif @ 0003e8a0] 351x480 image at pos (145;0) [area:640x480]
669[gif @ 0003e8a0] 351x480 image at pos (145;0) [area:640x480]
670[gif @ 0003e8a0] 351x480 image at pos (145;0) [area:640x480]
671[gif @ 0003e8a0] 351x480 image at pos (145;0) [area:640x480]
672[gif @ 0003e8a0] 351x480 image at pos (145;0) [area:640x480]
673[gif @ 0003e8a0] 351x480 image at pos (145;0) [area:640x480]
674[gif @ 0003e8a0] 351x480 image at pos (145;0) [area:640x480]
675[gif @ 0003e8a0] 351x480 image at pos (145;0) [area:640x480]
676frame=  337 fps= 48 q=0.0 size=   16758kB time=00:00:13.48 bitrate=10184.2kbits/s dup=0 drop=241   
677351x480 image at pos (145;0) [area:640x480]
678[gif @ 0003e8a0] 351x480 image at pos (145;0) [area:640x480]
679[gif @ 0003e8a0] 351x480 image at pos (145;0) [area:640x480]
680[gif @ 0003e8a0] 351x480 image at pos (145;0) [area:640x480]
681[gif @ 0003e8a0] 351x480 image at pos (145;0) [area:640x480]
682[gif @ 0003e8a0] 345x480 image at pos (151;0) [area:640x480]
683[gif @ 0003e8a0] 349x480 image at pos (147;0) [area:640x480]
684[gif @ 0003e8a0] 351x480 image at pos (145;0) [area:640x480]
685[gif @ 0003e8a0] 351x480 image at pos (145;0) [area:640x480]
686[gif @ 0003e8a0] 351x480 image at pos (145;0) [area:640x480]
687[gif @ 0003e8a0] 349x480 image at pos (147;0) [area:640x480]
688[gif @ 0003e8a0] 349x480 image at pos (147;0) [area:640x480]
689[gif @ 0003e8a0] 349x480 image at pos (147;0) [area:640x480]
690[gif @ 0003e8a0] 347x480 image at pos (149;0) [area:640x480]
691[gif @ 0003e8a0] 351x480 image at pos (145;0) [area:640x480]
692[gif @ 0003e8a0] 351x480 image at pos (145;0) [area:640x480]
693[gif @ 0003e8a0] 349x480 image at pos (147;0) [area:640x480]
694[gif @ 0003e8a0] 351x480 image at pos (145;0) [area:640x480]
695[gif @ 0003e8a0] 349x480 image at pos (147;0) [area:640x480]
696[gif @ 0003e8a0] 351x480 image at pos (145;0) [area:640x480]
697[gif @ 0003e8a0] 351x480 image at pos (145;0) [area:640x480]
698[gif @ 0003e8a0] 349x480 image at pos (147;0) [area:640x480]
699[gif @ 0003e8a0] 351x480 image at pos (145;0) [area:640x480]
700[gif @ 0003e8a0] 351x480 image at pos (145;0) [area:640x480]
701[gif @ 0003e8a0] 351x480 image at pos (145;0) [area:640x480]
702[gif @ 0003e8a0] 351x480 image at pos (145;0) [area:640x480]
703[gif @ 0003e8a0] 351x480 image at pos (145;0) [area:640x480]
704[gif @ 0003e8a0] 351x480 image at pos (145;0) [area:640x480]
705[gif @ 0003e8a0] 351x480 image at pos (145;0) [area:640x480]
706[gif @ 0003e8a0] 351x480 image at pos (145;0) [area:640x480]
707frame=  367 fps= 48 q=0.0 size=   18149kB time=00:00:14.68 bitrate=10128.0kbits/s dup=0 drop=241   
708351x480 image at pos (145;0) [area:640x480]
709[gif @ 0003e8a0] 349x480 image at pos (147;0) [area:640x480]
710[gif @ 0003e8a0] 349x480 image at pos (147;0) [area:640x480]
711[gif @ 0003e8a0] 349x480 image at pos (147;0) [area:640x480]
712[gif @ 0003e8a0] 351x480 image at pos (145;0) [area:640x480]
713[gif @ 0003e8a0] 351x480 image at pos (145;0) [area:640x480]
714[gif @ 0003e8a0] 349x480 image at pos (147;0) [area:640x480]
715[gif @ 0003e8a0] 351x480 image at pos (145;0) [area:640x480]
716[gif @ 0003e8a0] 351x480 image at pos (145;0) [area:640x480]
717[gif @ 0003e8a0] 351x480 image at pos (145;0) [area:640x480]
718[gif @ 0003e8a0] 351x480 image at pos (145;0) [area:640x480]
719[gif @ 0003e8a0] 351x480 image at pos (145;0) [area:640x480]
720[gif @ 0003e8a0] 351x480 image at pos (145;0) [area:640x480]
721[gif @ 0003e8a0] 349x480 image at pos (147;0) [area:640x480]
722[gif @ 0003e8a0] 349x480 image at pos (147;0) [area:640x480]
723[gif @ 0003e8a0] 351x480 image at pos (145;0) [area:640x480]
724[gif @ 0003e8a0] 349x480 image at pos (147;0) [area:640x480]
725[gif @ 0003e8a0] 351x480 image at pos (145;0) [area:640x480]
726[gif @ 0003e8a0] 349x480 image at pos (147;0) [area:640x480]
727[gif @ 0003e8a0] 351x480 image at pos (145;0) [area:640x480]
728[gif @ 0003e8a0] 351x480 image at pos (145;0) [area:640x480]
729[gif @ 0003e8a0] 351x480 image at pos (145;0) [area:640x480]
730[gif @ 0003e8a0] 351x480 image at pos (145;0) [area:640x480]
731[gif @ 0003e8a0] 351x480 image at pos (145;0) [area:640x480]
732[gif @ 0003e8a0] 349x480 image at pos (147;0) [area:640x480]
733[gif @ 0003e8a0] 349x480 image at pos (147;0) [area:640x480]
734[gif @ 0003e8a0] 349x480 image at pos (147;0) [area:640x480]
735[gif @ 0003e8a0] 349x480 image at pos (147;0) [area:640x480]
736[gif @ 0003e8a0] 349x480 image at pos (147;0) [area:640x480]
737frame=  396 fps= 49 q=0.0 size=   19469kB time=00:00:15.84 bitrate=10069.0kbits/s dup=0 drop=241   
738351x480 image at pos (145;0) [area:640x480]
739[gif @ 0003e8a0] 349x480 image at pos (147;0) [area:640x480]
740[gif @ 0003e8a0] 349x480 image at pos (147;0) [area:640x480]
741[gif @ 0003e8a0] 351x480 image at pos (145;0) [area:640x480]
742[gif @ 0003e8a0] 349x480 image at pos (147;0) [area:640x480]
743[gif @ 0003e8a0] 351x480 image at pos (145;0) [area:640x480]
744[gif @ 0003e8a0] 349x480 image at pos (147;0) [area:640x480]
745[gif @ 0003e8a0] 349x480 image at pos (147;0) [area:640x480]
746[gif @ 0003e8a0] 345x480 image at pos (151;0) [area:640x480]
747[gif @ 0003e8a0] 349x480 image at pos (147;0) [area:640x480]
748[gif @ 0003e8a0] 345x480 image at pos (151;0) [area:640x480]
749[gif @ 0003e8a0] 349x480 image at pos (147;0) [area:640x480]
750[gif @ 0003e8a0] 349x480 image at pos (147;0) [area:640x480]
751[gif @ 0003e8a0] 349x480 image at pos (147;0) [area:640x480]
752[gif @ 0003e8a0] 349x480 image at pos (147;0) [area:640x480]
753[gif @ 0003e8a0] 349x480 image at pos (147;0) [area:640x480]
754[gif @ 0003e8a0] 345x480 image at pos (151;0) [area:640x480]
755[gif @ 0003e8a0] 349x480 image at pos (147;0) [area:640x480]
756[gif @ 0003e8a0] 349x480 image at pos (147;0) [area:640x480]
757[gif @ 0003e8a0] 345x480 image at pos (151;0) [area:640x480]
758[gif @ 0003e8a0] 349x480 image at pos (147;0) [area:640x480]
759[gif @ 0003e8a0] 349x480 image at pos (147;0) [area:640x480]
760[gif @ 0003e8a0] 349x480 image at pos (147;0) [area:640x480]
761[gif @ 0003e8a0] 349x480 image at pos (147;0) [area:640x480]
762[gif @ 0003e8a0] 349x480 image at pos (147;0) [area:640x480]
763[gif @ 0003e8a0] 349x480 image at pos (147;0) [area:640x480]
764[gif @ 0003e8a0] 349x480 image at pos (147;0) [area:640x480]
765[gif @ 0003e8a0] 349x480 image at pos (147;0) [area:640x480]
766[gif @ 0003e8a0] 349x480 image at pos (147;0) [area:640x480]
767[gif @ 0003e8a0] 349x480 image at pos (147;0) [area:640x480]
768frame=  426 fps= 49 q=0.0 size=   20961kB time=00:00:17.04 bitrate=10077.0kbits/s dup=0 drop=241   
769349x480 image at pos (147;0) [area:640x480]
770[gif @ 0003e8a0] 349x480 image at pos (147;0) [area:640x480]
771[gif @ 0003e8a0] 351x480 image at pos (145;0) [area:640x480]
772[gif @ 0003e8a0] 349x480 image at pos (147;0) [area:640x480]
773[gif @ 0003e8a0] 349x480 image at pos (147;0) [area:640x480]
774[gif @ 0003e8a0] 351x480 image at pos (145;0) [area:640x480]
775[gif @ 0003e8a0] 349x480 image at pos (147;0) [area:640x480]
776[gif @ 0003e8a0] 349x480 image at pos (147;0) [area:640x480]
777[gif @ 0003e8a0] 349x479 image at pos (147;0) [area:640x480]
778[gif @ 0003e8a0] 349x480 image at pos (147;0) [area:640x480]
779[gif @ 0003e8a0] 345x480 image at pos (151;0) [area:640x480]
780[gif @ 0003e8a0] 349x479 image at pos (147;0) [area:640x480]
781[gif @ 0003e8a0] 349x480 image at pos (147;0) [area:640x480]
782[gif @ 0003e8a0] 345x480 image at pos (151;0) [area:640x480]
783[gif @ 0003e8a0] 349x480 image at pos (147;0) [area:640x480]
784[gif @ 0003e8a0] 349x480 image at pos (147;0) [area:640x480]
785[gif @ 0003e8a0] 349x479 image at pos (147;0) [area:640x480]
786[gif @ 0003e8a0] 349x480 image at pos (147;0) [area:640x480]
787[gif @ 0003e8a0] 349x480 image at pos (147;0) [area:640x480]
788[gif @ 0003e8a0] 349x480 image at pos (147;0) [area:640x480]
789[gif @ 0003e8a0] 351x480 image at pos (145;0) [area:640x480]
790[gif @ 0003e8a0] 351x480 image at pos (145;0) [area:640x480]
791[gif @ 0003e8a0] 349x480 image at pos (147;0) [area:640x480]
792[gif @ 0003e8a0] 349x480 image at pos (147;0) [area:640x480]
793[gif @ 0003e8a0] 349x480 image at pos (147;0) [area:640x480]
794[gif @ 0003e8a0] 349x480 image at pos (147;0) [area:640x480]
795[gif @ 0003e8a0] 351x480 image at pos (145;0) [area:640x480]
796[gif @ 0003e8a0] 351x480 image at pos (145;0) [area:640x480]
797[gif @ 0003e8a0] 351x480 image at pos (145;0) [area:640x480]
798[gif @ 0003e8a0] 351x480 image at pos (145;0) [area:640x480]
799frame=  456 fps= 50 q=0.0 size=   22420kB time=00:00:18.24 bitrate=10069.1kbits/s dup=0 drop=241   
800351x480 image at pos (145;0) [area:640x480]
801[gif @ 0003e8a0] 351x480 image at pos (145;0) [area:640x480]
802[gif @ 0003e8a0] 351x480 image at pos (145;0) [area:640x480]
803[gif @ 0003e8a0] 349x480 image at pos (147;0) [area:640x480]
804[gif @ 0003e8a0] 349x480 image at pos (147;0) [area:640x480]
805[gif @ 0003e8a0] 345x480 image at pos (151;0) [area:640x480]
806[gif @ 0003e8a0] 349x480 image at pos (147;0) [area:640x480]
807[gif @ 0003e8a0] 349x480 image at pos (147;0) [area:640x480]
808[gif @ 0003e8a0] 351x480 image at pos (145;0) [area:640x480]
809[gif @ 0003e8a0] 351x480 image at pos (145;0) [area:640x480]
810[gif @ 0003e8a0] 351x480 image at pos (145;0) [area:640x480]
811[gif @ 0003e8a0] 351x480 image at pos (145;0) [area:640x480]
812[gif @ 0003e8a0] 351x480 image at pos (145;0) [area:640x480]
813[gif @ 0003e8a0] 351x480 image at pos (145;0) [area:640x480]
814[gif @ 0003e8a0] 349x480 image at pos (147;0) [area:640x480]
815[gif @ 0003e8a0] 345x480 image at pos (151;0) [area:640x480]
816[gif @ 0003e8a0] 351x480 image at pos (145;0) [area:640x480]
817[gif @ 0003e8a0] 351x480 image at pos (145;0) [area:640x480]
818[gif @ 0003e8a0] 351x480 image at pos (145;0) [area:640x480]
819[gif @ 0003e8a0] 351x480 image at pos (145;0) [area:640x480]
820[gif @ 0003e8a0] 351x480 image at pos (145;0) [area:640x480]
821[gif @ 0003e8a0] 351x480 image at pos (145;0) [area:640x480]
822[gif @ 0003e8a0] 351x480 image at pos (145;0) [area:640x480]
823[gif @ 0003e8a0] 351x480 image at pos (145;0) [area:640x480]
824[gif @ 0003e8a0] 351x480 image at pos (145;0) [area:640x480]
825[gif @ 0003e8a0] 351x480 image at pos (145;0) [area:640x480]
826[gif @ 0003e8a0] 351x480 image at pos (145;0) [area:640x480]
827[gif @ 0003e8a0] 351x480 image at pos (145;0) [area:640x480]
828[gif @ 0003e8a0] 349x480 image at pos (147;0) [area:640x480]
829frame=  485 fps= 50 q=0.0 size=   24005kB time=00:00:19.40 bitrate=10136.4kbits/s dup=0 drop=241   
830351x480 image at pos (145;0) [area:640x480]
831[gif @ 0003e8a0] 351x480 image at pos (145;0) [area:640x480]
832[gif @ 0003e8a0] 351x480 image at pos (145;0) [area:640x480]
833[gif @ 0003e8a0] 351x480 image at pos (145;0) [area:640x480]
834[gif @ 0003e8a0] 351x480 image at pos (145;0) [area:640x480]
835[gif @ 0003e8a0] 351x480 image at pos (145;0) [area:640x480]
836[gif @ 0003e8a0] 351x480 image at pos (145;0) [area:640x480]
837[gif @ 0003e8a0] 349x480 image at pos (147;0) [area:640x480]
838[gif @ 0003e8a0] 349x480 image at pos (147;0) [area:640x480]
839[gif @ 0003e8a0] 349x480 image at pos (147;0) [area:640x480]
840[gif @ 0003e8a0] 349x480 image at pos (147;0) [area:640x480]
841[gif @ 0003e8a0] 349x480 image at pos (147;0) [area:640x480]
842[gif @ 0003e8a0] 349x480 image at pos (147;0) [area:640x480]
843[gif @ 0003e8a0] 349x480 image at pos (147;0) [area:640x480]
844[gif @ 0003e8a0] 349x480 image at pos (147;0) [area:640x480]
845No more output streams to write to, finishing.
846frame=  500 fps= 50 q=0.0 Lsize=   24952kB time=00:00:20.00 bitrate=10220.3kbits/s dup=0 drop=241   
847
848video:25453kB audio:0kB subtitle:0 global headers:0kB muxing overhead -1.966979%
849753 frames successfully decoded, 0 decoding errors
850[AVIOContext @ 0003ee20] Statistics: 0 seeks, 1001 writeouts
851[AVIOContext @ 00039900] Statistics: 53492683 bytes read, 1565 seeks